osu file format v12

[General]
AudioFilename: Train - Drive By.mp3
AudioLeadIn: 0
PreviewTime: 37405
Countdown: 0
SampleSet: Soft
StackLeniency: 0.7
Mode: 0
LetterboxInBreaks: 0

[Editor]
Bookmarks: 5929,21667,37405,53142,68880,86585,102323,118060,133798,149536,157405,173142,188880
DistanceSpacing: 1
BeatDivisor: 4
GridSize: 4

[Metadata]
Title:Drive By
TitleUnicode:Drive By
Artist:Train
ArtistUnicode:Train
Creator:Nemis
Version:Hard
Source:
Tags:Collab Collaboration Reiji-RJ Ayu Roxas Alternative Pat Monahan Rob Hotchkiss Jimmy Stafford Charlie Colin Scott Underwood
BeatmapID:254074
BeatmapSetID:93629

[Difficulty]
HPDrainRate:5
CircleSize:4
OverallDifficulty:5
ApproachRate:7
SliderMultiplier:1.5
SliderTickRate:1

[Events]
//Background and Video events
0,0,"Drive By.png",0,0
//Break Periods
2,133998,144701
//Storyboard Layer 0 (Background)
//Storyboard Layer 1 (Fail)
//Storyboard Layer 2 (Pass)
//Storyboard Layer 3 (Foreground)
//Storyboard Sound Samples
//Background Colour Transformations
3,100,0,0,0

[TimingPoints]
28,491.803278688525,4,2,1,40,1,0
37405,-83.3333333333333,4,1,1,50,0,1
53019,-83.3333333333333,4,1,1,50,0,0
53142,-83.3333333333333,4,1,1,50,0,1
68880,-100,4,2,1,40,0,0
102323,-83.3333333333333,4,1,1,50,0,1
117937,-83.3333333333333,4,1,1,50,0,0
118060,-83.3333333333333,4,1,1,50,0,1
133798,-133.333333333333,4,2,1,40,0,0
149044,-133.333333333333,4,2,1,5,0,0
149536,-100,4,2,1,40,0,0
157405,-83.3333333333333,4,1,1,50,0,1
173019,-83.3333333333333,4,1,1,50,0,0
173142,-83.3333333333333,4,1,1,50,0,1
188880,-83.3333333333333,4,1,1,50,0,0
189003,-83.3333333333333,4,2,1,5,0,0

[Colours]
Combo1 : 187,180,203
Combo2 : 84,150,112
Combo3 : 202,191,159
Combo4 : 172,34,55

[HitObjects]
20,312,5929,6,0,L|172:300,1,150,2|2,0:0|0:0,0:0:0:0:
240,328,6667,1,0,0:0:0:0:
304,292,6913,2,0,P|340:280|376:284,1,75,2|0,0:0|0:0,0:0:0:0:
448,308,7405,2,0,P|404:248|424:180,1,150,2|2,0:0|0:0,0:0:0:0:
484,236,8142,5,0,0:0:0:0:
496,160,8388,2,0,L|504:84,1,75,2|0,0:0|0:0,0:0:0:0:
436,56,8880,2,0,P|408:36|368:32,1,75,2|0,0:0|0:0,0:0:0:0:
380,108,9372,2,0,P|308:132|244:104,1,150,2|2,0:0|0:0,0:0:0:0:
204,40,10109,5,0,0:0:0:0:
160,100,10355,2,0,L|152:176,1,75,2|0,0:0|0:0,0:0:0:0:
228,168,10847,2,0,L|220:244,1,75,2|0,0:0|0:0,0:0:0:0:
160,292,11339,2,0,P|232:272|292:312,1,150,2|2,0:0|0:0,0:0:0:0:
364,288,12077,5,0,0:0:0:0:
316,228,12323,2,0,P|280:200|268:168,2,75,2|0|2,0:0|0:0|0:0,0:0:0:0:
392,216,13060,1,0,0:0:0:0:
348,156,13306,2,0,L|196:140,1,150,2|2,0:0|0:0,0:0:0:0:
128,168,14044,5,0,0:0:0:0:
60,204,14290,2,0,P|88:232|188:216,1,150,2|2,0:0|0:0,0:0:0:0:
228,152,15028,1,0,0:0:0:0:
296,184,15273,2,0,B|372:164|372:196|444:176,1,150,2|2,0:0|0:0,0:0:0:0:
504,224,16011,5,0,0:0:0:0:
440,264,16257,2,0,L|364:252,1,75,2|0,0:0|0:0,0:0:0:0:
304,296,16749,2,0,P|232:296|156:316,2,150,2|2|2,0:0|0:0|0:0,0:0:0:0:
372,324,17978,5,0,0:0:0:0:
416,264,18224,2,0,P|428:228|416:192,1,75,2|0,0:0|0:0,0:0:0:0:
348,164,18716,2,0,P|420:184|480:144,2,150,2|2|0,0:0|0:0|0:0,0:0:0:0:
288,116,19946,5,2,0:0:0:0:
144,76,20437,1,2,0:0:0:0:
24,168,20929,1,2,0:0:0:0:
168,216,21421,1,2,0:0:0:0:
240,256,21667,6,0,P|176:296|108:272,1,150,4|8,0:0|0:0,0:0:0:0:
92,200,22405,1,0,0:0:0:0:
92,200,22650,2,0,L|80:48,2,150,0|8|2,0:0|0:0|0:0,0:0:0:0:
108,272,23880,1,0,0:0:0:0:
160,220,24126,2,0,P|196:208|232:212,1,75,8|0,0:0|0:0,0:0:0:0:
284,268,24618,2,0,P|240:204|268:136,2,150,0|8|2,0:0|0:0|0:0,0:0:0:0:
320,196,25847,6,0,L|396:212,2,75,0|8|0,0:0|0:0|0:0,0:0:0:0:
264,140,26585,2,0,L|116:160,2,150,0|8|2,0:0|0:0|0:0,0:0:0:0:
324,96,27814,1,0,0:0:0:0:
368,160,28060,2,0,P|356:196|360:232,1,75,8|0,0:0|0:0,0:0:0:0:
412,284,28552,2,0,P|348:244|280:268,1,150,0|8,0:0|0:0,0:0:0:0:
216,304,29290,1,0,0:0:0:0:
144,332,29536,6,0,P|137:298|153:262,1,75,8|0,0:0|0:0,0:0:0:0:
192,200,30028,2,0,P|208:164|200:128,1,75,8|0,0:0|0:0,0:0:0:0:
128,112,30519,2,0,L|276:84,2,150,0|8|2,0:0|0:0|0:0,0:0:0:0:
80,168,31749,5,0,0:0:0:0:
116,236,31995,2,0,L|200:248,1,75,8|0,0:0|0:0,0:0:0:0:
248,200,32487,2,0,P|284:204|320:192,1,75
380,148,32978,2,0,P|448:116|512:144,1,150,8|2,0:0|0:0,0:0:0:0:
448,196,33716,5,2,0:0:0:0:
388,244,33962,1,8,0:0:0:0:
400,320,34208,1,2,0:0:0:0:
332,292,34454,1,0,0:0:0:0:
272,336,34700,1,2,0:0:0:0:
272,336,35191,5,2,0:0:0:0:
272,336,35683,1,2,0:0:0:0:
272,336,36175,1,2,0:0:0:0:
168,228,36667,2,0,L|92:240,2,75,8|8|8,0:3|0:0|0:3,0:0:0:0:
216,152,37405,6,0,P|304:180|356:152,1,134.999995880127,4|0,0:0|2:0,0:0:0:0:
348,152,37896,2,0,L|363:332,2,179.999994506836,8|0|8,0:0|0:0|0:0,0:0:0:0:
424,104,39126,2,0,P|388:72|272:104,1,179.999994506836
196,152,39864,5,8,0:0:0:0:
116,112,40109,1,0,0:0:0:0:
128,200,40355,2,0,P|204:236|276:180,1,179.999994506836,0|8,0:0|0:0,0:0:0:0:
356,220,41093,2,0,P|426:168|502:204,1,179.999994506836
436,264,41831,6,0,P|444:304|424:348,1,89.9999972534181,8|0,0:0|0:0,0:0:0:0:
348,300,42323,2,0,P|325:333|280:350,1,89.9999972534181
208,300,42814,2,0,L|224:120,2,179.999994506836,8|0|8,0:0|0:0|0:0,0:0:0:0:
124,336,44044,1,0,0:0:0:0:
64,268,44290,2,0,P|48:224|60:184,2,89.9999972534181,0|0|8,0:0|0:0|0:0,0:0:0:0:
144,228,45028,2,0,P|228:264|296:220,1,179.999994506836
216,176,45765,6,0,P|200:132|212:92,1,89.9999972534181,8|0,0:0|0:0,0:0:0:0:
300,68,46257,2,0,L|120:52,2,179.999994506836,0|8|0,0:0|0:0|0:0,0:0:0:0:
368,124,47487,1,0,0:0:0:0:
292,176,47732,2,0,P|272:216|280:260,1,89.9999972534181,8|0,0:0|0:0,0:0:0:0:
360,304,48224,2,0,P|276:268|208:312,1,179.999994506836,0|8,0:0|0:0,0:0:0:0:
132,364,48962,1,0,0:0:0:0:
208,312,49208,6,0,P|224:268|212:228,1,89.9999972534181,0|0,0:0|0:0,0:0:0:0:
172,148,49700,2,0,P|160:108|176:64,1,89.9999972534181,8|0,0:0|0:0,0:0:0:0:
264,44,50191,2,0,B|360:16|352:80|448:48,1,179.999994506836,0|8,0:0|0:0,0:0:0:0:
500,120,50929,1,0,0:0:0:0:
416,148,51175,5,0,0:0:0:0:
408,156,51421,1,0,0:0:0:0:
464,224,51667,5,8,0:0:0:0:
472,232,51913,1,0,0:0:0:0:
408,296,52159,5,0,0:0:0:0:
400,308,52405,2,0,P|320:268|240:300,1,179.999994506836,0|0,0:0|0:0,0:0:0:0:
196,360,53142,6,0,P|236:280|204:200,1,179.999994506836,4|12,0:0|0:0,0:0:0:0:
128,152,53880,1,0,0:0:0:0:
128,152,54126,2,0,P|208:192|288:160,2,179.999994506836,0|12|0,0:0|0:0|0:0,0:0:0:0:
68,84,55355,1,0,0:0:0:0:
36,168,55601,2,0,L|40:260,1,89.9999972534181,12|0,0:0|0:0,0:0:0:0:
120,296,56093,2,0,P|204:332|280:296,1,179.999994506836,0|4,0:0|0:0,0:0:0:0:
300,208,56831,1,0,0:0:0:0:
372,264,57077,6,0,P|416:276|460:256,1,89.9999972534181,0|0,0:0|0:0,0:0:0:0:
496,180,57568,2,0,P|452:168|408:188,1,89.9999972534181,12|0,0:0|0:0,0:0:0:0:
336,132,58060,2,0,P|256:172|176:140,1,179.999994506836,0|4,0:0|0:0,0:0:0:0:
124,68,58798,1,0,0:0:0:0:
68,136,59044,6,0,L|72:232,1,89.9999972534181,0|0,0:0|0:0,0:0:0:0:
160,236,59536,2,0,P|168:284|200:312,1,89.9999972534181,12|0,0:0|0:0,0:0:0:0:
280,276,60028,2,0,P|364:308|436:264,1,179.999994506836,0|4,0:0|0:0,0:0:0:0:
492,196,60765,1,0,0:0:0:0:
436,124,61011,6,0,L|300:108,1,134.999995880127,4|0,0:0|2:0,0:0:0:0:
288,108,61503,2,0,P|248:188|296:256,2,179.999994506836,12|0|12,0:0|0:0|0:0,0:0:0:0:
340,180,62732,2,0,P|386:247|346:327,1,179.999994506836,0|0,0:0|0:0,0:0:0:0:
260,300,63470,5,12,0:0:0:0:
176,328,63716,1,0,0:0:0:0:
108,272,63962,2,0,P|64:192|108:120,1,179.999994506836,0|12,0:0|0:0,0:0:0:0:
148,196,64700,2,0,B|232:228|248:172|328:192,1,179.999994506836
408,224,65437,5,12,0:0:0:0:
488,180,65683,1,0,0:0:0:0:
492,268,65929,1,0,0:0:0:0:
408,224,66175,1,0,0:0:0:0:
488,180,66421,1,12,0:0:0:0:
492,268,66667,1,0,0:0:0:0:
492,268,66913,5,12,0:0:0:0:
328,196,67405,1,12,0:0:0:0:
480,100,67896,1,0,0:0:0:0:
440,180,68142,2,0,P|392:104|432:24,1,179.999994506836,12|8,0:0|0:0,0:0:0:0:
480,100,68880,5,2,0:0:0:0:
480,100,69126,1,0,0:0:0:0:
456,172,69372,1,8,0:0:0:0:
456,172,69618,1,2,0:0:0:0:
484,244,69864,1,4,0:0:0:0:
420,284,70109,2,0,P|384:292|368:296,2,37.5,2|0|8,0:0|0:0|3:0,0:0:0:0:
276,240,70847,6,0,L|124:248,1,150,0|8,0:0|0:0,0:0:0:0:
64,288,71585,1,0,0:0:0:0:
12,344,71831,2,0,P|48:364|136:316,1,150,0|8,0:0|0:0,0:0:0:0:
148,244,72568,1,0,0:0:0:0:
216,276,72814,6,0,P|252:280|292:260,1,75
336,208,73306,1,0,0:0:0:0:
384,264,73552,2,0,P|464:268|500:216,1,150
424,200,74290,2,0,L|432:48,1,150,8|0,0:0|0:0,0:0:0:0:
356,60,75028,5,0,0:0:0:0:
304,112,75273,2,0,P|284:76|288:36,1,75,8|0,0:0|0:0,0:0:0:0:
212,56,75765,2,0,P|144:16|80:48,1,150,0|8,0:0|0:0,0:0:0:0:
144,96,76503,1,0,0:0:0:0:
76,124,76749,5,0,0:0:0:0:
76,124,76995,2,0,L|64:208,1,75,0|8,0:0|0:0,0:0:0:0:
140,204,77487,1,0,0:0:0:0:
140,204,77732,2,0,L|152:284,1,75
216,316,78224,1,8,0:0:0:0:
280,276,78470,1,0,0:0:0:0:
348,312,78716,6,0,P|384:300|424:304,1,75
488,332,79208,2,0,P|444:272|464:204,1,150,8|0,0:0|0:0,0:0:0:0:
504,140,79946,2,0,P|444:184|376:164,1,150
432,112,80683,1,0,0:0:0:0:
360,88,80929,5,0,0:0:0:0:
292,124,81175,2,0,P|252:136|220:132,1,75,8|0,0:0|0:0,0:0:0:0:
188,64,81667,2,0,L|176:220,1,150,0|8,0:0|0:0,0:0:0:0:
108,244,82405,2,0,P|168:288|236:264,1,150
288,216,83142,2,0,P|354:193|414:237,1,150,8|0,0:0|0:0,0:0:0:0:
344,268,83880,2,0,L|332:352,2,75,0|8|0,0:0|0:0|0:0,0:0:0:0:
288,216,84618,1,0,0:0:0:0:
304,144,84864,5,2,0:0:0:0:
208,256,85355,1,2,0:0:0:0:
356,276,85847,1,2,0:0:0:0:
308,132,86339,1,2,0:0:0:0:
256,76,86585,6,0,P|332:60|380:108,1,150,4|8,0:0|0:0,0:0:0:0:
376,180,87323,1,0,0:0:0:0:
376,180,87568,2,0,L|224:192,2,150,0|8|0,0:0|0:0|0:0,0:0:0:0:
440,216,88798,5,0,0:0:0:0:
376,256,89044,2,0,P|356:288|356:324,1,75,8|0,0:0|0:0,0:0:0:0:
428,344,89536,2,0,L|276:332,2,150,0|8|0,0:0|0:0|0:0,0:0:0:0:
484,292,90765,5,0,0:0:0:0:
436,232,91011,2,0,P|412:200|408:160,1,75,8|0,0:0|0:0,0:0:0:0:
476,132,91503,2,0,B|404:148|408:108|328:124,1,150,0|8,0:0|0:0,0:0:0:0:
260,156,92241,1,0,0:0:0:0:
192,124,92487,5,0,0:0:0:0:
124,156,92732,1,0,0:0:0:0:
124,156,92978,2,0,L|132:232,1,75,8|0,0:0|0:0,0:0:0:0:
76,280,93470,2,0,P|148:304|200:260,2,150,0|8|0,0:0|0:0|0:0,0:0:0:0:
40,212,94700,5,0,0:0:0:0:
84,152,94946,2,0,L|160:144,1,75,8|0,0:0|0:0,0:0:0:0:
224,180,95437,2,0,B|296:164|292:204|372:188,1,150,0|8,0:0|0:0,0:0:0:0:
440,156,96175,1,0,0:0:0:0:
488,216,96421,5,0,0:0:0:0:
448,280,96667,2,0,P|432:316|432:352,2,75,0|8|0,0:0|0:0|0:0,0:0:0:0:
488,216,97405,2,0,P|504:180|504:144,1,75
436,112,97896,2,0,L|280:104,1,150,8|0,0:0|0:0,0:0:0:0:
220,64,98634,6,0,L|140:68,1,75,0|8,0:0|0:0,0:0:0:0:
80,104,99126,1,0,0:0:0:0:
144,148,99372,1,0,0:0:0:0:
144,148,99618,5,2,0:0:0:0:
64,268,100109,1,2,0:0:0:0:
212,280,100601,1,2,0:0:0:0:
296,156,101093,6,0,P|368:128|428:168,1,150,2|8,0:0|0:3,0:0:0:0:
456,232,101831,1,8,0:0:0:0:
420,296,102077,1,8,0:3:0:0:
348,268,102323,6,0,L|208:256,1,134.999995880127,4|0,0:0|2:0,0:0:0:0:
208,244,102814,2,0,L|28:260,2,179.999994506836,8|0|8,0:0|0:0|0:0,0:0:0:0:
264,316,104044,2,0,P|296:232|252:160,1,179.999994506836
172,120,104782,5,8,0:0:0:0:
212,40,105028,1,0,0:0:0:0:
284,92,105273,2,0,P|364:132|436:88,1,179.999994506836,0|8,0:0|0:0,0:0:0:0:
492,16,106011,2,0,P|452:96|496:168,1,179.999994506836
440,240,106749,6,0,P|400:220|356:228,1,89.9999972534181,8|0,0:0|0:0,0:0:0:0:
276,264,107241,2,0,P|232:272|192:252,1,89.9999972534181
168,164,107732,2,0,L|152:344,2,179.999994506836,8|0|8,0:0|0:0|0:0,0:0:0:0:
96,108,108962,1,0,0:0:0:0:
172,64,109208,2,0,P|212:72|260:52,2,89.9999972534181,0|0|8,0:0|0:0|0:0,0:0:0:0:
88,28,109946,2,0,P|48:108|96:176,1,179.999994506836
136,256,110683,6,0,P|180:272|224:256,1,89.9999972534181,8|0,0:0|0:0,0:0:0:0:
260,180,111175,2,0,P|304:260|264:336,2,179.999994506836,0|8|0,0:0|0:0|0:0,0:0:0:0:
180,140,112405,1,0,0:0:0:0:
252,88,112650,2,0,P|228:48|236:4,1,89.9999972534181,8|0,0:0|0:0,0:0:0:0:
320,36,113142,2,0,L|500:40,1,179.999994506836,0|8,0:0|0:0,0:0:0:0:
512,128,113880,1,0,0:0:0:0:
424,124,114126,6,0,P|408:168|420:208,1,89.9999972534181
468,284,114618,2,0,P|480:324|464:368,1,89.9999972534181,8|0,0:0|0:0,0:0:0:0:
388,320,115109,2,0,B|300:290|308:354|212:326,1,179.999994506836,0|8,0:0|0:0,0:0:0:0:
136,280,115847,1,0,0:0:0:0:
208,224,116093,5,0,0:0:0:0:
220,220,116339,1,0,0:0:0:0:
132,172,116585,5,8,0:0:0:0:
120,168,116831,1,0,0:0:0:0:
208,120,117077,5,0,0:0:0:0:
212,108,117323,2,0,P|300:80|368:128,1,179.999994506836
392,224,118060,6,0,P|364:136|412:68,1,179.999994506836,4|12,0:0|0:0,0:0:0:0:
500,48,118798,1,0,0:0:0:0:
500,48,119044,2,0,P|412:76|344:28,2,179.999994506836,0|12|0,0:0|0:0|0:0,0:0:0:0:
504,136,120273,1,0,0:0:0:0:
428,184,120519,2,0,P|416:228|432:268,1,89.9999972534181,12|0,0:0|0:0,0:0:0:0:
508,316,121011,2,0,P|424:280|356:324,1,179.999994506836,0|12,0:0|0:0,0:0:0:0:
276,280,121749,1,0,0:0:0:0:
204,336,121995,6,0,P|160:344|120:324,1,89.9999972534181
172,252,122487,2,0,P|135:226|121:184,1,89.9999972534181,12|0,0:0|0:0,0:0:0:0:
40,144,122978,2,0,P|116:96|192:132,1,179.999994506836,0|12,0:0|0:0,0:0:0:0:
248,200,123716,1,0,0:0:0:0:
292,120,123962,6,0,L|388:112,1,89.9999972534181
348,196,124454,2,0,L|444:188,1,89.9999972534181,12|0,0:0|0:0,0:0:0:0:
456,276,124946,2,0,L|264:260,1,179.999994506836,0|12,0:0|0:0,0:0:0:0:
204,208,125683,1,0,0:0:0:0:
156,284,125929,6,0,P|124:256|124:168,1,134.999995880127,4|0,0:0|2:0,0:0:0:0:
132,160,126421,2,0,P|172:80|128:4,2,179.999994506836,12|0|12,0:0|0:0|0:0,0:0:0:0:
88,80,127650,2,0,L|272:80,1,179.999994506836
352,48,128388,5,12,0:0:0:0:
400,124,128634,1,0,0:0:0:0:
332,176,128880,2,0,P|348:264|284:320,1,179.999994506836,0|12,0:0|0:0,0:0:0:0:
260,232,129618,2,0,B|176:200|160:256|80:236,1,179.999994506836
32,164,130355,5,12,0:0:0:0:
120,152,130601,1,0,0:0:0:0:
84,236,130847,1,0,0:0:0:0:
32,164,131093,1,0,0:0:0:0:
120,152,131339,1,12,0:0:0:0:
84,236,131585,1,0,0:0:0:0:
84,236,131831,5,12,0:0:0:0:
152,68,132323,1,12,0:0:0:0:
264,208,132814,1,0,0:0:0:0:
232,296,133060,2,0,P|172:224|196:144,1,179.999994506836,12|0,0:0|0:0,0:0:0:0:
280,124,133798,5,4,0:0:0:0:
256,192,145601,12,0,149044,0:0:0:0:
232,160,149536,6,0,P|244:124|184:36,1,150,0|8,0:0|0:0,0:0:0:0:
164,116,150273,1,0,0:0:0:0:
164,192,150519,2,0,P|224:236|292:208,1,150,0|8,0:0|0:0,0:0:0:0:
340,156,151257,2,0,P|404:131|464:175,1,150
396,204,151995,1,8,0:0:0:0:
456,248,152241,1,0,0:0:0:0:
388,280,152487,2,0,P|376:316|384:352,1,75
452,324,152978,2,0,L|300:316,1,150,8|0,0:0|0:0,0:0:0:0:
288,244,153716,5,0,0:0:0:0:
220,276,153962,2,0,P|180:264|144:272,1,75,8|0,0:0|0:0,0:0:0:0:
96,324,154454,2,0,P|132:256|100:192,1,150,0|8,0:0|0:0,0:0:0:0:
56,256,155191,2,0,P|27:194|63:126,1,150
136,116,155929,1,0,0:0:0:0:
212,104,156175,1,0,0:0:0:0:
288,92,156421,1,0,0:0:0:0:
364,80,156667,2,0,P|400:76|440:96,2,75,0|4|0,0:0|3:0|0:0,3:0:0:0:
288,92,157405,6,0,L|280:228,1,134.999995880127,4|0,0:0|2:0,0:0:0:0:
276,240,157896,2,0,P|196:288|120:248,2,179.999994506836,8|0|8,0:0|0:0|0:0,0:0:0:0:
196,200,159126,2,0,P|276:152|352:192,1,179.999994506836
408,256,159864,5,8,0:0:0:0:
488,212,160109,1,0,0:0:0:0:
424,148,160355,2,0,P|360:84|372:0,1,179.999994506836,0|8,0:0|0:0,0:0:0:0:
448,56,161093,2,0,P|512:120|500:204,1,179.999994506836
424,252,161831,5,8,0:0:0:0:
344,208,162077,1,0,0:0:0:0:
268,256,162323,2,0,P|224:248|184:272,1,89.9999972534181
120,332,162814,2,0,P|168:256|136:180,2,179.999994506836,8|0|8,0:0|0:0|0:0,0:0:0:0:
80,252,164044,1,0,0:0:0:0:
56,164,164290,2,0,P|40:120|52:80,2,89.9999972534181,0|0|8,0:0|0:0|0:0,0:0:0:0:
80,252,165028,2,0,P|148:184|136:108,1,179.999994506836
200,48,165765,6,0,P|232:80|276:84,1,89.9999972534181,8|0,0:0|0:0,0:0:0:0:
360,52,166257,2,0,B|416:44|440:96|440:96|480:176,2,179.999994506836,0|8|0,0:0|0:0|0:0,0:0:0:0:
344,140,167487,1,0,0:0:0:0:
276,80,167732,2,0,P|232:64|192:76,1,89.9999972534181,8|0,0:0|0:0,0:0:0:0:
140,148,168224,2,0,P|152:64|80:4,1,179.999994506836,0|8,0:0|0:0,0:0:0:0:
68,93,168962,1,0,0:0:0:0:
56,182,169208,6,0,P|88:226|136:234,1,89.9999972534181
208,208,169700,2,0,P|246:230|266:270,1,89.9999972534181,8|0,0:0|0:0,0:0:0:0:
208,340,170191,2,0,P|288:360|352:296,1,179.999994506836,0|8,0:0|0:0,0:0:0:0:
336,204,170929,1,0,0:0:0:0:
420,232,171175,5,0,0:0:0:0:
432,240,171421,1,0,0:0:0:0:
404,144,171667,5,8,0:0:0:0:
416,132,171913,1,0,0:0:0:0:
316,120,172159,5,0,0:0:0:0:
304,128,172405,2,0,P|220:160|144:120,1,179.999994506836
100,44,173142,6,0,P|132:128|92:204,1,179.999994506836,4|12,0:0|0:0,0:0:0:0:
12,244,173880,1,0,0:0:0:0:
12,244,174126,2,0,P|84:208|164:260,2,179.999994506836,0|12|0,0:0|0:0|0:0,0:0:0:0:
84,300,175355,1,0,0:0:0:0:
164,340,175601,2,0,L|256:336,1,89.9999972534181,12|0,0:0|0:0,0:0:0:0:
312,268,176093,2,0,P|360:192|328:112,1,179.999994506836,0|12,0:0|0:0,0:0:0:0:
268,184,176831,1,0,0:0:0:0:
184,156,177077,6,0,L|92:164,1,89.9999972534181
120,248,177568,2,0,L|212:256,1,89.9999972534181,12|0,0:0|0:0,0:0:0:0:
268,184,178060,2,0,P|347:154|423:202,1,179.999994506836,0|12,0:0|0:0,0:0:0:0:
340,240,178798,1,0,0:0:0:0:
252,260,179044,6,0,P|212:240|192:200,1,89.9999972534181
216,112,179536,2,0,P|196:72|156:52,1,89.9999972534181,12|0,0:0|0:0,0:0:0:0:
136,140,180028,2,0,P|208:196|284:164,1,179.999994506836,0|12,0:0|0:0,0:0:0:0:
324,84,180765,1,0,0:0:0:0:
372,160,181011,6,0,L|384:296,1,134.999995880127,4|0,0:0|2:0,0:0:0:0:
384,308,181503,2,0,P|312:368|236:348,2,179.999994506836,12|0|12,0:0|0:0|0:0,0:0:0:0:
296,276,182732,2,0,P|220:256|148:316,1,179.999994506836
64,356,183470,5,12,0:0:0:0:
20,276,183716,1,0,0:0:0:0:
84,216,183962,2,0,L|120:36,1,179.999994506836,0|12,0:0|0:0,0:0:0:0:
36,72,184700,2,0,P|104:128|192:84,1,179.999994506836
260,52,185437,5,12,0:0:0:0:
340,92,185683,1,0,0:0:0:0:
292,168,185929,2,0,P|280:212|300:256,1,89.9999972534181
372,300,186421,2,0,P|292:256|216:292,2,179.999994506836,12|12|12,0:0|0:0|0:0,0:0:0:0:
440,360,187650,1,0,0:0:0:0:
488,284,187896,5,0,0:0:0:0:
444,204,188142,1,12,0:0:0:0:
492,128,188388,1,8,0:0:0:0:
452,48,188634,1,0,0:0:0:0:
452,48,188880,5,4,0:0:0:0:
256,192,189003,12,0,192814,0:0:0:0:
