osu file format v12

[General]
AudioFilename: Train - Drive By.mp3
AudioLeadIn: 0
PreviewTime: 37405
Countdown: 0
SampleSet: Normal
StackLeniency: 0.7
Mode: 0
LetterboxInBreaks: 0

[Editor]
Bookmarks: 5929,21667,37405,53142,68880,86585,102323,118060,133798,149536,157405,173142,188880
DistanceSpacing: 1.4
BeatDivisor: 4
GridSize: 4

[Metadata]
Title:Drive By
TitleUnicode:Drive By
Artist:Train
ArtistUnicode:Train
Creator:Nemis
Version:Collab
Source:
Tags:Collab Collaboration Reiji-RJ Ayu Roxas Alternative Pat Monahan Rob Hotchkiss Jimmy Stafford Charlie Colin Scott Underwood
BeatmapID:252741
BeatmapSetID:93629

[Difficulty]
HPDrainRate:7
CircleSize:4
OverallDifficulty:7
ApproachRate:8
SliderMultiplier:1.6
SliderTickRate:1

[Events]
//Background and Video events
0,0,"Drive By.png",0,0
//Break Periods
2,133998,144851
//Storyboard Layer 0 (Background)
//Storyboard Layer 1 (Fail)
//Storyboard Layer 2 (Pass)
//Storyboard Layer 3 (Foreground)
Sprite,Foreground,Centre,"sb\reiji-rj.png",560,454 L,37405,16 S,0,0,123,0.67,0.7 S,0,123,245,0.7,0.67 S,0,245,492,0.67 L,45273,17 S,0,0,123,0.67,0.7 S,0,123,245,0.7,0.67 S,0,245,492,0.67 L,102323,16 S,0,0,123,0.67,0.7 S,0,123,245,0.7,0.67 S,0,245,492,0.67 L,110191,17 S,0,0,123,0.67,0.7 S,0,123,245,0.7,0.67 S,0,245,492,0.67 L,173142,16 S,0,0,123,0.67,0.7 S,0,123,245,0.7,0.67 S,0,245,492,0.67 L,181011,16 S,0,0,123,0.67,0.7 S,0,123,245,0.7,0.67 S,0,245,492,0.67 F,0,5929,6421,0,1 S,0,5929,21913,0.67 F,0,21421,21913,1,0 F,0,37405,37896,0,1 F,0,52896,53388,1,0 F,0,68880,69372,0,1 S,0,68880,86831,0.67 F,0,86339,86831,1,0 F,0,102323,102814,0,1 F,0,117814,118306,1,0 F,0,145601,146093,0,1 S,0,145601,157650,0.67 F,0,157159,157650,1,0 F,0,173142,173634,0,1 F,0,188634,189126,1,0
Sprite,Foreground,Centre,"sb\nemis.png",561,454 L,53142,16 S,0,0,123,0.67,0.7 S,0,123,245,0.7,0.67 S,0,245,492,0.67 L,61011,17 S,0,0,123,0.67,0.7 S,0,123,245,0.7,0.67 S,0,245,492,0.67 L,118060,16 S,0,0,123,0.67,0.7 S,0,123,245,0.7,0.67 S,0,245,492,0.67 L,125929,16 S,0,0,123,0.67,0.7 S,0,123,245,0.7,0.67 S,0,245,492,0.67 L,157405,16 S,0,0,123,0.67,0.7 S,0,123,245,0.7,0.67 S,0,245,492,0.67 L,165273,17 S,0,0,123,0.67,0.7 S,0,123,245,0.7,0.67 S,0,245,492,0.67 F,0,21667,22159,0,1 S,0,21667,37650,0.67 F,0,37159,37650,1,0 F,0,53142,53634,0,1 F,0,68634,69126,1,0 F,0,86585,87077,0,1 S,0,86585,102568,0.67 F,0,102077,102568,1,0 F,0,118060,118552,0,1 F,0,133552,134044,1,0 F,0,157405,157896,0,1 F,0,172896,173388,1,0
//Storyboard Sound Samples
//Background Colour Transformations
3,100,0,0,0

[TimingPoints]
28,491.803278688525,4,2,1,40,1,0
37405,-83.3333333333333,4,1,1,50,0,1
53019,-83.3333333333333,4,1,1,50,0,0
53142,-83.3333333333333,4,1,1,50,0,1
68880,-83.3333333333333,4,2,1,40,0,0
70847,-100,4,2,1,40,0,0
102323,-83.3333333333333,4,1,1,50,0,1
117937,-83.3333333333333,4,1,1,50,0,0
118060,-83.3333333333333,4,1,1,50,0,1
133798,-83.3333333333333,4,2,1,30,0,0
145601,-100,4,1,1,25,0,0
149536,-100,4,2,1,40,0,0
156667,-133.333333333333,4,2,1,30,0,0
156790,-133.333333333333,4,2,1,20,0,0
157036,-133.333333333333,4,2,1,5,0,0
157282,-133.333333333333,4,2,1,20,0,0
157405,-83.3333333333333,4,1,1,50,0,1
173019,-83.3333333333333,4,1,1,50,0,0
173142,-83.3333333333333,4,1,1,50,0,1
188880,-100,4,1,1,50,0,0
189003,-100,4,2,1,5,0,0

[Colours]
Combo1 : 187,180,203
Combo2 : 84,150,112
Combo3 : 202,191,159
Combo4 : 172,34,55

[HitObjects]
68,104,5929,2,0,P|144:96|232:92,1,160,0|0,1:0|1:0,0:0:0:0:
360,68,6667,1,2,0:0:0:0:
436,160,6913,2,0,P|456:240|424:312,1,160,0|0,1:0|1:0,0:0:0:0:
320,272,7650,1,2,0:0:0:0:
320,272,7896,2,0,L|232:268,1,80,0|2,1:0|0:0,0:0:0:0:
212,144,8388,2,0,L|296:136,1,80,0|2,1:0|0:0,0:0:0:0:
160,228,8880,2,0,P|76:216|0:216,2,160,0|0|0,1:0|1:0|1:0,0:0:0:0:
248,324,10109,5,2,0:0:0:0:
380,292,10355,2,0,L|468:284,1,80,0|2,1:0|0:0,0:0:0:0:
360,172,10847,2,0,L|276:164,1,80,0|2,1:0|0:0,0:0:0:0:
392,60,11339,2,0,L|476:52,1,80,0|2,1:0|0:0,0:0:0:0:
280,96,11831,2,0,P|208:64|128:68,1,160,0|0,1:0|1:0,0:0:0:0:
48,128,12568,1,2,0:0:0:0:
96,212,12814,2,0,P|168:244|248:240,1,160,0|0,1:0|1:0,0:0:0:0:
432,288,13798,6,0,L|452:192,1,80,0|2,1:0|0:0,0:0:0:0:
408,120,14290,1,0,1:0:0:0:
448,32,14536,1,2,0:0:0:0:
408,120,14782,2,0,L|328:112,1,80,0|2,1:0|0:0,0:0:0:0:
176,44,15273,2,0,L|256:36,1,80,0|2,1:0|0:0,0:0:0:0:
232,148,15765,2,0,P|252:220|220:300,1,160,0|0,1:0|1:0,0:0:0:0:
128,356,16503,1,2,0:0:0:0:
68,260,16749,1,0,1:0:0:0:
160,200,16995,1,2,0:0:0:0:
224,296,17241,6,0,P|301:300|384:304,1,160,0|0,1:0|1:0,0:0:0:0:
372,192,17978,2,0,L|384:112,1,80,2|0,0:0|1:0,0:0:0:0:
204,40,18470,1,2,0:0:0:0:
204,40,18716,2,0,L|215:119,1,80,0|2,1:0|0:0,0:0:0:0:
132,216,19208,2,0,P|92:208|52:212,1,80,0|2,1:0|0:0,0:0:0:0:
192,308,19700,6,0,P|264:324|352:308,2,160,0|0|0,1:0|1:0|1:0,0:0:0:0:
132,216,20929,1,2,0:0:0:0:
176,112,21175,1,0,1:0:0:0:
276,48,21421,1,2,0:0:0:0:
304,52,21544,1,8,0:3:0:0:
332,56,21667,6,0,P|324:128|376:196,1,160,4|8,0:3|0:0,0:0:0:0:
492,176,22405,1,2,0:0:0:0:
374,194,22650,2,0,L|268:184,1,80,0|2,0:0|0:0,0:0:0:0:
108,252,23142,1,10,0:0:0:0:
188,324,23388,1,0,0:0:0:0:
188,324,23511,1,8,0:3:0:0:
188,324,23634,6,0,P|212:268|180:168,1,160,8|8,0:3|0:0,0:0:0:0:
80,148,24372,1,2,0:0:0:0:
160,64,24618,2,0,L|244:60,1,80,0|2,0:0|0:0,0:0:0:0:
380,168,25109,2,0,P|328:160|288:160,1,80,10|0,0:0|0:0,0:0:0:0:
301,159,25478,1,8,0:3:0:0:
301,159,25601,1,8,0:3:0:0:
464,116,25847,6,0,L|460:28,2,80,2|8|2,0:0|0:0|0:0,0:0:0:0:
464,368,26585,2,0,P|444:308|472:208,1,160,0|10,0:0|0:0,0:0:0:0:
344,308,27323,2,0,L|336:356,2,40,0|8|8,0:0|0:3|0:3,0:0:0:0:
248,264,27814,5,2,0:0:0:0:
172,336,28060,2,0,P|140:328|84:332,1,80,8|2,0:0|0:0,0:0:0:0:
164,200,28552,2,0,P|108:224|4:204,1,160,0|10,0:0|0:0,0:0:0:0:
264,160,29290,1,0,0:0:0:0:
264,160,29413,1,8,0:3:0:0:
264,160,29536,1,8,0:3:0:0:
356,120,29782,6,0,P|400:112|460:120,1,80,0|8,0:0|0:0,0:0:0:0:
408,208,30273,1,2,0:0:0:0:
512,64,30519,2,0,P|440:32|324:48,1,160,0|10,0:0|0:0,0:0:0:0:
408,208,31257,1,0,0:0:0:0:
408,208,31380,1,8,0:3:0:0:
408,208,31503,6,0,P|408:248|424:304,1,80,8|0,0:3|0:0,0:0:0:0:
344,344,31995,1,8,0:0:0:0:
504,236,32241,1,2,0:0:0:0:
344,344,32487,2,0,B|304:336|304:336|228:352|228:352|184:348,1,160,0|10,0:0|0:0,0:0:0:0:
32,240,33224,2,0,L|24:188,2,40,0|8|8,0:0|0:3|0:3,0:0:0:0:
76,344,33716,5,2,0:0:0:0:
140,204,33962,2,0,P|140:156|146:124,1,80,8|2,0:0|0:0,0:0:0:0:
348,72,34454,2,0,L|356:152,1,80
380,168,34823,2,0,L|376:124,1,40,0|10,0:0|0:0,0:0:0:0:
245,170,35191,1,0,0:0:0:0:
245,170,35314,1,8,0:3:0:0:
245,170,35437,1,8,0:3:0:0:
148,60,35683,6,0,L|232:72,1,80,2|8,0:0|0:0,0:0:0:0:
56,232,36175,2,0,L|48:140,1,80,2|0,0:0|0:0,0:0:0:0:
236,324,36667,2,0,L|156:336,1,80,10|10,0:0|0:0,0:0:0:0:
336,240,37159,1,8,0:0:0:0:
364,252,37282,1,8,0:3:0:0:
392,264,37405,6,0,P|396:188|432:124,1,143.999995605469,4|0,0:0|2:0,0:0:0:0:
416,112,37896,2,0,L|516:124,1,95.9999970703126,8|2,0:0|2:0,0:0:0:0:
308,56,38388,2,0,P|216:60|116:68,1,191.999994140625,0|8,0:0|0:0,0:0:0:0:
64,168,39126,1,0,0:0:0:0:
64,168,39249,1,0,0:0:0:0:
64,168,39372,6,0,L|80:272,1,95.9999970703126,0|0,0:0|0:0,0:0:0:0:
204,308,39864,2,0,L|220:208,1,95.9999970703126,8|2,0:0|2:0,0:0:0:0:
304,152,40355,2,0,P|388:196|480:172,1,191.999994140625,0|8,0:0|0:0,0:0:0:0:
356,60,41093,1,0,0:0:0:0:
336,48,41216,1,0,0:0:0:0:
316,36,41339,6,0,L|172:52,1,143.999995605469,0|0,0:0|2:0,0:0:0:0:
172,51,41831,1,8,0:0:0:0:
44,92,42077,1,2,2:0:0:0:
88,220,42323,1,0,0:0:0:0:
216,179,42569,1,0,0:0:0:0:
376,200,42814,2,0,L|472:212,1,95.9999970703126,8|0,0:0|0:0,0:0:0:0:
471,211,43183,1,0,0:0:0:0:
471,211,43306,5,0,0:0:0:0:
320,304,43552,2,0,L|224:312,1,95.9999970703126,0|8,0:0|0:0,0:0:0:0:
48,232,44044,1,2,2:0:0:0:
48,232,44290,2,0,L|144:244,1,95.9999970703126
336,164,44782,2,0,L|240:172,1,95.9999970703126,8|0,0:0|0:0,0:0:0:0:
228,184,45150,1,0,0:0:0:0:
216,196,45273,6,0,P|244:96|208:16,1,191.999994140625,4|8,0:0|0:0,0:0:0:0:
96,104,46011,1,2,2:0:0:0:
96,104,46257,2,0,P|68:204|104:284,1,191.999994140625,0|8,0:0|0:0,0:0:0:0:
212,320,46995,1,0,0:0:0:0:
228,328,47118,1,0,0:0:0:0:
244,336,47241,6,0,L|344:320,1,95.9999970703126
452,208,47732,2,0,P|464:252|452:304,1,95.9999970703126,8|2,0:0|2:0,0:0:0:0:
348,212,48224,2,0,P|320:116|352:32,1,191.999994140625,0|8,0:0|0:0,0:0:0:0:
220,52,48962,1,0,0:0:0:0:
220,52,49208,5,0,0:0:0:0:
80,88,49454,1,0,0:0:0:0:
28,216,49700,1,8,0:0:0:0:
168,180,49946,1,2,2:0:0:0:
312,224,50191,2,0,P|381:228|456:236,1,143.999995605469,0|0,0:0|2:0,0:0:0:0:
472,248,50683,2,0,P|484:204|484:152,1,95.9999970703126,8|0,0:0|0:0,0:0:0:0:
344,88,51175,6,0,L|244:96,1,95.9999970703126
232,112,51544,1,0,0:0:0:0:
220,128,51667,2,0,L|112:136,1,95.9999970703126,8|0,0:0|0:0,0:0:0:0:
64,248,52159,2,0,L|172:240,1,95.9999970703126
280,304,52650,1,8,0:0:0:0:
412,276,52896,1,0,0:0:0:0:
428,264,53019,1,0,0:0:0:0:
444,252,53142,6,0,L|436:152,1,95.9999970703126,4|0,0:0|0:0,0:0:0:0:
340,60,53634,1,12,0:0:0:0:
228,132,53880,1,2,2:0:0:0:
104,80,54126,2,2,L|4:68,1,95.9999970703126,2|0,0:0|0:0,0:0:0:0:
136,176,54618,2,2,P|88:176|-8:232,1,143.999995605469,12|0,0:0|0:0,0:0:0:0:
3,218,55109,6,0,L|12:328,1,95.9999970703126
224,228,55601,2,0,L|228:132,1,95.9999970703126,12|2,0:0|2:0,0:0:0:0:
456,120,56093,1,2,0:0:0:0:
480,252,56339,1,0,0:0:0:0:
348,272,56585,1,12,0:0:0:0:
324,140,56831,1,0,0:0:0:0:
404,196,57077,5,0,0:0:0:0:
404,196,57200,1,0,0:0:0:0:
404,196,57323,1,0,0:0:0:0:
224,228,57568,2,0,P|176:216|120:216,1,95.9999970703126,12|2,0:0|2:0,0:0:0:0:
204,88,58060,2,2,P|156:112|44:104,1,143.999995605469,0|0,0:0|0:0,0:0:0:0:
67,112,58552,1,12,0:0:0:0:
324,140,58798,1,0,0:0:0:0:
324,140,58921,1,0,0:0:0:0:
324,140,59044,6,0,L|456:152,1,95.9999970703126
512,252,59536,1,12,0:0:0:0:
380,280,59782,1,2,2:0:0:0:
419,148,60028,2,2,L|412:48,1,95.9999970703126,2|0,0:0|0:0,0:0:0:0:
380,280,60519,2,2,P|328:268|268:276,1,95.9999970703126,12|0,0:0|0:0,0:0:0:0:
272,288,60888,1,0,0:0:0:0:
260,304,61011,6,0,P|180:300|52:296,1,191.999994140625,4|12,0:0|0:0,0:0:0:0:
120,208,61749,2,2,L|108:80,1,95.9999970703126,0|2,2:0|0:0,0:0:0:0:
72,304,62241,1,0,0:0:0:0:
224,64,62487,2,2,L|220:164,1,95.9999970703126,14|0,0:0|0:0,0:0:0:0:
220,159,62855,1,0,0:0:0:0:
220,159,62978,5,0,0:0:0:0:
332,220,63224,1,0,0:0:0:0:
444,152,63470,2,0,P|440:200|460:260,1,95.9999970703126,12|2,0:0|2:0,0:0:0:0:
332,220,63962,2,2,P|348:284|320:364,1,143.999995605469,2|0,0:0|0:0,0:0:0:0:
325,356,64454,1,12,0:0:0:0:
184,304,64700,1,0,0:0:0:0:
184,304,64823,1,0,0:0:0:0:
184,304,64946,5,0,0:0:0:0:
40,172,65191,1,0,0:0:0:0:
184,304,65437,2,0,P|192:252|172:188,1,95.9999970703126,14|2,0:0|2:0,0:0:0:0:
0,264,65929,2,2,L|124:260,1,95.9999970703126,0|0,0:0|0:0,0:0:0:0:
128,120,66421,2,2,P|218:121|278:85,1,143.999995605469,14|0,0:0|0:0,0:0:0:0:
280,120,66913,6,2,L|384:116,1,95.9999970703126,2|0,0:0|0:0,0:0:0:0:
404,100,67282,1,0,0:0:0:0:
432,80,67405,2,0,L|424:196,1,95.9999970703126,14|2,0:0|2:0,0:0:0:0:
76,184,67896,2,2,L|84:288,1,95.9999970703126,2|2,0:0|0:0,0:0:0:0:
196,352,68388,1,12,0:0:0:0:
316,292,68634,1,2,0:0:0:0:
340,284,68757,1,0,0:0:0:0:
364,276,68880,5,4,0:0:0:0:
196,116,69372,1,8,0:0:0:0:
140,340,69864,1,4,0:0:0:0:
316,292,70109,1,8,0:3:0:0:
340,284,70232,1,8,0:3:0:0:
364,276,70355,1,4,0:3:0:0:
368,280,70847,6,0,L|456:292,1,80,0|2,1:0|0:0,0:0:0:0:
396,172,71339,2,0,L|308:160,1,80,8|2,0:0|0:0,0:0:0:0:
112,80,71831,2,0,L|191:69,1,80,0|2,1:0|0:0,0:0:0:0:
140,188,72323,2,0,L|60:198,1,80,8|2,0:0|0:0,0:0:0:0:
228,264,72814,2,0,P|256:192|228:116,1,160,0|8,1:0|0:0,0:0:0:0:
316,56,73552,1,2,0:0:0:0:
316,56,73798,2,0,P|396:48|476:48,1,160,0|8,1:0|0:0,0:0:0:0:
460,152,74536,1,2,0:0:0:0:
460,152,74782,6,0,L|452:232,1,80,0|2,1:0|0:0,0:0:0:0:
344,324,75273,1,8,0:0:0:0:
232,260,75519,1,2,0:0:0:0:
344,324,75765,2,0,P|384:328|424:324,1,80,0|2,1:0|0:0,0:0:0:0:
232,260,76257,2,0,P|192:256|152:260,1,80,8|2,0:0|0:0,0:0:0:0:
56,192,76749,2,0,P|47:104|40:32,2,160,0|8|0,1:0|0:0|1:0,0:0:0:0:
124,260,77978,1,2,0:0:0:0:
124,260,78224,1,8,0:0:0:0:
432,320,78716,6,0,P|456:244|428:168,1,160,0|8,1:0|0:0,0:0:0:0:
412,64,79454,1,2,0:0:0:0:
412,64,79700,2,0,P|326:64|252:72,1,160,0|8,1:0|0:0,0:0:0:0:
76,104,80437,1,2,0:0:0:0:
76,104,80683,2,0,P|116:104|156:112,1,80,0|2,1:0|0:0,0:0:0:0:
284,184,81175,2,0,L|272:272,1,80,8|2,0:0|0:0,0:0:0:0:
156,296,81667,2,0,L|145:216,1,80,0|2,1:0|0:0,0:0:0:0:
280,96,82159,2,0,P|362:88|440:92,1,160,8|0,0:0|1:0,0:0:0:0:
496,224,82896,6,0,L|416:216,1,80,2|8,0:0|0:0,0:0:0:0:
300,280,83388,1,2,0:0:0:0:
176,224,83634,2,0,P|164:184|168:144,1,80,0|2,1:0|0:0,0:0:0:0:
292,72,84126,2,0,P|304:112|300:152,1,80,8|2,0:0|0:0,0:0:0:0:
180,228,84618,2,0,P|96:204|20:220,2,160,0|8|0,1:0|0:0|1:0,0:0:0:0:
276,292,85847,2,0,L|360:284,1,80,2|8,0:0|0:0,0:0:0:0:
492,328,86339,1,2,0:0:0:0:
356,284,86585,6,0,P|372:184|348:120,1,160,4|8,0:3|0:0,0:0:0:0:
456,80,87323,1,2,0:0:0:0:
353,130,87568,2,0,L|252:124,1,80,0|2,0:0|0:0,0:0:0:0:
52,180,88060,2,0,L|131:184,1,80,10|0,0:0|0:0,0:0:0:0:
148,196,88429,1,8,0:3:0:0:
164,208,88552,6,0,P|172:184|160:100,1,80,8|0,0:3|0:0,0:0:0:0:
12,28,89044,2,0,P|4:52|16:136,1,80,8|2,0:0|0:0,0:0:0:0:
76,312,89536,1,0,0:0:0:0:
200,364,89782,1,2,0:0:0:0:
244,244,90028,1,10,0:0:0:0:
76,312,90273,1,0,0:0:0:0:
76,312,90396,1,8,0:3:0:0:
76,312,90519,1,8,0:3:0:0:
200,364,90765,5,2,0:0:0:0:
332,336,91011,2,0,L|412:328,1,80,8|0,0:0|0:0,0:0:0:0:
492,204,91503,2,0,P|432:212|344:160,1,160,0|10,0:0|0:0,0:0:0:0:
444,92,92241,1,0,0:0:0:0:
444,92,92364,1,8,0:3:0:0:
444,92,92487,1,8,0:3:0:0:
332,48,92732,5,2,0:0:0:0:
244,120,92978,2,0,P|204:112|152:116,1,80,8|2,0:0|0:0,0:0:0:0:
56,236,93470,1,0,0:0:0:0:
165,113,93716,2,0,L|152:208,1,80,2|10,0:0|0:0,0:0:0:0:
156,324,94208,1,0,0:0:0:0:
156,324,94331,1,8,0:3:0:0:
156,324,94454,6,0,L|240:320,1,80,8|2,0:3|0:0,0:0:0:0:
56,236,94946,2,0,L|45:156,1,80,8|2,0:0|0:0,0:0:0:0:
300,248,95437,2,0,P|352:248|428:288,1,120
413,275,95929,1,10,0:0:0:0:
480,192,96175,2,0,L|488:136,2,40,0|8|8,0:0|0:3|0:3,0:0:0:0:
500,352,96667,5,2,0:0:0:0:
388,132,96913,2,0,L|292:136,1,80,8|2,0:0|0:0,0:0:0:0:
200,60,97405,1,0,0:0:0:0:
208,200,97650,1,2,0:0:0:0:
308,135,97896,1,10,0:0:0:0:
108,140,98142,1,0,0:0:0:0:
108,140,98265,1,8,0:3:0:0:
108,140,98388,1,8,0:3:0:0:
232,128,98634,5,2,0:0:0:0:
112,256,98880,2,0,L|108:336,1,80,8|2,0:0|0:0,0:0:0:0:
108,335,99249,1,0,0:0:0:0:
108,335,99372,2,0,P|160:364|244:344,1,120
217,361,99864,1,10,0:0:0:0:
304,272,100109,1,0,0:0:0:0:
484,356,100355,6,0,L|400:348,1,80,8|2,0:3|0:0,0:0:0:0:
412,116,100847,2,0,L|420:216,2,80,8|2|0,0:0|0:0|0:0,0:0:0:0:
248,96,101585,1,10,0:0:0:0:
248,96,101708,1,0,0:0:0:0:
248,96,101831,2,0,L|288:88,1,40,10|0,0:0|0:0,0:0:0:0:
160,120,102077,2,0,L|120:112,1,40,0|8,0:0|0:3,0:0:0:0:
228,184,102323,6,0,P|248:252|224:324,1,143.999995605469,4|0,0:0|2:0,0:0:0:0:
240,340,102814,2,0,P|286:336|336:336,1,95.9999970703126,8|2,0:0|2:0,0:0:0:0:
460,268,103306,2,0,L|468:172,1,95.9999970703126,0|0,0:0|2:0,0:0:0:0:
316,64,103798,2,0,L|324:160,1,95.9999970703126,8|0,0:0|0:0,0:0:0:0:
312,176,104167,1,0,0:0:0:0:
300,196,104290,5,0,0:0:0:0:
92,160,104536,1,0,0:0:0:0:
228,292,104782,1,8,0:0:0:0:
20,256,105028,1,2,2:0:0:0:
228,292,105273,2,0,P|306:285|372:284,1,143.999995605469,0|0,0:0|2:0,0:0:0:0:
388,296,105765,2,0,P|400:248|396:200,1,95.9999970703126,8|0,0:0|0:0,0:0:0:0:
304,88,106257,5,0,0:0:0:0:
288,100,106380,1,0,0:0:0:0:
272,112,106503,2,0,L|168:104,1,95.9999970703126,0|8,0:0|0:0,0:0:0:0:
28,216,106995,1,2,2:0:0:0:
28,216,107241,2,0,L|136:208,1,95.9999970703126
252,256,107732,2,0,P|319:263|400:272,1,143.999995605469,8|0,0:0|0:0,0:0:0:0:
412,260,108224,6,0,P|400:312|412:356,1,95.9999970703126
484,192,108716,2,0,P|496:140|484:96,1,95.9999970703126,8|2,0:0|2:0,0:0:0:0:
340,72,109208,1,0,0:0:0:0:
196,76,109454,1,0,0:0:0:0:
60,144,109700,2,0,L|76:244,1,95.9999970703126,8|0,0:0|0:0,0:0:0:0:
96,252,110068,1,0,0:0:0:0:
116,268,110191,6,0,P|180:252|268:256,1,143.999995605469,4|0,0:0|2:0,0:0:0:0:
276,244,110683,2,0,L|292:344,1,95.9999970703126,8|2,0:0|2:0,0:0:0:0:
412,340,111175,2,0,L|427:245,1,95.9999970703126,0|0,0:0|2:0,0:0:0:0:
332,32,111667,2,0,P|320:100|344:172,1,143.999995605469,8|0,0:0|0:0,0:0:0:0:
328,188,112159,6,0,L|232:180,1,95.9999970703126
36,136,112650,2,0,L|136:116,1,95.9999970703126,8|2,0:0|2:0,0:0:0:0:
228,184,113142,2,0,P|248:252|232:324,1,143.999995605469
232,322,113634,1,8,0:0:0:0:
348,340,113880,1,0,0:0:0:0:
348,340,114126,6,0,L|444:332,1,95.9999970703126
344,196,114618,1,8,0:0:0:0:
228,184,114864,1,2,2:0:0:0:
352,76,115109,2,0,L|448:68,1,95.9999970703126,0|0,0:0|2:0,0:0:0:0:
228,184,115601,2,0,L|128:172,1,95.9999970703126,8|0,0:0|0:0,0:0:0:0:
132,172,115970,1,0,0:0:0:0:
132,172,116093,5,0,0:0:0:0:
96,308,116339,1,0,0:0:0:0:
272,256,116585,5,8,0:0:0:0:
308,120,116831,1,0,0:0:0:0:
468,212,117077,5,0,0:0:0:0:
432,348,117323,1,0,0:0:0:0:
272,256,117568,5,8,0:0:0:0:
308,120,117814,1,0,0:0:0:0:
296,100,117937,1,0,0:0:0:0:
284,80,118060,6,0,L|188:68,1,95.9999970703126,4|0,0:0|0:0,0:0:0:0:
384,144,118552,2,0,L|480:132,1,95.9999970703126,12|2,0:0|2:0,0:0:0:0:
188,164,119044,2,2,P|136:148|40:160,1,143.999995605469,2|0,0:0|0:0,0:0:0:0:
47,156,119536,1,12,0:0:0:0:
112,272,119782,1,0,0:0:0:0:
112,272,119905,1,0,0:0:0:0:
112,272,120028,5,0,0:0:0:0:
224,340,120273,1,0,0:0:0:0:
288,240,120519,2,0,L|296:144,1,95.9999970703126,12|2,0:0|2:0,0:0:0:0:
462,58,121011,2,2,P|450:110|506:210,1,143.999995605469,0|0,0:0|0:0,0:0:0:0:
484,192,121503,2,0,P|446:182|378:186,1,95.9999970703126,12|0,0:0|0:0,0:0:0:0:
389,184,121872,1,0,0:0:0:0:
389,184,121995,5,0,0:0:0:0:
352,56,122241,1,0,0:0:0:0:
216,96,122487,2,0,L|116:88,1,95.9999970703126,12|2,0:0|2:0,0:0:0:0:
168,292,122978,2,2,L|156:192,1,95.9999970703126,0|0,0:0|0:0,0:0:0:0:
64,344,123470,1,12,0:0:0:0:
288,272,123716,1,0,0:0:0:0:
288,272,123839,1,0,0:0:0:0:
288,272,123962,6,0,P|280:320|292:372,1,95.9999970703126
479,298,124454,2,0,L|384:312,1,95.9999970703126,12|2,0:0|2:0,0:0:0:0:
472,200,124946,2,2,P|424:208|320:152,1,143.999995605469,2|0,0:0|0:0,0:0:0:0:
337,172,125437,2,2,L|344:76,1,95.9999970703126,12|0,0:0|0:0,0:0:0:0:
328,64,125806,1,0,0:0:0:0:
312,52,125929,6,0,P|264:44|200:48,1,95.9999970703126,4|0,0:0|0:0,0:0:0:0:
156,272,126421,2,2,P|180:200|164:140,1,95.9999970703126,12|0,0:0|2:0,0:0:0:0:
178,181,126790,1,0,0:0:0:0:
178,181,126913,1,2,0:0:0:0:
0,212,127159,2,0,L|72:204,1,95.9999970703126,0|14,0:0|0:0,0:0:0:0:
336,348,127650,1,0,0:0:0:0:
336,348,127773,1,0,0:0:0:0:
336,348,127896,6,0,L|240:340,1,95.9999970703126,0|0,0:0|0:0,0:0:0:0:
364,160,128388,2,0,L|352:64,1,95.9999970703126,12|2,0:0|2:0,0:0:0:0:
332,256,128880,2,2,P|384:260|456:192,1,143.999995605469,2|0,0:0|0:0,0:0:0:0:
451,204,129372,1,12,0:0:0:0:
268,180,129618,1,0,0:0:0:0:
268,180,129741,1,0,0:0:0:0:
268,180,129864,6,0,P|224:172|160:176,1,95.9999970703126
80,264,130355,1,14,0:0:0:0:
188,352,130601,1,2,2:0:0:0:
172,173,130847,2,2,L|168:68,1,95.9999970703126,0|0,0:0|0:0,0:0:0:0:
356,228,131339,2,2,P|344:172|376:68,1,143.999995605469,14|0,0:0|0:0,0:0:0:0:
363,88,131831,6,0,L|464:80,1,95.9999970703126,2|0,0:0|0:0,0:0:0:0:
172,172,132323,2,2,L|71:163,1,95.9999970703126,14|2,0:0|2:0,0:0:0:0:
280,292,132814,1,2,0:0:0:0:
172,172,133060,1,2,0:0:0:0:
280,292,133306,2,0,L|380:283,1,95.9999970703126,12|2,0:0|0:0,0:0:0:0:
375,283,133675,1,0,0:0:0:0:
375,283,133798,5,4,0:0:0:0:
124,284,145601,6,0,L|208:276,1,80
136,160,146093,2,0,L|52:168,1,80
344,188,146585,2,0,L|428:180,1,80
356,64,147077,2,0,L|272:72,1,80
136,160,147568,5,0,0:0:0:0:
152,280,147814,1,0,0:0:0:0:
272,260,148060,1,0,0:0:0:0:
256,140,148306,1,0,0:0:0:0:
72,236,148552,5,0,0:0:0:0:
220,336,148798,1,0,0:0:0:0:
247,319,148921,1,0,0:0:0:0:
276,306,149044,1,0,0:0:0:0:
307,301,149167,1,0,0:0:0:0:
338,303,149290,1,0,0:0:0:0:
368,313,149413,1,0,0:0:0:0:
397,326,149536,6,0,P|412:288|408:248,1,80,0|2,0:0|0:0,0:0:0:0:
376,112,150028,2,0,L|456:96,1,80,8|2,0:0|0:0,0:0:0:0:
272,184,150519,2,0,P|196:156|120:168,2,160,0|8|0,0:0|0:0|0:0,0:0:0:0:
372,256,151749,1,2,0:0:0:0:
372,256,151872,1,0,0:0:0:0:
372,256,151995,2,0,L|360:344,1,80,8|2,0:0|0:0,0:0:0:0:
216,304,152487,2,0,L|132:296,1,80,0|2,0:0|0:0,0:0:0:0:
188,192,152978,2,0,P|212:116|188:40,1,160,8|0,0:0|0:0,0:0:0:0:
28,128,153716,6,0,L|112:120,1,80,2|8,0:0|0:0,0:0:0:0:
308,112,154208,1,2,0:0:0:0:
428,132,154454,1,0,0:0:0:0:
408,252,154700,1,2,0:0:0:0:
288,232,154946,1,8,0:0:0:0:
308,112,155191,5,2,0:0:0:0:
116,136,155683,1,2,0:0:0:0:
140,328,156175,1,2,0:0:0:0:
332,304,156667,6,0,P|396:272|472:288,1,150.000005722046,2|0,0:0|0:0,0:0:0:0:
484,304,157405,6,0,L|492:208,1,95.9999970703126,4|0,0:0|0:0,0:0:0:0:
344,128,157896,2,0,L|456:116,1,95.9999970703126,8|2,0:0|2:0,0:0:0:0:
240,188,158388,2,0,P|192:168|92:172,1,143.999995605469
101,169,158880,1,8,0:0:0:0:
32,52,159126,1,0,0:0:0:0:
32,52,159249,1,0,0:0:0:0:
32,52,159372,6,0,L|136:60,1,95.9999970703126
392,124,159864,2,0,L|288:132,1,95.9999970703126,8|2,0:0|2:0,0:0:0:0:
188,292,160355,2,0,P|260:304|336:256,1,143.999995605469
321,273,160847,1,8,0:0:0:0:
104,240,161093,1,0,0:0:0:0:
104,240,161216,1,0,0:0:0:0:
104,240,161339,6,0,P|64:232|-4:240,1,95.9999970703126
240,188,161831,2,0,L|232:84,1,95.9999970703126,8|2,0:0|2:0,0:0:0:0:
356,156,162323,1,0,0:0:0:0:
321,273,162568,1,0,0:0:0:0:
416,348,162814,2,0,L|512:336,1,95.9999970703126,8|0,0:0|0:0,0:0:0:0:
424,76,163306,6,0,P|456:132|432:224,1,143.999995605469
443,207,163798,1,8,0:0:0:0:
240,188,164044,2,0,L|136:180,1,95.9999970703126,2|0,2:0|0:0,0:0:0:0:
56,96,164536,1,0,0:0:0:0:
168,32,164782,1,8,0:0:0:0:
144,180,165028,1,0,0:0:0:0:
136,200,165150,1,0,0:0:0:0:
128,216,165273,6,0,L|136:360,1,143.999995605469,4|0,0:0|0:0,0:0:0:0:
135,359,165765,2,0,P|184:372|248:352,1,95.9999970703126,8|2,0:0|2:0,0:0:0:0:
432,312,166257,2,0,P|368:288|288:296,1,143.999995605469
293,294,166749,1,8,0:0:0:0:
412,200,166995,1,0,0:0:0:0:
412,200,167118,1,0,0:0:0:0:
412,200,167241,5,0,0:0:0:0:
296,128,167487,1,0,0:0:0:0:
416,48,167732,2,0,L|512:36,1,95.9999970703126,8|2,0:0|2:0,0:0:0:0:
296,128,168224,2,0,L|200:116,1,95.9999970703126
26,283,168716,2,0,P|66:271|130:279,1,95.9999970703126,8|0,0:0|0:0,0:0:0:0:
120,276,169085,1,0,0:0:0:0:
120,276,169208,6,0,L|126:175,1,95.9999970703126
12,84,169700,2,0,L|132:76,1,95.9999970703126,8|2,0:0|2:0,0:0:0:0:
372,260,170191,2,0,P|324:236|236:236,1,143.999995605469
235,236,170683,1,8,0:0:0:0:
432,168,170929,1,0,0:0:0:0:
432,168,171052,1,0,0:0:0:0:
432,168,171175,5,0,0:0:0:0:
452,36,171421,1,0,0:0:0:0:
320,12,171667,1,8,0:0:0:0:
300,144,171913,1,0,2:0:0:0:
464,52,172159,1,0,0:0:0:0:
328,152,172405,1,0,0:0:0:0:
172,108,172650,2,0,L|68:96,1,95.9999970703126,8|0,0:0|0:0,0:0:0:0:
60,88,173019,1,0,0:0:0:0:
44,80,173142,5,4,0:0:0:0:
68,288,173634,2,0,P|116:288|156:264,1,95.9999970703126,12|2,0:0|2:0,0:0:0:0:
420,328,174126,2,2,P|336:284|240:300,1,191.999994140625,2|12,0:0|0:0,0:0:0:0:
224,204,174864,1,0,0:0:0:0:
240,192,174987,1,0,0:0:0:0:
260,180,175109,6,0,L|268:84,1,95.9999970703126
392,68,175601,2,0,L|384:164,1,95.9999970703126,12|2,0:0|2:0,0:0:0:0:
292,312,176093,2,2,P|191:297|100:288,1,191.999994140625,2|12,0:0|0:0,0:0:0:0:
56,196,176831,1,0,0:0:0:0:
56,196,176954,1,0,0:0:0:0:
56,196,177077,5,0,0:0:0:0:
196,176,177323,1,0,0:0:0:0:
172,44,177568,1,12,0:0:0:0:
40,64,177814,1,2,2:0:0:0:
200,180,178060,2,2,L|304:164,1,95.9999970703126,2|0,0:0|0:0,0:0:0:0:
484,236,178552,2,2,L|388:212,1,95.9999970703126,12|0,0:0|0:0,0:0:0:0:
390,212,178921,1,0,0:0:0:0:
390,212,179044,6,0,P|404:164|388:120,1,95.9999970703126
284,248,179536,2,0,P|270:296|286:340,1,95.9999970703126,12|2,0:0|2:0,0:0:0:0:
236,152,180028,2,2,L|92:141,1,143.999995605469,2|0,0:0|0:0,0:0:0:0:
80,152,180519,1,12,0:0:0:0:
224,48,180765,1,0,0:0:0:0:
224,48,180888,1,0,0:0:0:0:
224,48,181011,6,2,L|367:58,1,143.999995605469,4|0,0:0|0:0,0:0:0:0:
384,52,181503,2,0,P|372:100|388:156,1,95.9999970703126,14|2,0:0|2:0,0:0:0:0:
456,352,181995,2,0,P|488:288|476:212,1,143.999995605469,2|0,0:0|0:0,0:0:0:0:
464,232,182487,2,2,L|364:224,1,95.9999970703126,14|0,0:0|0:0,0:0:0:0:
244,172,182978,6,0,P|236:124|248:76,1,95.9999970703126
364,220,183470,2,0,P|372:268|360:316,1,95.9999970703126,14|2,0:0|2:0,0:0:0:0:
228,280,183962,2,0,L|84:268,1,143.999995605469,2|0,0:0|0:0,0:0:0:0:
84,268,184454,1,14,0:0:0:0:
52,136,184700,1,0,0:0:0:0:
184,88,184946,5,0,0:0:0:0:
288,68,185191,1,0,0:0:0:0:
416,148,185437,5,14,0:0:0:0:
312,168,185682,1,2,2:0:0:0:
232,296,185929,5,2,0:0:0:0:
336,276,186174,1,0,0:0:0:0:
212,196,186421,5,14,0:0:0:0:
108,216,186666,1,0,0:0:0:0:
108,216,186790,1,0,0:0:0:0:
108,216,186913,6,0,L|12:200,1,95.9999970703126,2|0,0:0|0:0,0:0:0:0:
152,120,187405,2,0,L|244:96,1,95.9999970703126,14|2,0:0|2:0,0:0:0:0:
308,208,187896,2,0,L|324:301,1,95.9999970703126,2|2,0:0|0:0,0:0:0:0:
436,304,188388,2,0,L|452:210,1,95.9999970703126,12|2,0:0|0:0,0:0:0:0:
464,192,188757,1,0,0:0:0:0:
476,176,188880,5,4,0:0:0:0:
256,192,189003,12,0,192814,0:0:0:0:
