osu file format v12

[General]
AudioFilename: Train - Drive By --- HQ!!!.mp3
AudioLeadIn: 0
PreviewTime: 36541
Countdown: 0
SampleSet: Normal
StackLeniency: 0.7
Mode: 0
LetterboxInBreaks: 1

[Editor]
Bookmarks: 5929
DistanceSpacing: 1
BeatDivisor: 4
GridSize: 4

[Metadata]
Title:Drive By
TitleUnicode:Drive By
Artist:Train
ArtistUnicode:Train
Creator:Kyshiro
Version:Fine
Source:
Tags:HellDawn California 37
BeatmapID:200254
BeatmapSetID:68040

[Difficulty]
HPDrainRate:3
CircleSize:3
OverallDifficulty:3
ApproachRate:3
SliderMultiplier:1.2
SliderTickRate:2

[Events]
//Background and Video events
0,0,"886919752823.jpg",0,0
//Break Periods
2,69984,84281
//Storyboard Layer 0 (Background)
//Storyboard Layer 1 (Fail)
//Storyboard Layer 2 (Pass)
//Storyboard Layer 3 (Foreground)
//Storyboard Sound Samples
//Background Colour Transformations
3,100,163,162,255

[TimingPoints]
1132,491.803278688525,4,2,0,50,1,0
24246,-100,4,2,1,50,0,0
24369,-100,4,2,0,50,0,0
27197,-100,4,2,0,50,0,0
28180,-100,4,2,1,50,0,0
28303,-100,4,2,0,50,0,0
31131,-100,4,2,1,50,0,0
31377,-100,4,2,0,50,0,0
35066,-100,4,2,1,50,0,0
35311,-100,4,2,0,50,0,0
36049,-100,4,2,1,50,0,0
36295,-100,4,2,0,50,0,0
36541,-100,4,1,0,65,0,1
46869,-100,4,1,1,55,0,1
46992,-100,4,1,0,65,0,1
47852,-100,4,1,1,55,0,1
47975,-100,4,1,0,65,0,1
50803,-100,4,1,1,55,0,1
51049,-100,4,1,0,65,0,1
51787,-100,4,1,1,55,0,1
51910,-100,4,1,0,65,0,1
54738,-100,4,1,1,55,0,1
54861,-100,4,1,0,65,0,1
55721,-100,4,1,1,55,0,1
55844,-100,4,1,0,65,0,1
60025,-100,4,1,0,65,0,0
60148,-100,4,1,0,65,0,1
60639,-100,4,1,1,55,0,1
60885,-100,4,1,0,65,0,1
61623,-100,4,1,1,55,0,1
61869,-100,4,1,0,65,0,1
66541,-100,4,1,1,55,0,1
66787,-100,4,1,0,65,0,1
67033,-100,4,1,1,55,0,1
67525,-100,4,1,0,40,0,1
67770,-100,4,1,1,55,0,1
68016,-100,4,2,0,35,0,1
68508,-100,4,2,1,35,0,1
68754,-100,4,2,0,35,0,1
69000,-100,4,2,1,50,0,0
85721,-100,4,2,0,50,0,0
86213,-100,4,2,1,50,0,0
86459,-100,4,2,0,50,0,0
87197,-100,4,2,1,50,0,0
87443,-100,4,2,0,50,0,0
90393,-100,4,2,0,50,0,0
91131,-100,4,2,1,50,0,0
91377,-100,4,2,0,50,0,0
94082,-100,4,2,1,50,0,0
94205,-100,4,2,0,50,0,0
95066,-100,4,2,1,50,0,0
95188,-100,4,2,0,50,0,0
96295,-100,4,2,0,50,0,0
98016,-100,4,2,1,50,0,0
98139,-100,4,2,0,50,0,0
99000,-100,4,2,1,50,0,0
99246,-100,4,2,0,50,0,0
99984,-100,4,2,1,50,0,0
100106,-100,4,2,0,50,0,0
101459,-100,4,1,1,55,0,1
103426,-100,4,1,0,65,0,1
103918,-100,4,1,1,55,0,1
104041,-100,4,1,0,65,0,1
104902,-100,4,1,1,55,0,1
105025,-100,4,1,0,65,0,1
110066,-100,4,1,0,65,0,1
110803,-100,4,1,1,55,0,1
110926,-100,4,1,0,65,0,1
113754,-100,4,1,1,55,0,1
113877,-100,4,1,0,65,0,1
114738,-100,4,1,1,55,0,1
114861,-100,4,1,0,65,0,1
117934,-100,4,1,0,65,0,1
118672,-100,4,1,1,55,0,1
118795,-100,4,1,0,65,0,1
121623,-100,4,1,1,55,0,1
121869,-100,4,1,0,65,0,1
122606,-100,4,1,1,55,0,1
122729,-100,4,1,0,65,0,1
124943,-100,4,1,0,65,0,0
125066,-100,4,1,0,65,0,1
125557,-100,4,1,1,55,0,1
125803,-100,4,1,0,65,0,1
126541,-100,4,1,1,55,0,1
126664,-100,4,1,0,65,0,1
129738,-100,4,1,0,65,0,1
130475,-100,4,1,1,55,0,1
130598,-100,4,1,0,65,0,1
132935,-100,4,2,0,50,0,0
149164,-100,4,2,1,50,0,0
149410,-100,4,2,0,50,0,0
151131,-100,4,2,1,50,0,0
151377,-100,4,2,0,50,0,0
155066,-100,4,2,0,30,0,0
156541,-100,4,1,1,55,0,1
158754,-100,4,1,0,65,0,1
159000,-100,4,1,1,55,0,1
159246,-100,4,1,0,65,0,1
162934,-100,4,1,1,55,0,1
163180,-100,4,1,0,65,0,1
163918,-100,4,1,1,55,0,1
164041,-100,4,1,0,65,0,1
166869,-100,4,1,1,55,0,1
167115,-100,4,1,0,65,0,1
170803,-100,4,1,1,55,0,1
171049,-100,4,1,0,65,0,1
171295,-100,4,1,1,55,0,1
171541,-100,4,1,1,55,0,1
171787,-100,4,1,0,65,0,1
172033,-100,4,1,1,55,0,1
174492,-100,4,1,0,65,0,1
174738,-100,4,1,1,55,0,1
174984,-100,4,1,0,65,0,1
176705,-100,4,1,1,55,0,1
176951,-100,4,1,0,65,0,1
180639,-100,4,1,1,55,0,1
180885,-100,4,1,0,65,0,1
188017,-100,4,2,0,65,0,0

[Colours]
Combo1 : 196,26,26
Combo2 : 84,172,19
Combo3 : 225,158,19

[HitObjects]
220,100,5066,1,0,0:0:0:0:
144,192,5557,1,0,0:0:0:0:
220,284,6049,1,0,0:0:0:0:
300,196,6541,2,0,B|364:156|364:236|420:196,1,120,2|0,0:0|0:0,0:0:0:0:
364,92,7525,5,0,0:0:0:0:
244,80,8016,1,0,0:0:0:0:
212,196,8508,2,0,B|148:156|148:236|92:196,1,120,2|0,0:0|0:0,0:0:0:0:
124,84,9492,5,0,0:0:0:0:
244,80,9984,1,0,0:0:0:0:
356,120,10476,2,0,B|400:120|400:120|416:108|416:108|432:120|432:120|472:120,1,120,2|0,0:0|0:0,0:0:0:0:
428,232,11459,5,0,0:0:0:0:
428,352,11951,1,0,0:0:0:0:
316,304,12443,2,0,B|272:304|272:304|256:292|256:292|240:304|240:304|200:304|200:304,1,120,2|0,0:0|0:0,0:0:0:0:
140,204,13426,6,0,B|176:240|220:212|220:160|220:160|220:128|256:104|292:128|292:160|292:160|292:212|336:240|372:204,1,360,2|0,0:0|0:0,0:0:0:0:
372,84,15393,1,0,0:0:0:0:
132,84,16377,6,0,B|160:120|120:168|148:220,1,120,2|0,0:0|0:0,0:0:0:0:
188,312,17361,1,0,0:0:0:0:
256,212,17852,1,0,0:0:0:0:
324,312,18344,1,2,0:0:0:0:
380,208,18836,2,0,P|256:100|128:208,1,360,0|0,0:0|0:0,0:0:0:0:
44,120,20803,5,0,0:0:0:0:
136,40,21295,1,8,0:0:0:0:
376,44,22279,1,8,0:0:0:0:
284,124,22770,1,0,0:0:0:0:
316,240,23262,6,0,B|196:288|192:372|256:404|320:372|316:288|196:240,1,360,8|0,0:0|0:0,0:0:0:0:
76,240,25229,1,8,0:0:0:0:
96,120,25721,1,0,0:0:0:0:
324,196,26705,1,0,0:0:0:0:
416,120,27197,6,0,B|336:44|256:84|256:156|176:196|96:120,1,360,8|0,0:2|0:0,0:0:0:0:
180,36,29164,1,8,0:0:0:0:
180,276,30147,1,8,0:0:0:0:
112,176,30639,6,4,B|152:161|152:161|174:128|174:128|219:159|219:159|255:138|255:138|294:159|294:159|337:128|337:128|358:161|358:161|399:176,1,360,0|8,0:0|0:0,0:0:0:0:
204,36,33098,1,8,0:0:0:0:
92,80,33590,1,0,0:0:0:0:
64,196,34082,1,8,0:0:0:0:
172,248,34574,6,0,B|172:258|153:258|133:277|130:323|154:356|220:356|253:335|255:254|255:254|256:335|289:356|355:356|380:323|376:277|360:260|340:260|340:244,1,480,0|4,0:0|0:0,0:0:0:0:
256,160,37033,5,8,0:0:0:0:
316,56,37525,1,0,0:0:0:0:
196,56,38016,1,8,0:0:0:0:
364,228,39000,2,0,P|256:272|148:228,1,240,8|8,0:0|0:0,0:0:0:0:
364,124,40967,5,8,0:0:0:0:
256,72,41459,1,0,0:0:0:0:
148,124,41951,2,0,B|116:133|103:168|116:203|148:213,1,120,8|0,0:0|0:0,0:0:0:0:
256,264,42934,1,8,0:0:0:0:
372,240,43426,2,0,L|460:328,2,120,0|8|4,0:0|0:0|0:0,0:0:0:0:
340,124,44902,6,0,P|256:52|172:124,1,240,8|8,0:0|0:0,0:0:0:0:
172,244,46377,2,0,P|256:316|340:244,2,240,0|0|0,0:0|0:0|0:0,0:0:0:0:
52,260,48836,1,8,0:0:0:0:
52,140,49328,1,0,0:0:0:0:
116,40,49820,1,8,0:0:0:0:
156,152,50311,6,0,B|188:136|216:152|212:200|212:200|216:250|158:308|255:368|352:308|293:250|300:200|300:200|293:152|320:136|359:152,1,480,0|4,0:0|0:0,0:0:0:0:
416,256,52770,5,8,0:0:0:0:
472,152,53262,1,0,0:0:0:0:
416,44,53754,1,8,0:0:0:0:
308,92,54246,2,0,B|228:75|188:151|228:228|308:211,2,240
408,156,56705,5,8,0:0:0:0:
408,276,57197,1,0,0:0:0:0:
307,211,57688,2,0,P|256:236|200:212,2,120,8|0|8,0:0|0:0|0:0,0:0:0:0:
256,104,59164,1,0,0:0:0:0:
140,132,59656,1,8,0:0:0:0:
48,208,60147,6,0,B|71:255|137:279|196:255|185:208|196:173|255:155|315:173|327:208|315:255|374:279|439:255|463:208,1,480,4|0,0:0|0:0,0:0:0:0:
392,112,62607,2,0,P|352:76|288:72,1,120,8|0,0:0|0:0,0:0:0:0:
240,184,63590,2,0,P|280:220|344:224,1,120,8|0,0:0|0:0,0:0:0:0:
348,344,64574,5,8,0:0:0:0:
468,348,65066,1,0,0:0:0:0:
504,232,65557,1,8,0:0:0:0:
436,136,66049,6,0,B|444:176|424:220|368:236|324:204|312:152|344:112|344:112|276:88|256:28|256:28|236:88|168:112|168:112|200:152|188:204|144:236|88:220|68:176|76:136,1,720,4|6,0:0|0:0,0:0:0:0:
32,256,85721,6,0,B|74:277|116:251|116:251|167:218|213:247|213:247|255:285|297:247|297:247|344:218|394:251|394:251|437:277|479:256,1,480,2|0,0:0|0:0,0:0:0:0:
440,144,88180,1,8,0:0:0:0:
340,76,88672,1,0,0:0:0:0:
256,164,89164,1,8,0:0:0:0:
172,76,89656,5,0,0:0:0:0:
104,176,90147,2,0,B|107:213|141:235|179:235|179:235|255:267|324:235|324:235|362:235|396:213|400:176,1,360,8|0,0:0|0:0,0:0:0:0:
348,64,92115,1,8,0:0:0:0:
256,140,92606,1,0,0:0:0:0:
164,64,93098,1,8,0:0:0:0:
72,140,93590,6,0,B|50:148|38:165|38:194|38:194|38:245|38:295|38:295|38:325|50:342|72:350,2,240
136,244,96049,2,0,L|380:244,1,240,8|8,0:0|0:0,0:0:0:0:
440,140,97525,2,0,B|461:148|473:165|473:194|473:194|473:245|473:295|473:295|473:325|461:342|440:350,3,240,0|0|0|2,0:0|0:0|0:0|0:0,0:0:0:0:
256,192,101459,5,4,0:0:0:0:
196,88,101951,1,8,0:0:0:0:
316,88,102443,1,0,0:0:0:0:
372,192,102934,1,8,0:0:0:0:
360,312,103426,6,0,B|324:327|299:359|299:359|216:359|216:359|190:327|155:312,2,240
256,252,105885,1,8,0:0:0:0:
256,132,106377,1,0,0:0:0:0:
196,28,106869,6,0,L|316:28,2,120,8|0|8,0:0|0:0|0:0,0:0:0:0:
100,100,108344,1,0,0:0:0:0:
24,192,108836,1,8,0:0:0:0:
100,284,109328,1,4,0:0:0:0:
184,196,109820,6,0,B|231:192|328:142|324:73|256:34|188:73|184:142|281:192|328:196,1,360,8|0,0:0|0:0,0:0:0:0:
372,304,111787,1,8,0:0:0:0:
256,268,112279,1,0,0:0:0:0:
140,304,112770,1,8,0:0:0:0:
153,184,113262,6,0,B|188:168|213:136|213:136|296:136|296:136|322:168|357:184,2,240,0|0|0,0:0|0:0|0:0,0:0:0:0:
44,136,115721,1,8,0:0:0:0:
44,256,116213,1,0,0:0:0:0:
132,340,116705,2,0,L|260:340,1,120,8|4,0:0|0:0,0:0:0:0:
178,244,117688,6,0,B|239:278|411:158|256:64|101:158|273:278|333:244,1,360,8|0,0:0|0:0,0:0:0:0:
390,141,119656,1,8,0:0:0:0:
334,37,120147,1,0,0:0:0:0:
218,65,120639,1,8,0:0:0:0:
122,141,121131,6,0,B|192:166|192:242|192:242|186:305|255:344|326:305|319:242|319:242|319:166|389:141,1,480,0|0,0:0|0:0,0:0:0:0:
320,44,123590,1,8,0:0:0:0:
200,44,124082,2,0,L|76:56,1,120,0|8,0:0|0:0,0:0:0:0:
84,176,125066,6,0,B|86:240|141:301|222:283|256:241|256:241|284:280|358:293|429:259|426:172,1,480,4|0,0:0|0:0,0:0:0:0:
316,124,127525,1,8,0:0:0:0:
196,124,128016,1,0,0:0:0:0:
92,64,128508,1,8,0:0:0:0:
160,296,129492,6,0,B|183:343|219:331|255:355|315:296|315:235|255:199|195:235|195:296|255:355|291:331|327:343|352:296,1,360,8|0,0:0|0:0,0:0:0:0:
332,176,131459,1,8,0:0:0:0:
256,84,131951,1,0,0:0:0:0:
180,176,132443,1,8,0:0:0:0:
88,256,132934,6,0,B|79:278|107:320|192:314|216:266|177:223|216:196|251:196|251:196|259:196|259:196|294:196|333:223|294:266|317:314|403:320|429:278|418:248,1,480,2|2,0:0|0:0,0:0:0:0:
256,72,135885,1,0,0:0:0:0:
377,279,136869,6,0,B|348:326|297:326|255:299|255:299|214:257|217:202|256:222|293:202|297:257|255:299|255:299|214:326|162:326|130:279,1,480,2|2,0:0|0:0,0:0:0:0:
256,36,139820,1,2,0:0:0:0:
256,156,140311,1,0,0:0:0:0:
344,237,140803,6,0,B|391:270|395:355|325:404|257:370|257:370|188:404|119:355|123:270|172:232,1,480,2|2,0:0|0:0,0:0:0:0:
344,68,143754,1,0,0:0:0:0:
256,148,144246,2,0,L|164:72,2,120,2|0|2,0:0|0:0|0:0,0:0:0:0:
256,268,145721,6,0,L|164:344,2,120,2|0|2,0:0|0:0|0:0,0:0:0:0:
360,204,147197,1,0,0:0:0:0:
360,84,147688,1,2,0:0:0:0:
460,148,148180,1,0,0:0:0:0:
404,252,148672,6,0,B|400:290|366:312|328:312|328:312|256:312|183:312|183:312|145:312|111:290|107:252,1,360,2|8,0:0|0:0,0:0:0:0:
108,132,150639,2,0,B|112:94|146:72|184:72|184:72|256:72|329:72|329:72|367:72|401:94|405:132,1,360,2|8,0:0|0:0,0:0:0:0:
404,252,152606,5,0,0:0:0:0:
316,172,153098,1,8,0:0:0:0:
196,172,153590,1,0,0:0:0:0:
100,244,154082,1,8,0:0:0:0:
177,335,154574,6,0,B|142:325|143:292|153:272|183:262|204:282|204:282|183:240|204:210|214:190|254:171|296:190|306:210|327:240|306:282|306:282|333:259|373:275|370:326|334:335,1,480,0|4,0:0|0:0,0:0:0:0:
456,312,157033,5,8,0:0:0:0:
492,196,157525,1,0,0:0:0:0:
456,84,158016,1,8,0:0:0:0:
364,164,158508,6,0,B|300:200|300:268|300:268|258:290|258:290|214:270|214:270|214:198|145:159,1,360,0|8,0:0|0:0,0:0:0:0:
364,56,160967,1,8,0:0:0:0:
256,104,161459,1,0,0:0:0:0:
148,56,161951,1,8,0:0:0:0:
120,172,162443,6,0,B|102:253|208:297|255:228|254:177|254:177|256:134|260:45|452:72|382:199|382:199,1,480,0|4,0:0|0:0,0:0:0:0:
392,308,164902,1,8,0:0:0:0:
276,332,165393,1,0,0:0:0:0:
156,348,165885,1,8,0:0:0:0:
182,228,166377,6,0,B|252:211|298:147|292:90|216:52|160:121|181:175|252:211|322:195,1,360,0|8,0:0|0:0,0:0:0:0:
388,96,168344,1,0,0:0:0:0:
500,140,168836,1,8,0:0:0:0:
500,260,169328,1,0,0:0:0:0:
388,308,169820,1,8,0:0:0:0:
440,200,170311,6,0,B|427:158|384:144|327:158|356:200|342:256|272:242|257:200|257:200|243:242|173:256|159:200|187:158|131:144|88:158|74:200,1,480,8|4,0:0|0:0,0:0:0:0:
148,296,172770,1,8,0:0:0:0:
256,352,173262,1,0,0:0:0:0:
364,296,173754,1,8,0:0:0:0:
356,176,174246,6,0,B|303:157|303:100|303:100|308:53|256:24|203:53|208:100|208:100|208:157|156:176,1,360,0|8,0:0|0:0,0:0:0:0:
103,288,176213,6,0,B|107:326|141:348|179:348|179:348|256:348|325:348|325:348|363:348|397:326|401:288,1,360,0|8,0:0|0:0,0:0:0:0:
316,204,178180,1,0,0:0:0:0:
196,204,178672,1,8,0:0:0:0:
256,100,179164,2,0,L|376:100,1,120,0|8,0:0|0:0,0:0:0:0:
377,220,180147,6,0,B|330:196|267:261|374:330|256:392|139:330|246:261|180:195|128:220,1,360,4|8,0:0|0:0,0:0:0:0:
316,72,182606,1,8,0:0:0:0:
196,72,183098,1,0,0:0:0:0:
252,176,183590,1,8,0:0:0:0:
424,344,184574,5,8,0:0:0:0:
304,344,185066,1,0,0:0:0:0:
364,240,185557,1,8,0:0:0:0:
256,192,186049,12,4,188016,0:0:0:0:
