osu file format v12

[General]
AudioFilename: Train - Drive By --- HQ!!!.mp3
AudioLeadIn: 0
PreviewTime: 36541
Countdown: 0
SampleSet: Normal
StackLeniency: 0.7
Mode: 0
LetterboxInBreaks: 1

[Editor]
DistanceSpacing: 1.1
BeatDivisor: 4
GridSize: 4

[Metadata]
Title:Drive By
TitleUnicode:Drive By
Artist:Train
ArtistUnicode:Train
Creator:Kyshiro
Version:Exquisite
Source:
Tags:HellDawn California 37
BeatmapID:197199
BeatmapSetID:68040

[Difficulty]
HPDrainRate:6
CircleSize:4
OverallDifficulty:6
ApproachRate:7
SliderMultiplier:2.2
SliderTickRate:2

[Events]
//Background and Video events
0,0,"886919752823.jpg",0,0
//Break Periods
//Storyboard Layer 0 (Background)
//Storyboard Layer 1 (Fail)
//Storyboard Layer 2 (Pass)
//Storyboard Layer 3 (Foreground)
//Storyboard Sound Samples
//Background Colour Transformations
3,100,163,162,255

[TimingPoints]
1132,491.803278688525,4,2,0,65,1,0
36541,-83.3333333333333,4,1,0,65,0,1
60025,-83.3333333333333,4,1,0,65,0,0
60148,-83.3333333333333,4,1,0,65,0,1
69000,-100,4,2,0,60,0,0
101459,-83.3333333333333,4,1,0,65,0,1
124943,-83.3333333333333,4,1,0,65,0,0
125066,-83.3333333333333,4,1,0,65,0,1
132935,-133.333333333333,4,2,0,50,0,0
148672,-100,4,2,0,60,0,0
156541,-83.3333333333333,4,1,0,65,0,1
188017,-83.3333333333333,4,2,0,65,0,0

[Colours]
Combo1 : 196,26,26
Combo2 : 84,172,19
Combo3 : 225,158,19

[HitObjects]
184,116,5066,2,0,P|192:172|160:220,1,110,0|2,0:0|0:0,0:0:0:0:
101,344,5558,2,0,P|201:308|257:320,1,165,0|2,0:0|0:0,0:0:0:0:
280,336,6050,2,0,P|276:272|312:240,1,110,0|2,0:0|0:0,0:0:0:0:
428,196,6542,2,0,P|472:116|392:32,1,220,0|0,0:0|0:0,0:0:0:0:
336,124,7280,6,0,L|284:160,2,55,0|2|0,0:0|0:0|0:0,0:0:0:0:
232,84,7771,1,2,0:0:0:0:
160,168,8017,1,0,0:0:0:0:
220,260,8263,1,2,0:0:0:0:
328,236,8509,1,0,0:0:0:0:
264,324,8755,2,0,P|204:336|152:296,1,110,2|0,0:0|0:0,0:0:0:0:
72,224,9247,6,0,P|24:260|0:316,2,110,2|0|2,0:0|0:0|0:0,0:0:0:0:
192,168,9985,2,0,P|120:144|64:16,1,220,0|0,0:0|0:0,0:0:0:0:
192,40,10722,1,2,0:0:0:0:
296,124,10968,1,0,0:0:0:0:
316,256,11214,6,0,P|344:312|392:336,2,110,2|0|0,0:0|0:0|0:0,0:0:0:0:
316,239,11829,2,0,P|340:183|392:155,1,110,2|0,0:0|0:0,0:0:0:0:
396,155,12197,2,0,P|455:177|485:224,1,110,2|0,0:0|0:0,0:0:0:0:
492,344,12689,1,2,0:0:0:0:
256,328,13181,5,2,0:0:0:0:
200,220,13427,2,0,P|144:152|72:124,1,165,0|2,0:0|0:0,0:0:0:0:
56,124,13919,2,0,P|116:104|148:60,2,110,0|2|0,0:0|0:0|0:0,0:0:0:0:
52,24,14657,1,0,0:0:0:0:
284,148,15148,5,2,0:0:0:0:
372,248,15394,2,0,P|432:200|408:116,1,165,0|2,0:0|0:0,0:0:0:0:
404,112,15886,2,0,P|376:60|384:12,2,110,0|2|0,0:0|0:0|0:0,0:0:0:0:
480,48,16624,1,0,0:0:0:0:
492,148,16870,1,0,0:0:0:0:
468,244,17116,6,0,P|404:320|288:304,1,220,2|0,0:0|0:0,0:0:0:0:
172,272,17853,2,0,P|236:196|352:212,1,220,2|0,0:0|0:0,0:0:0:0:
292,308,18591,1,2,0:0:0:0:
208,376,18837,1,0,0:0:0:0:
108,332,19083,6,0,P|60:288|48:240,1,110,2|0,0:0|0:0,0:0:0:0:
152,204,19575,2,0,P|154:138|183:98,1,110,2|0,0:0|0:0,0:0:0:0:
284,136,20067,2,0,P|335:96|385:92,1,110,2|0,0:0|0:0,0:0:0:0:
408,196,20558,1,0,0:0:0:0:
280,232,20804,6,0,P|204:188|224:60,1,220,2|8,0:0|0:0,0:0:0:0:
284,136,21542,1,0,0:0:0:0:
280,232,21788,2,0,P|180:256|96:168,1,220,2|8,0:0|0:0,0:0:0:0:
196,128,22526,2,0,P|144:80|88:76,1,110
16,132,23017,5,2,0:0:0:0:
4,240,23263,2,0,P|16:300|60:348,1,110,8|0,0:0|0:0,0:0:0:0:
160,324,23755,2,0,P|184:248|248:280,1,165,0|2,0:0|0:0,0:0:0:0:
268,274,24247,2,0,P|350:239|382:341,1,220,8|0,0:0|0:0,0:0:0:0:
284,168,24985,6,0,P|344:160|408:184,1,110,2|8,0:0|0:0,0:0:0:0:
476,260,25476,1,0,0:0:0:0:
448,128,25722,2,0,P|344:88|224:120,1,220,2|8,0:0|0:0,0:0:0:0:
172,212,26460,2,0,P|160:152|120:120,1,110,2|0,0:0|0:0,0:0:0:0:
92,240,26952,6,0,P|104:300|144:332,1,110,2|8,0:0|0:0,0:0:0:0:
256,296,27444,1,2,0:0:0:0:
336,208,27689,2,0,P|416:188|444:308,1,220,0|8,0:0|0:0,0:0:0:0:
344,356,28427,2,0,P|288:332|256:296,1,110,2|0,0:0|0:0,0:0:0:0:
256,140,28919,5,2,0:0:0:0:
164,196,29165,2,0,P|104:200|64:168,1,110,8|0,0:0|0:0,0:0:0:0:
136,112,29657,2,0,P|216:24|324:44,1,220,2|8,0:0|0:0,0:0:0:0:
356,132,30394,2,0,P|392:84|440:76,1,110,2|0,0:0|0:0,0:0:0:0:
460,184,30886,5,2,0:0:0:0:
472,292,31132,1,8,0:0:0:0:
372,252,31378,1,2,0:0:0:0:
264,236,31624,2,0,P|200:232|144:260,1,110
56,332,32116,2,0,P|84:256|24:132,1,220,8|0,0:0|0:0,0:0:0:0:
156,176,32853,5,2,0:0:0:0:
232,220,33099,1,8,0:0:0:0:
320,208,33345,1,2,0:0:0:0:
364,132,33591,1,0,0:0:0:0:
344,44,33837,1,2,0:0:0:0:
404,208,34329,5,0,0:0:0:0:
260,104,34821,1,2,0:0:0:0:
420,36,35312,1,0,0:0:0:0:
468,320,35804,5,0,0:0:0:0:
416,320,36050,1,8,0:0:0:0:
372,296,36296,1,0,0:0:0:0:
352,248,36542,6,0,P|296:204|236:204,1,131.99999597168,4|0,0:0|0:0,0:0:0:0:
92,212,37034,2,0,P|158:185|188:133,1,131.99999597168,8|0,0:0|0:0,0:0:0:0:
96,24,37526,2,0,P|180:108|312:72,1,263.99999194336,0|8,0:0|0:0,0:0:0:0:
188,32,38263,1,0,0:0:0:0:
100,148,38509,1,0,0:0:0:0:
196,256,38755,1,0,0:0:0:0:
324,184,39001,6,0,P|396:164|448:192,1,131.99999597168,8|0,0:0|0:0,0:0:0:0:
328,276,39493,2,0,P|252:244|248:128,1,197.99999395752
247,132,39985,2,0,P|303:92|363:104,1,131.99999597168,8|0,0:0|0:0,0:0:0:0:
232,44,40476,2,0,P|160:40|96:20,1,131.99999597168
164,156,40968,5,8,0:0:0:0:
120,296,41214,1,0,0:0:0:0:
256,244,41460,1,0,0:0:0:0:
392,296,41706,1,0,0:0:0:0:
348,156,41952,2,0,P|336:100|384:40,1,131.99999597168,8|0,0:0|0:0,0:0:0:0:
428,180,42444,6,0,P|376:236|268:180,1,197.99999395752
272,188,42935,2,0,P|170:148|118:204,1,197.99999395752,8|0,0:0|0:0,0:0:0:0:
118,214,43427,2,0,P|86:282|42:326,2,131.99999597168,8|8|0,0:0|0:0|0:0,0:0:0:0:
128,72,44165,2,0,P|204:92|256:72,1,131.99999597168,8|4,0:0|0:0,0:0:0:0:
384,48,44657,5,0,0:0:0:0:
300,156,44903,2,0,P|288:232|332:288,1,131.99999597168,8|0,0:0|0:0,0:0:0:0:
452,320,45394,2,0,P|356:296|256:328,1,197.99999395752,0|0,0:0|0:0,0:0:0:0:
256,328,45886,2,0,P|163:355|67:331,1,197.99999395752,8|0,0:0|0:0,0:0:0:0:
59,325,46378,6,0,P|19:281|23:209,2,131.99999597168,0|0|8,0:0|0:0|0:0,0:0:0:0:
144,228,47116,1,0,0:0:0:0:
208,112,47362,2,0,P|336:80|420:168,2,263.99999194336,0|8|0,0:0|0:0|0:0,0:0:0:0:
200,264,48591,6,0,P|256:236|300:184,1,131.99999597168,0|8,0:0|0:0,0:0:0:0:
314,311,49083,2,0,P|294:251|301:183,1,131.99999597168
420,100,49575,1,0,0:0:0:0:
460,240,49821,2,0,P|352:224|280:88,1,263.99999194336,8|8,0:0|0:0,0:0:0:0:
139,54,50558,5,0,0:0:0:0:
91,191,50804,1,8,0:0:0:0:
230,234,51050,1,0,0:0:0:0:
279,98,51296,1,8,0:0:0:0:
417,54,51542,1,8,0:0:0:0:
465,191,51788,1,0,0:0:0:0:
326,234,52034,1,8,0:0:0:0:
279,98,52280,6,0,P|204:48|120:176,1,263.99999194336,4|8,0:0|0:0,0:0:0:0:
240,236,53017,1,0,0:0:0:0:
364,164,53263,2,0,P|384:88|360:32,1,131.99999597168
242,113,53755,2,0,P|222:189|246:245,1,131.99999597168,8|0,0:0|0:0,0:0:0:0:
303,284,54247,5,0,0:0:0:0:
382,287,54493,1,0,0:0:0:0:
451,248,54739,1,8,0:0:0:0:
482,175,54985,1,0,0:0:0:0:
468,97,55230,1,0,0:0:0:0:
405,47,55476,1,0,0:0:0:0:
326,37,55722,1,8,0:0:0:0:
256,148,55968,5,0,0:0:0:0:
256,148,56091,1,0,0:0:0:0:
256,148,56214,2,0,P|176:152|148:112,1,131.99999597168
0,160,56706,2,0,P|80:156|108:196,1,131.99999597168,8|0,0:0|0:0,0:0:0:0:
144,320,57198,2,0,P|264:348|336:236,2,263.99999194336,0|8|0,0:0|0:0|0:0,0:0:0:0:
212,208,58427,6,0,P|200:124|160:100,1,131.99999597168,0|8,0:0|0:0,0:0:0:0:
36,128,58919,1,0,0:0:0:0:
128,28,59165,2,0,P|232:56|292:192,1,263.99999194336,0|8,0:0|0:0,0:0:0:0:
264,312,59903,5,0,0:0:0:0:
264,312,60026,1,0,0:0:0:0:
264,312,60148,2,0,P|332:276|384:296,1,131.99999597168,4|0,0:0|0:0,0:0:0:0:
500,344,60640,2,0,P|432:380|380:360,1,131.99999597168,8|0,0:0|0:0,0:0:0:0:
224,248,61132,2,0,P|308:204|408:224,1,197.99999395752
413,229,61624,2,0,P|408:157|448:111,1,131.99999597168,8|0,0:0|0:0,0:0:0:0:
503,193,62116,1,0,0:0:0:0:
348,120,62362,5,0,0:0:0:0:
348,120,62485,1,0,0:0:0:0:
348,120,62607,2,0,P|268:100|216:104,1,131.99999597168,8|0,0:0|0:0,0:0:0:0:
132,212,63099,2,0,P|176:140|44:32,1,263.99999194336,0|8,0:0|0:0,0:0:0:0:
16,148,63837,1,0,0:0:0:0:
64,272,64083,2,0,P|132:304|192:276,1,131.99999597168
336,240,64575,6,0,P|268:208|208:236,1,131.99999597168,8|0,0:0|0:0,0:0:0:0:
268,348,65067,1,0,0:0:0:0:
400,332,65312,1,0,0:0:0:0:
468,216,65558,2,0,P|420:112|336:100,1,197.99999395752,8|0,0:0|0:0,0:0:0:0:
336,100,66050,2,0,P|212:104|76:48,1,263.99999194336,0|8,0:0|0:0,0:0:0:0:
108,156,66788,5,0,0:0:0:0:
148,224,67034,1,8,0:0:0:0:
108,292,67280,1,8,0:0:0:0:
28,296,67526,1,0,0:0:0:0:
64,224,67771,1,8,0:0:0:0:
28,152,68017,1,4,0:0:0:0:
296,232,69001,5,4,0:0:0:0:
144,112,69985,6,0,P|196:76|212:32,2,110,0|2|8,0:0|0:0|0:0,0:0:0:0:
16,84,70722,1,0,0:0:0:0:
84,196,70968,2,0,P|188:240|280:184,1,220,2|8,0:0|0:0,0:0:0:0:
332,72,71706,1,0,0:0:0:0:
416,172,71952,1,0,0:0:0:0:
332,276,72198,6,0,P|316:336|352:364,2,110,2|8|0,0:0|0:0|0:0,0:0:0:0:
339,270,72812,2,0,P|363:210|299:138,1,165,2|0,0:0|0:0,0:0:0:0:
184,188,73427,1,8,0:0:0:0:
124,72,73673,1,0,0:0:0:0:
244,20,73919,1,0,0:0:0:0:
187,114,74165,5,2,0:0:0:0:
187,114,74288,2,0,P|137:145|83:134,1,110,8|0,0:0|0:0,0:0:0:0:
144,240,74780,1,2,0:0:0:0:
144,240,74903,2,0,P|175:290|164:344,1,110,8|0,0:0|0:0,0:0:0:0:
240,256,75394,2,0,P|304:188|424:208,1,220,8|0,0:0|0:0,0:0:0:0:
348,288,76132,5,2,0:0:0:0:
316,68,76624,1,2,0:0:0:0:
96,96,77116,1,2,0:0:0:0:
128,316,77608,1,2,0:0:0:0:
204,272,77853,5,0,0:0:0:0:
204,272,77976,1,0,0:0:0:0:
204,272,78099,2,0,P|228:208|212:172,1,110,0|8,0:0|0:0,0:0:0:0:
96,96,78591,1,2,0:0:0:0:
96,96,78714,2,0,P|184:88|240:24,1,165,0|2,0:0|0:0,0:0:0:0:
244,36,79206,2,0,P|295:88|383:96,1,165,0|2,0:0|0:0,0:0:0:0:
340,12,79821,1,0,0:0:0:0:
272,160,80067,5,2,0:0:0:0:
404,176,80312,2,0,P|464:208|396:312,1,220,8|0,0:0|0:0,0:0:0:0:
276,280,81050,2,0,P|308:232|368:260,2,110,2|8|2,0:0|0:0|0:0,0:0:0:0:
368,376,81788,1,0,0:0:0:0:
464,284,82034,5,2,0:0:0:0:
392,172,82280,2,0,P|308:148|204:224,1,220,8|0,0:0|0:0,0:0:0:0:
160,344,83017,2,0,P|120:280|80:268,2,110,2|8|2,0:0|0:0|0:0,0:0:0:0:
56,372,83755,1,0,0:0:0:0:
24,240,84001,5,2,0:0:0:0:
192,28,84493,1,2,0:0:0:0:
428,144,84985,1,2,0:0:0:0:
272,356,85477,1,2,0:0:0:0:
184,260,85722,6,0,P|192:184|312:196,1,220,0|8,0:0|0:0,0:0:0:0:
368,312,86460,1,2,0:0:0:0:
384,180,86706,2,0,P|324:104|192:96,1,220,0|8,0:0|0:0,0:0:0:0:
100,332,87689,5,0,0:0:0:0:
224,284,87935,1,2,0:0:0:0:
120,200,88181,2,0,P|60:180|16:200,1,110,8|2,0:0|0:0,0:0:0:0:
132,124,88673,2,0,P|244:112|308:28,2,220,0|8|0,0:0|0:0|0:0,0:0:0:0:
12,68,89903,5,2,0:0:0:0:
80,180,90148,2,0,P|104:232|100:292,1,110,8|2,0:0|0:0,0:0:0:0:
4,372,90640,2,0,P|120:316|228:316,1,220,0|8,0:0|0:0,0:0:0:0:
340,332,91378,2,0,P|292:296|264:244,1,110,2|0,0:0|0:0,0:0:0:0:
240,180,91870,5,2,0:0:0:0:
280,112,92116,1,8,0:0:0:0:
356,124,92362,1,2,0:0:0:0:
380,196,92607,1,0,0:0:0:0:
453,217,92853,1,2,0:0:0:0:
505,160,93099,1,8,0:0:0:0:
482,86,93345,1,2,0:0:0:0:
407,65,93591,1,0,0:0:0:0:
334,39,93837,6,0,L|374:-1,2,55,2|0|8,0:0|0:0|0:0,0:0:0:0:
208,32,94329,1,2,0:0:0:0:
276,144,94575,2,0,P|256:256|168:252,1,220,0|8,0:0|0:0,0:0:0:0:
60,136,95312,2,0,P|124:112|164:140,1,110,2|0,0:0|0:0,0:0:0:0:
84,268,95804,5,2,0:0:0:0:
148,328,96050,1,8,0:0:0:0:
236,344,96296,1,2,0:0:0:0:
316,308,96542,1,0,0:0:0:0:
364,232,96788,1,2,0:0:0:0:
364,144,97034,1,8,0:0:0:0:
84,156,97526,6,0,P|144:152|184:124,1,110,0|2,0:0|0:0,0:0:0:0:
304,188,98017,2,0,P|244:192|204:220,1,110,8|0,0:0|0:0,0:0:0:0:
188,308,98509,1,0,0:0:0:0:
268,340,98755,1,2,0:0:0:0:
352,308,99001,1,8,0:0:0:0:
376,224,99247,1,0,0:0:0:0:
208,172,99739,1,2,0:0:0:0:
268,340,100230,1,0,0:0:0:0:
252,36,100722,6,0,L|192:52,1,55,8|8,3:0|0:3,0:0:0:0:
272,68,100968,2,0,L|236:118,1,55,8|8,0:3|3:0,0:0:0:0:
308,80,101214,2,0,L|313:141,1,55,8|8,3:3|3:0,0:0:0:0:
316,168,101460,6,0,P|280:244|120:208,1,263.99999194336,4|8,0:0|0:0,0:0:0:0:
164,80,102198,1,0,0:0:0:0:
304,40,102444,2,0,P|384:56|424:220,1,263.99999194336,0|8,0:0|0:0,0:0:0:0:
348,336,103181,1,0,0:0:0:0:
312,196,103427,2,0,L|292:132,2,65.9999979858399
232,320,103919,6,0,P|160:340|120:288,1,131.99999597168,8|0,0:0|0:0,0:0:0:0:
208,184,104411,2,0,P|164:96|24:144,1,263.99999194336,0|8,0:0|0:0,0:0:0:0:
52,280,105148,1,0,0:0:0:0:
196,256,105394,1,0,0:0:0:0:
308,164,105640,1,0,0:0:0:0:
396,280,105886,6,0,P|460:300|516:264,1,131.99999597168,8|0,0:0|0:0,0:0:0:0:
368,184,106378,2,0,P|304:164|248:200,1,131.99999597168
168,336,106870,2,0,P|220:228|176:176,1,197.99999395752,8|0,0:0|0:0,0:0:0:0:
172,172,107361,2,0,P|128:120|180:16,1,197.99999395752,0|0,0:0|0:0,0:0:0:0:
180,16,107853,5,8,0:0:0:0:
256,156,108099,1,0,0:0:0:0:
332,16,108345,1,8,0:0:0:0:
408,156,108591,1,8,0:0:0:0:
332,296,108837,1,0,0:0:0:0:
180,296,109083,1,8,0:0:0:0:
104,156,109329,1,4,0:0:0:0:
432,88,109821,6,0,P|476:140|464:200,1,131.99999597168,8|0,0:0|0:0,0:0:0:0:
368,320,110312,2,0,P|256:260|144:320,2,263.99999194336,0|8|0,0:0|0:0|0:0,0:0:0:0:
300,192,111542,2,0,P|296:120|348:96,1,131.99999597168,0|8,0:0|0:0,0:0:0:0:
388,232,112034,1,0,0:0:0:0:
260,300,112280,2,0,P|128:276|64:168,1,263.99999194336,0|8,0:0|0:0,0:0:0:0:
312,52,113263,6,0,P|236:68|192:40,1,131.99999597168
292,152,113755,2,0,P|368:136|412:164,1,131.99999597168,8|0,0:0|0:0,0:0:0:0:
216,144,114247,2,0,P|140:160|96:132,1,131.99999597168
196,244,114739,2,0,P|272:228|316:256,1,131.99999597168,8|0,0:0|0:0,0:0:0:0:
388,352,115230,5,8,0:0:0:0:
444,232,115476,1,0,0:0:0:0:
368,124,115722,1,8,0:0:0:0:
256,52,115968,1,0,0:0:0:0:
144,124,116214,1,8,0:0:0:0:
68,232,116460,1,8,0:0:0:0:
124,352,116706,1,0,0:0:0:0:
256,340,116952,1,8,0:0:0:0:
256,208,117198,1,4,0:0:0:0:
460,44,117689,6,0,P|484:116|424:148,1,131.99999597168,8|0,0:0|0:0,0:0:0:0:
308,68,118181,2,0,P|212:64|156:148,1,197.99999395752
156,148,118673,2,0,P|100:224|4:220,1,197.99999395752,8|0,0:0|0:0,0:0:0:0:
0,212,119165,5,0,0:0:0:0:
20,136,119411,1,0,0:0:0:0:
72,76,119657,1,8,0:0:0:0:
144,44,119903,1,0,0:0:0:0:
224,44,120148,1,0,0:0:0:0:
296,76,120394,1,0,0:0:0:0:
348,136,120640,1,8,0:0:0:0:
367,212,120886,2,0,P|374:241|380:280,2,65.9999979858399
248,172,121378,6,0,P|188:192|164:252,1,131.99999597168,0|8,0:0|0:0,0:0:0:0:
248,256,121870,1,0,0:0:0:0:
88,260,122116,2,0,P|136:140|256:100,1,263.99999194336,0|8,0:0|0:0,0:0:0:0:
312,220,122853,1,0,0:0:0:0:
436,268,123099,6,0,P|480:216|468:152,1,131.99999597168
340,148,123591,2,0,P|296:95|231:96,1,131.99999597168,8|0,0:0|0:0,0:0:0:0:
228,228,124083,2,0,P|168:261|158:326,1,131.99999597168
288,320,124575,1,8,0:0:0:0:
408,264,124821,5,0,0:0:0:0:
408,264,124944,1,0,0:0:0:0:
408,264,125067,2,0,P|436:200|364:100,1,197.99999395752,4|0,0:0|0:0,0:0:0:0:
361,99,125558,2,0,P|285:91|217:115,1,131.99999597168,8|0,0:0|0:0,0:0:0:0:
72,192,126050,2,0,P|116:108|-8:32,1,263.99999194336,0|8,0:0|0:0,0:0:0:0:
0,168,126788,1,0,0:0:0:0:
136,232,127034,2,0,P|176:172|188:112,1,131.99999597168
72,192,127526,6,0,P|32:252|20:312,1,131.99999597168,8|0,0:0|0:0,0:0:0:0:
148,284,128017,2,0,P|272:276|376:368,1,263.99999194336,0|8,0:0|0:0,0:0:0:0:
452,256,128755,1,0,0:0:0:0:
488,128,129001,1,0,0:0:0:0:
360,92,129247,1,0,0:0:0:0:
324,220,129493,6,0,P|252:220|224:172,1,131.99999597168,8|0,0:0|0:0,0:0:0:0:
132,40,129985,2,0,P|167:102|140:150,1,131.99999597168
16,272,130476,2,0,P|109:218|181:259,1,197.99999395752,8|0,0:0|0:0,0:0:0:0:
186,266,130968,2,0,P|256:305|349:252,1,197.99999395752
355,243,131460,2,0,L|419:123,1,131.99999597168,8|0,0:0|0:0,0:0:0:0:
256,164,131952,2,0,L|256:32,1,131.99999597168,8|8,0:0|0:0,0:0:0:0:
160,244,132444,2,0,L|96:124,1,131.99999597168,0|8,0:0|0:0,0:0:0:0:
52,196,132935,6,0,B|96:276|96:276|120:320|168:336|236:308|248:260|216:196,1,330.000012588501,0|2,0:0|0:0,0:0:0:0:
188,120,134165,1,0,0:0:0:0:
232,52,134411,1,0,0:0:0:0:
316,56,134657,2,0,P|420:160|256:336,1,412.500015735627,2|2,0:0|0:0,0:0:0:0:
200,124,136378,6,0,P|144:112|112:80,1,82.5000031471254,2|0,0:0|0:0,0:0:0:0:
52,128,136870,2,0,P|148:192|380:52,1,412.500015735627,2|0,0:0|0:0,0:0:0:0:
133,60,138591,2,0,P|364:192|460:128,1,412.500015735627,2|0,0:0|0:0,0:0:0:0:
136,196,140312,6,0,P|96:224|80:272,1,82.5000031471254,2|0,0:0|0:0,0:0:0:0:
164,276,140804,1,2,0:0:0:0:
248,272,141050,2,0,P|304:248|316:148,1,165.000006294251,2|2,0:0|0:0,0:0:0:0:
252,108,141788,1,0,0:0:0:0:
248,192,142034,2,0,L|392:272,2,165.000006294251,2|0|0,0:0|0:0|0:0,0:0:0:0:
252,108,143263,5,2,0:0:0:0:
176,144,143509,2,0,P|120:152|136:20,1,247.500009441376,0|2,0:0|0:0,0:0:0:0:
216,44,144493,2,0,P|288:76|372:60,1,165.000006294251,0|2,0:0|0:0,0:0:0:0:
388,44,145107,6,0,L|416:8,2,41.2500015735627,0|2|0,0:0|0:0|0:0,0:0:0:0:
380,68,145476,2,0,P|404:148|480:184,1,165.000006294251,2|0,0:0|0:0,0:0:0:0:
460,264,146214,1,2,0:0:0:0:
384,236,146460,1,0,0:0:0:0:
304,216,146706,2,0,P|216:208|172:216,1,123.750004720688,2|0,0:0|0:0,0:0:0:0:
172,216,147198,2,0,P|144:220|89:216,2,82.5000031471254,2|0|2,0:0|0:0|0:0,0:0:0:0:
164,84,148673,6,0,L|120:52,2,55,8|2|0,0:0|0:0|0:0,0:0:0:0:
236,168,149165,2,0,P|316:128|392:148,1,165,8|2,0:0|0:0,0:0:0:0:
396,152,149657,2,0,P|384:212|428:240,1,110,8|2,0:0|0:0,0:0:0:0:
484,144,150148,2,0,P|416:80|288:60,1,220,0|8,0:0|0:0,0:0:0:0:
220,140,150886,5,2,0:0:0:0:
160,232,151132,2,0,P|104:240|56:208,1,110,8|2,0:0|0:0,0:0:0:0:
220,140,151624,2,0,P|276:132|324:164,1,110,8|2,0:0|0:0,0:0:0:0:
356,264,152116,2,0,P|344:196|472:204,1,220,8|8,0:0|0:0,0:0:0:0:
468,292,152853,5,2,0:0:0:0:
372,344,153099,2,0,P|312:332|280:288,1,110,8|2,0:0|0:0,0:0:0:0:
184,176,153591,2,0,P|244:188|276:232,2,110,8|2|8,0:0|0:0|0:0,0:0:0:0:
80,212,154329,2,0,P|80:152|36:128,1,110,2|8,0:0|0:0,0:0:0:0:
256,192,154821,12,4,156542,0:0:0:0:
168,112,157034,6,0,P|300:56|368:144,1,263.99999194336,8|0,0:0|0:0,0:0:0:0:
252,200,157771,1,0,0:0:0:0:
188,316,158017,2,0,P|226:352|296:332,1,131.99999597168,8|0,0:0|0:0,0:0:0:0:
252,200,158509,1,0,0:0:0:0:
128,252,158755,1,0,0:0:0:0:
256,276,159001,6,0,P|316:244|328:184,1,131.99999597168,8|0,0:0|0:0,0:0:0:0:
296,56,159493,2,0,P|348:152|500:160,1,263.99999194336,0|8,0:0|0:0,0:0:0:0:
424,52,160230,1,0,0:0:0:0:
296,56,160476,1,0,0:0:0:0:
208,156,160722,1,0,0:0:0:0:
244,284,160968,6,0,P|316:268|336:208,1,131.99999597168,8|0,0:0|0:0,0:0:0:0:
252,100,161460,2,0,P|229:170|271:217,1,131.99999597168
408,200,161952,2,0,P|358:145|296:158,1,131.99999597168,8|0,0:0|0:0,0:0:0:0:
176,260,162444,6,0,P|92:256|140:120,2,263.99999194336,0|8|8,0:0|0:0|0:0,0:0:0:0:
224,136,163673,1,8,0:0:0:0:
348,180,163919,1,0,0:0:0:0:
300,304,164165,1,8,0:0:0:0:
176,260,164411,1,4,0:0:0:0:
256,40,164903,6,0,P|184:36|140:80,1,131.99999597168,8|0,0:0|0:0,0:0:0:0:
140,208,165394,2,0,P|128:108|-16:64,1,263.99999194336,0|8,0:0|0:0,0:0:0:0:
8,192,166132,1,0,0:0:0:0:
60,312,166378,6,0,P|132:328|172:280,1,131.99999597168
256,192,166870,1,8,0:0:0:0:
343,290,167116,2,0,P|380:328|452:312,1,131.99999597168
412,188,167607,1,0,0:0:0:0:
324,88,167853,1,8,0:0:0:0:
188,88,168099,5,0,0:0:0:0:
188,88,168222,1,0,0:0:0:0:
188,88,168345,2,0,P|112:80|80:32,1,131.99999597168
120,160,168837,2,0,P|151:229|125:281,1,131.99999597168,8|0,0:0|0:0,0:0:0:0:
220,188,169329,2,0,P|264:126|322:122,1,131.99999597168,0|0,0:0|0:0,0:0:0:0:
404,220,169821,2,0,P|480:220|472:72,1,263.99999194336,8|8,0:0|0:0,0:0:0:0:
356,132,170558,5,0,0:0:0:0:
256,48,170804,1,8,0:0:0:0:
156,132,171050,1,0,0:0:0:0:
192,260,171296,1,8,0:0:0:0:
320,260,171542,1,8,0:0:0:0:
192,332,171788,1,0,0:0:0:0:
320,332,172034,1,8,0:0:0:0:
256,216,172280,1,4,0:0:0:0:
400,48,172771,6,0,P|320:64|300:112,1,131.99999597168,8|0,0:0|0:0,0:0:0:0:
372,216,173263,2,0,P|264:136|140:152,2,263.99999194336,0|8|0,0:0|0:0|0:0,0:0:0:0:
412,284,174493,5,0,0:0:0:0:
364,348,174739,1,8,0:0:0:0:
300,304,174985,1,0,0:0:0:0:
256,236,175230,1,0,0:0:0:0:
212,304,175476,1,0,0:0:0:0:
148,348,175722,1,8,0:0:0:0:
100,284,175968,1,0,0:0:0:0:
164,236,176214,6,0,P|184:168|148:120,1,131.99999597168
56,36,176706,2,0,P|124:56|180:28,1,131.99999597168,8|0,0:0|0:0,0:0:0:0:
268,124,177198,2,0,P|360:189|496:149,1,263.99999194336,0|8,0:0|0:0,0:0:0:0:
392,68,177935,1,0,0:0:0:0:
260,48,178181,6,0,P|204:84|196:144,1,131.99999597168
116,132,178673,2,0,P|130:196|184:224,1,131.99999597168,8|0,0:0|0:0,0:0:0:0:
148,296,179165,2,0,P|214:304|258:263,1,131.99999597168
316,320,179657,2,0,P|346:260|323:204,1,131.99999597168,8|0,0:0|0:0,0:0:0:0:
204,148,180148,6,0,P|168:76|304:52,2,263.99999194336,4|8|0,0:0|0:0|0:0,0:0:0:0:
336,140,181378,1,0,0:0:0:0:
444,212,181624,2,0,P|448:284|380:288,1,131.99999597168,8|0,0:0|0:0,0:0:0:0:
284,364,182116,2,0,P|280:292|348:288,1,131.99999597168,0|0,0:0|0:0,0:0:0:0:
256,164,182607,5,8,0:0:0:0:
156,248,182853,1,0,0:0:0:0:
88,360,183099,2,0,P|60:232|12:172,1,197.99999395752
31,178,183591,2,0,P|107:158|147:110,1,131.99999597168,8|0,0:0|0:0,0:0:0:0:
220,20,184083,1,0,0:0:0:0:
88,44,184329,1,0,0:0:0:0:
208,100,184575,6,0,P|268:112|336:84,1,131.99999597168,8|0,0:0|0:0,0:0:0:0:
476,148,185067,2,0,P|416:136|348:164,1,131.99999597168,0|0,0:0|0:0,0:0:0:0:
244,244,185558,6,0,P|304:256|368:230,1,131.99999597168,8|0,0:0|0:0,0:0:0:0:
512,292,186050,2,0,P|452:280|387:305,1,131.99999597168,0|0,0:0|0:0,0:0:0:0:
296,372,186542,2,0,P|196:368|144:292,1,197.99999395752,8|0,0:0|0:0,0:0:0:0:
144,284,187034,1,8,0:0:0:0:
160,140,187280,1,8,0:0:0:0:
304,152,187526,1,0,0:0:0:0:
288,296,187772,1,8,0:0:0:0:
224,220,188017,5,4,0:0:0:0:
