osu file format v6

[General]
AudioFilename: 01_tracktor_bowling_shagi_po_steklu.mp3
AudioLeadIn: 0
PreviewTime: -1
Countdown: 1
SampleSet: Soft
StackLeniency: 0.7
Mode: 0
LetterboxInBreaks: 1

[Editor]
DistanceSpacing: 0.800000011920929
BeatDivisor: 6
GridSize: 8

[Metadata]
Title:Shagi po stekly
Artist:Tracktor Bowling
Creator:Slepec
Version:Easy
Source:
Tags:Tracktor Bowling, Shagi po stekly, Slepec

[Difficulty]
HPDrainRate:5
CircleSize:5
OverallDifficulty:5
SliderMultiplier:1.5
SliderTickRate:2

[Events]
//Background and Video events
0,0,"Lou_rabota4.jpg"
//Break Periods
2,42671,55104
2,83671,89271
2,117838,122771
2,227838,231706
//Storyboard Layer 0 (Background)
//Storyboard Layer 1 (Fail)
//Storyboard Layer 2 (Pass)
//Storyboard Layer 3 (Foreground)
//Storyboard Sound Samples
//Background Colour Transformations
3,100,163,162,255

[TimingPoints]
8138,1000,4,2,0,100,1,0

[HitObjects]
128,184,15138,1,0
192,112,15638,1,0
240,176,17638,1,0
296,96,17971,1,0
208,56,18471,1,0
144,128,18971,1,0
200,160,20971,1,0
256,88,21304,1,0
336,160,21804,1,0
288,232,22471,1,0
208,176,23138,1,0
136,128,23471,1,0
192,48,24138,1,0
304,96,24804,1,0
360,128,25138,1,0
288,224,25804,1,0
256,104,27804,1,0
168,80,28638,1,0
248,72,31304,1,0
360,72,31637,1,0
304,152,31971,1,0
304,32,32804,1,0
192,80,34804,1,0
136,136,35138,1,0
200,184,35471,1,0
320,136,36138,1,0
376,72,36804,1,0
440,136,37138,1,0
216,232,37804,1,0
288,152,38471,1,0
288,72,38804,1,0
368,112,39638,1,0
224,168,41638,1,0
160,96,42471,1,0
160,168,56304,6,0,B|264:72|400:168,1,300
232,104,58804,1,0
264,200,59138,1,0
336,128,59471,1,0
160,184,61138,1,0
192,128,61304,1,0
280,160,61804,1,0
336,184,61971,1,0
264,272,62471,1,0
208,272,62638,1,0
136,104,63637,2,0,B|216:56|320:72,1,225
152,248,65638,1,0
256,152,65971,1,0
304,280,66304,1,0
192,192,67971,1,0
160,120,68304,1,0
240,96,68638,1,0
288,160,69304,1,0
352,160,69804,1,0
216,128,72638,1,0
168,176,72804,1,0
264,216,73304,1,0
272,120,74971,1,0
216,160,75138,1,0
264,272,75471,1,0
344,208,75804,1,0
424,136,76138,1,0
408,288,76471,1,0
264,112,77304,2,0,B|200:80|128:80|72:128,1,250
184,120,79471,1,0
144,168,79638,1,0
264,128,80138,1,0
216,216,81804,1,0
168,184,81971,1,0
208,112,82471,1,0
296,96,82971,1,0
384,80,83471,1,0
248,112,90471,5,0
200,200,90971,1,0
272,136,92971,1,0
184,120,93304,1,0
248,232,93638,1,0
344,128,94304,1,0
304,192,96471,1,0
232,136,96638,1,0
304,72,97138,1,0
232,248,97804,1,0
120,96,98304,1,0
192,56,98638,1,0
304,128,99471,1,0
232,200,99971,1,0
328,224,100638,1,0
320,104,101304,2,0,B|264:80,2,125
248,160,103471,1,0
120,232,104138,2,0,B|176:280|224:272|248:248|280:264|304:296|352:224|352:224|368:208,1,300
368,104,106638,1,0
272,64,107138,1,0
272,144,107471,1,0
184,104,108138,1,0
256,96,110138,1,0
320,168,110471,1,0
216,224,110804,1,0
360,256,111471,1,0
368,88,112138,1,0
288,136,112471,1,0
200,80,112804,1,0
176,248,113304,1,0
112,136,113971,1,0
240,192,114471,1,0
328,72,115138,1,0
320,168,117638,1,0
160,112,123971,5,0
296,104,124804,2,0,B|352:168|344:248,1,225
176,192,126638,1,0
256,120,127471,1,0
344,184,128304,2,0,B|304:248|248:232|152:184|144:160|144:112|184:56,1,375
216,128,131304,1,0
176,176,131471,1,0
296,192,132138,1,0
320,136,132304,1,0
432,128,132804,1,0
384,280,133304,1,0
304,280,133638,1,0
208,280,133971,1,0
152,208,134471,1,0
192,160,134638,1,0
256,88,134971,1,0
352,56,135471,1,0
408,88,135804,1,0
352,120,136138,1,0
400,224,136638,1,0
328,272,136971,1,0
208,176,137471,1,0
208,72,137804,1,0
304,104,138304,2,0,B|368:120,2,100
432,64,140138,1,0
288,80,140971,1,0
232,192,141804,1,0
144,104,142638,1,0
88,224,143471,1,0
232,192,144804,1,0
280,112,145304,1,0
272,88,147971,1,0
256,152,148304,1,0
352,112,148638,1,0
200,144,150304,1,0
128,128,150638,1,0
184,72,150971,1,0
264,56,151138,1,0
320,136,151471,1,0
352,232,152138,1,0
296,312,152804,1,0
240,184,154638,1,0
192,72,155138,1,0
264,40,155471,1,0
296,224,156804,1,0
192,184,157138,1,0
160,128,157304,1,0
256,80,157804,1,0
288,56,157971,1,0
400,112,158471,1,0
400,208,158971,1,0
208,112,161471,1,0
120,184,161804,1,0
200,272,162138,1,0
288,200,162471,1,0
360,112,163971,1,0
360,240,164304,1,0
200,112,164638,1,0
200,176,164804,1,0
272,256,165304,1,0
152,160,165971,1,0
224,112,166471,1,0
248,152,168304,1,0
160,104,168804,1,0
120,168,169138,1,0
224,160,170638,1,0
168,200,171138,1,0
280,112,172304,1,0
216,136,172804,2,0,B|160:144|104:176|112:288,1,225
224,224,175138,1,0
192,128,176138,2,0,B|248:80|328:80|368:104|432:72,1,300
280,128,178804,1,0
216,192,179638,1,0
312,168,181138,1,0
168,120,181971,1,0
128,272,182804,1,0
240,128,186471,1,0
176,160,186804,1,0
240,200,187138,1,0
336,96,187638,1,0
240,64,188138,1,0
192,112,188471,1,0
304,184,188971,1,0
256,280,189304,1,0
184,280,189471,1,0
96,192,189804,1,0
176,88,190304,1,0
248,88,190638,1,0
216,200,191138,1,0
176,112,191638,1,0
216,88,191804,1,0
280,208,192304,1,0
392,112,192804,1,0
288,48,193304,1,0
96,104,194971,1,0
240,80,195804,1,0
336,208,196804,1,0
176,200,199804,1,0
208,256,200138,1,0
256,72,201804,1,0
280,184,202471,1,0
208,256,202804,1,0
184,160,203138,1,0
96,88,203638,1,0
216,72,204138,1,0
288,40,204471,1,0
328,152,204971,1,0
376,232,205304,1,0
256,248,205804,1,0
160,168,206471,1,0
208,96,206971,1,0
328,96,207471,1,0
344,200,207971,1,0
280,256,208304,1,0
128,144,208804,1,0
200,88,209138,1,0
296,64,209638,1,0
360,128,209971,1,0
248,256,210471,1,0
176,192,210804,1,0
192,72,211304,1,0
384,96,211804,1,0
424,136,212138,1,0
368,152,212471,1,0
176,144,212971,1,0
208,88,213304,1,0
296,144,213804,1,0
264,288,214304,1,0
208,304,214638,1,0
224,248,214971,1,0
224,96,215471,1,0
264,56,215804,1,0
280,112,216138,1,0
144,192,216638,1,0
104,152,216971,1,0
160,136,217304,1,0
264,88,217804,1,0
320,88,218138,1,0
288,136,218471,1,0
184,200,218971,1,0
256,88,220304,1,0
336,136,220804,1,0
224,232,222471,1,0
160,144,223304,1,0
288,96,223971,1,0
360,184,224471,1,0
224,200,224971,1,0
136,128,225638,1,0
224,48,226138,1,0
272,88,226471,1,0
232,128,226804,1,0
184,88,227138,1,0
296,120,227638,1,0
