osu file format v6

[General]
AudioFilename: Fuwafuwa Time.mp3
AudioLeadIn: 0
PreviewTime: -1
Countdown: 1
SampleSet: Normal
StackLeniency: 0.7
Mode: 0
LetterboxInBreaks: 1

[Editor]
DistanceSpacing: 0.800000011920929
BeatDivisor: 4
GridSize: 32

[Metadata]
Title:Fuwafuwa Time
Artist:Toyosaki Aki, Hikasa Youko, Satou Satomi, Kotobuki Minako
Creator:immolove
Version:Normal
Source:Anime
Tags:Fuwafuwa Time k-on

[Difficulty]
HPDrainRate:5
CircleSize:4
OverallDifficulty:5
SliderMultiplier:1.4
SliderTickRate:1

[Events]
//Background and Video events
Video,0,"fuwafuwa.avi"
//Break Periods
2,31973,42563
2,82763,92520
2,139103,151802
2,223476,229625
//Storyboard Layer 0 (Background)
//Storyboard Layer 1 (Fail)
//Storyboard Layer 2 (Pass)
//Storyboard Layer 3 (Foreground)
//Storyboard Sound Samples
//Background Colour Transformations
3,100,163,162,255

[TimingPoints]
1132.98737803422,333.048250971682,4,1,0,100,1,0

[HitObjects]
32,32,1132,5,0
160,32,1799,1,0
288,32,2465,1,0
416,32,3131,1,0
480,96,3797,1,0
352,96,4463,1,0
224,96,5129,1,0
96,96,5795,1,0
96,96,6461,1,4
96,352,7127,1,4
224,352,7793,1,4
352,352,8460,1,4
480,352,9126,1,4
416,288,9792,1,4
288,288,10458,1,4
160,288,11124,1,4
32,288,11790,2,4,B|32:128,1,140
128,160,12456,2,0,B|288:160,2,140
352,160,13455,1,0
352,160,13788,1,0
288,96,14121,5,0
288,288,14787,1,0
192,288,15121,2,0,B|64:96|160:64|224:-96,1,280
224,32,16453,6,0,B|384:32,1,140
448,32,17119,1,4
448,128,17452,2,0,B|160:128,2,280
448,128,19450,1,4
448,224,19783,6,4,B|288:224,4,140
480,96,21781,6,4,B|32:96,1,420
96,192,23114,5,0
288,192,23780,1,0
416,96,24446,6,4,B|96:96,1,280
384,192,25778,5,0
192,192,26444,1,0
96,128,27110,6,4,B|224:64|352:64|416:64|480:160|480:192,2,420
416,224,29442,5,4
288,224,30108,1,4
160,224,30774,1,4
256,192,31773,5,0
256,64,43763,5,0
256,288,44762,1,0
256,224,45095,5,0
256,64,45761,1,8
256,64,46094,5,0
160,96,46427,6,0,B|96:160|160:288|160:288|128:224,1,140
192,288,47093,1,0
256,160,47759,1,2
256,192,48425,12,2,51090
64,64,51423,6,2,B|32:160|64:256|128:320|224:320|288:320|384:288|416:256|448:192|448:128|416:64|384:64,1,700
320,64,53421,1,4
224,96,54420,6,4,B|160:32|96:32|32:96|32:192|64:256|192:320|256:352|256:352|384:288|416:224|448:128|416:64|384:32|320:0|288:64|256:64|192:128|256:128,1,980
256,192,57085,12,4,58417
64,96,59083,6,0,B|512:96,1,420
480,96,60415,1,2
480,96,61081,1,4
480,96,61747,1,4
256,32,62413,5,4
128,96,63079,1,4
96,224,63746,1,4
192,320,64412,1,4
320,288,65078,1,4
384,160,65744,1,4
288,32,66410,1,4
128,64,67076,1,4
96,192,67742,1,4
192,288,68408,1,4
320,256,69074,1,4
352,128,69740,1,4
256,32,70407,1,4
128,64,71073,1,4
160,192,71739,5,8
320,192,72405,5,8
256,96,73071,2,0,B|256:256,1,140
128,64,73737,5,0
96,128,74070,6,0,B|32:192|96:256,1,140
160,288,74736,1,0
160,192,75069,2,0,B|96:64|256:32,1,140
256,64,75735,1,4
288,128,76068,6,0,B|384:160|416:288|288:352,2,280
256,64,77734,5,0
256,64,78067,1,0
224,128,78400,6,0,B|64:256|256:352,2,280
256,160,80065,5,0
256,160,80398,1,0
256,160,80731,2,0,B|416:160,1,140
480,160,81397,1,0
480,256,81730,2,0,L|320:256,1,140
256,256,82396,1,0
256,256,82563,1,4
256,192,93720,5,0
256,192,94386,2,0,B|128:256|0:128,2,280
256,128,96384,6,0,B|416:128,2,140
192,128,97383,6,0,B|32:128,2,140
256,128,98383,6,0,B|256:224|192:320|96:352|32:288|0:256|-32:224|0:192,1,420
0,128,99715,5,0
64,128,100048,2,0,B|352:128,3,280
256,64,102379,6,0,B|384:64|416:192|384:256|384:320|224:384|96:288|96:192|96:128|224:64,1,700
160,32,104377,2,0,B|320:32,2,140
256,64,105377,5,0
192,96,105710,2,0,B|96:160|256:288,1,140
256,288,106376,1,4
256,288,106709,5,0
320,224,107042,2,0,B|416:128|224:32,1,140
256,64,107708,1,4
128,160,108041,6,0,B|416:160,2,280
128,160,109706,5,0
128,160,110039,1,0
128,160,110372,5,0
64,128,110927,6,4,B|192:64|320:64|448:192,1,350
192,192,112371,5,0
192,192,112704,1,0
192,256,113037,2,0,B|480:256,1,280
96,224,114147,1,4
64,160,114369,1,4
256,64,115035,5,0
320,128,115368,2,0,B|320:288,1,140
256,320,116034,1,2
192,256,116367,6,0,B|192:96,1,140
256,64,117033,1,4
96,96,117699,5,2
96,96,118032,1,2
96,160,118365,6,2,B|512:160,2,280
160,96,120364,5,2
160,96,120697,1,2
128,160,121030,6,0,B|288:160,2,140
256,160,122362,2,0,B|224:256|160:288|64:256|32:224|0:160|32:96|96:32|96:64,1,420
192,64,123750,5,4
192,128,124416,1,4
192,192,125082,1,4
192,256,125748,1,4
192,320,126414,1,4
288,320,127080,1,4
384,320,127746,1,4
480,320,128412,1,4
480,224,129079,1,4
480,128,129745,1,4
480,32,130411,1,4
384,32,131077,1,4
384,128,131743,1,4
384,128,132409,1,4
384,224,133075,1,4
384,224,133741,1,4
288,224,134407,1,4
288,224,135073,1,4
288,128,135739,1,2
224,32,136406,6,0,B|128:64|32:160|64:192|128:320|160:352|256:352|320:352|384:288|416:224|480:160|384:96|384:32|288:32,1,840
224,32,138903,5,2
256,192,153002,12,0,157166
416,64,158331,6,0,L|64:64|0:64,2,350
480,128,161245,6,0,B|448:256|352:288|128:160,1,420
64,128,162661,1,4
64,128,163077,1,4
128,64,163743,6,0,B|416:64,1,280
128,160,164992,6,0,B|416:160,1,280
64,224,166491,1,4
256,192,166991,12,4,168323
256,64,168989,6,0,B|352:96|416:160|384:256|384:320|288:320|160:320|96:256|64:192|128:96|192:64|288:64,1,700
256,128,171709,5,0
256,128,172763,1,0
256,128,173762,1,0
256,32,174540,6,0,B|448:32|448:256|384:224|448:256|256:416|160:416|0:192|96:64|128:96|160:64|160:64,1,746.666666666667
160,192,176982,5,8
320,192,177815,5,8
160,192,178481,5,8
320,192,179147,5,8
160,192,179813,5,8
320,192,180479,5,8
160,64,181978,6,0,B|256:160|64:160|128:288|224:288|224:320,1,280
288,320,183143,1,0
288,320,183809,1,0
288,320,184476,1,0
288,320,185142,1,0
448,320,185808,5,0
448,320,186474,1,0
448,320,187140,1,0
448,320,187806,1,12
352,320,188306,2,0,B|256:320|160:320|96:320|96:224|128:160|224:160|288:192|352:192|384:160|384:96|352:32|288:32|192:32|128:32|64:64|64:96,2,770
96,96,193135,5,4
160,96,193468,6,0,B|448:96,2,280
64,96,195466,5,8
64,192,195799,2,8,B|160:288|256:288|352:256|320:256,1,280
192,192,196798,5,0
320,192,197131,1,4
320,288,197631,6,0,B|96:288,3,210
128,192,199796,5,0
224,192,200129,1,0
320,192,200462,1,0
384,160,201294,6,2,B|288:64|160:32|96:64|64:128|32:192|32:288|96:352|224:352|288:320|352:288|384:224|352:256,1,746.666666666667
448,160,203626,6,8,B|32:160,1,373.333333333333
192,64,205125,1,8
320,64,205624,1,10
256,192,205957,12,14,207789
64,96,208288,6,0,B|288:96,1,210
352,96,209177,1,2
352,192,209732,1,2
256,192,210453,5,0
256,192,210953,2,0,B|256:32,1,140
32,64,211786,5,4
160,64,212452,1,4
288,64,213118,1,4
416,64,213784,1,4
480,128,214450,1,4
416,128,215116,1,4
288,128,215782,1,4
160,128,216448,1,4
32,128,217114,1,4
32,224,217780,1,4
96,320,218446,1,4
224,320,219113,1,4
352,320,219779,1,4
480,320,220445,1,4
384,192,221111,5,0
128,192,221777,5,0
256,192,222110,12,4,223276
256,192,230825,5,0
