osu file format v9

[General]
AudioFilename: UtauyoMIRACLEEuro-mix.mp3
AudioLeadIn: 500
PreviewTime: 53583
Countdown: 0
SampleSet: Normal
StackLeniency: 0.7
Mode: 0
LetterboxInBreaks: 1
SkinPreference:Default
EpilepsyWarning: 1

[Editor]
Bookmarks: 26834,53583,77360,89249,115998,139775,159094,184357,185843,215936
DistanceSpacing: 1
BeatDivisor: 4
GridSize: 8

[Metadata]
Title:Utauyo!!MIRACLE Euro-mix
Artist:Toyosaki Aki
Creator:indyinyou
Version:Cross Collab
Source:K-on!!
Tags:Hirasawa Yui regenz

[Difficulty]
HPDrainRate:7
CircleSize:4
OverallDifficulty:7
ApproachRate:9
SliderMultiplier:1.8
SliderTickRate:1

[Events]
//Background and Video events
0,0,"collab_BG.jpg"
//Break Periods
2,77560,88649
2,139975,148091
2,184557,185243
//Storyboard Layer 0 (Background)
//Storyboard Layer 1 (Fail)
//Storyboard Layer 2 (Pass)
//Storyboard Layer 3 (Foreground)
//Storyboard Sound Samples
//Background Colour Transformations
3,100,163,162,255

[TimingPoints]
1571,371.517027863777,4,1,1,50,1,0
26834,-100,4,1,1,50,0,0
53583,-100,4,1,1,60,0,1
77360,-100,4,1,0,60,0,0
89249,-100,4,1,1,50,0,0
115998,-100,4,1,1,60,0,1
139775,-100,4,1,1,50,0,0
159094,-100,4,1,1,60,0,1
184357,-100,4,1,1,50,0,0

[Colours]
Combo1 : 0,255,255
Combo2 : 255,0,128
Combo3 : 0,255,0
Combo4 : 255,255,0

[HitObjects]
404,131,1571,1,4
315,42,1756,1,0
188,42,1942,1,8
98,131,2128,1,0
109,310,2499,6,0,B|238:310,2,90,0|8|0
397,310,3242,2,0,B|291:310,2,90,0|8|0
255,58,3985,2,0,B|255:178,2,90,0|8|0
74,63,4728,5,0
169,158,4914,1,8
118,283,5100,1,0
387,283,5471,1,0
333,158,5657,1,8
428,62,5843,1,0
257,96,6214,5,0
121,96,6400,1,8
121,231,6586,1,0
390,231,6957,1,0
390,95,7143,1,8
257,96,7329,1,0
257,186,7515,5,4
257,186,7701,2,0,B|257:298,1,90,0|8
257,185,8072,2,0,B|257:90,1,90
166,95,8444,2,0,B|284:96,1,90,0|8
346,95,8815,2,0,B|243:96,1,90
352,191,9187,5,0
256,286,9372,1,8
160,190,9558,1,0
255,94,9744,1,0
345,94,9930,6,0,B|469:94,1,90,0|8
435,274,10301,2,0,B|333:274,1,90,0|4
345,183,10673,5,0
281,246,10858,1,8
217,309,11044,1,0
126,309,11230,1,0
62,245,11416,1,0
30,213,11509,1,0
30,168,11601,1,8
93,104,11787,1,0
93,104,11973,5,4
416,104,12344,1,8
186,333,12716,2,0,B|187:235,1,90
323,333,13088,2,0,B|323:214,1,90,8|0
255,184,13459,5,4
191,120,13645,1,0
145,120,13738,1,0
113,151,13831,1,8
49,214,14016,1,0
112,277,14202,1,0
202,277,14388,1,0
247,277,14481,1,0
278,308,14574,1,8
367,308,14759,1,0
430,244,14945,5,0
461,212,15038,1,0
461,166,15131,1,0
397,102,15317,2,0,B|285:102,1,90,8|0
216,102,15688,1,0
216,102,15781,1,0
216,102,15874,1,0
152,165,16060,1,8
152,210,16153,1,0
183,241,16245,1,0
257,292,16431,5,4
257,292,16524,1,0
257,292,16617,1,0
320,228,16803,1,8
320,228,16896,1,0
320,228,16988,1,0
256,164,17174,1,0
256,164,17267,1,0
256,164,17360,1,0
192,227,17546,1,8
192,227,17639,1,0
192,227,17731,1,0
96,131,17917,6,0,B|27:67,1,90,4|0
30,205,18289,1,8
54,337,18475,2,0,B|124:264,1,90,0|0
211,176,18846,2,0,B|105:203,1,90,0|4
256,77,19403,5,4
346,77,19589,1,0
436,77,19775,1,8
467,108,19868,1,0
467,153,19961,1,0
467,242,20146,2,0,B|447:343|320:352,1,180,0|8
255,317,20704,1,0
255,227,20889,5,0
255,136,21075,1,0
191,72,21261,1,8
145,72,21354,1,0
113,103,21447,1,0
113,192,21632,2,0,B|-2:192,2,90,0|0|8
113,282,22190,1,0
144,313,22283,1,0
188,313,22375,5,4
254,251,22561,1,0
321,311,22747,1,8
384,247,22933,1,0
429,247,23026,1,0
460,215,23118,1,0
460,124,23304,1,0
428,92,23397,1,0
382,92,23490,1,8
254,219,23862,5,4
254,174,23954,1,0
254,128,24047,1,0
190,64,24233,1,4
144,64,24326,1,0
112,95,24419,1,0
175,158,24605,1,4
143,189,24697,1,0
97,189,24790,1,0
33,252,24976,1,4
33,297,25069,1,0
64,328,25162,1,0
64,328,25348,5,4
329,279,25719,1,4
106,125,26091,1,4
364,47,26462,1,4
256,191,26834,5,0
317,72,27112,1,0
275,54,27205,1,8
189,81,27391,1,0
133,151,27577,1,0
99,281,27855,1,0
132,311,27948,1,8
211,267,28134,2,0,B|314:267,1,90
210,267,28505,1,0
210,176,28691,1,8
304,176,28877,2,0,B|359:179|378:131,1,90
398,222,29249,2,0,B|445:247|445:311,2,90,0|8|0
320,268,29806,5,4
185,268,30084,1,0
139,266,30177,1,8
83,194,30363,1,0
83,103,30549,1,0
205,47,30827,1,0
250,47,30920,1,8
328,91,31106,1,0
402,141,31292,5,0
402,155,31385,1,0
402,169,31478,1,0
402,183,31570,1,0
402,197,31663,1,8
402,211,31756,1,0
402,225,31849,1,0
402,239,31942,1,0
402,253,32035,1,0
338,316,32221,5,0
248,316,32406,1,8
248,225,32592,1,0
157,225,32778,5,4
61,129,33057,1,0
61,84,33149,1,8
151,84,33335,1,0
241,84,33521,1,0
361,145,33800,1,0
361,189,33892,1,8
411,263,34078,1,0
360,337,34264,1,0
234,286,34543,1,0
234,240,34636,1,8
310,192,34821,2,0,B|230:112|149:198,1,180
62,193,35379,1,8
62,103,35564,1,0
62,193,35750,5,4
131,308,36029,1,0
176,308,36122,1,8
224,232,36307,1,0
314,232,36493,2,0,B|313:296|384:296,1,90
428,230,36865,1,8
364,166,37050,1,0
273,166,37236,5,0
263,156,37329,1,0
253,146,37422,1,0
243,136,37515,1,0
233,145,37608,1,8
223,154,37701,1,0
213,163,37793,1,0
203,153,37886,1,0
193,143,37979,1,0
102,143,38165,5,0
102,233,38351,1,8
102,143,38536,5,0
102,233,38722,1,4
237,233,39001,1,0
282,233,39094,1,8
345,169,39279,1,0
380,196,39372,1,0
395,238,39465,1,0
382,281,39558,1,0
346,308,39651,1,0
255,308,39837,1,8
164,308,40023,2,0,B|164:246|68:244,1,90,4|0
107,158,40394,1,0
197,158,40580,1,12
75,158,40766,5,0
226,158,40951,1,4
291,95,41137,5,0
330,116,41230,1,0
349,156,41323,1,8
333,244,41509,1,0
333,333,41694,2,0,B|144:333,1,180,4|8
88,268,42252,1,0
88,223,42344,1,0
88,177,42437,1,0
151,113,42623,1,0
214,49,42809,1,8
277,112,42995,2,0,B|216:184,1,90,0|0
218,270,43366,5,4
218,270,43552,1,8
281,333,43738,2,0,B|305:333,4,22.5,4|0|0|0|0
344,269,44109,2,0,B|403:269|416:216,1,90,0|8
413,132,44481,1,0
413,132,44574,1,0
413,132,44666,1,4
277,132,44945,5,0
231,132,45038,1,8
167,195,45224,1,0
76,195,45410,1,0
167,195,45595,1,0
76,195,45781,1,8
76,285,45967,2,0,B|132:284|132:361,1,90,4|0
221,343,46338,1,0
284,279,46524,1,8
347,215,46710,1,0
410,151,46896,2,0,B|344:96|344:96|234:95,1,180,4|8
69,95,47639,5,4
69,184,47824,2,0,B|69:293,1,90,0|8
159,274,48196,1,0
249,274,48382,1,0
294,274,48475,1,0
338,274,48567,1,0
338,183,48753,5,8
338,273,48939,1,0
338,182,49125,5,4
248,182,49310,2,0,B|144:184,1,90,0|8
67,183,49682,1,0
157,183,49868,5,0
157,137,49961,1,0
157,92,50053,1,0
247,92,50239,1,8
424,96,50611,6,0,B|312:96,1,90,4|0
424,288,50982,2,0,B|312:288,1,90,4|0
88,288,51354,2,0,B|200:288,1,90,4|0
88,96,51725,2,0,B|200:96,1,90,4|0
328,192,52283,6,0,B|440:192,1,90,0|0
256,256,52654,2,0,B|256:352,1,90
192,192,53026,2,0,B|96:192,1,90,0|8
256,104,53397,1,0
256,149,53490,1,0
256,194,53583,5,4
120,194,53769,2,0,B|120:303,1,90,0|8
255,284,54140,2,0,B|367:284,1,90
441,187,54512,2,0,B|441:91,1,90,0|8
305,97,54883,2,0,B|196:97,1,90
189,183,55255,5,0
314,183,55440,1,8
403,272,55626,1,0
313,182,55812,1,0
186,182,55998,1,0
96,271,56184,1,4
162,103,56555,5,2
342,103,56741,1,2
414,277,57112,5,2
254,360,57298,1,2
96,272,57484,1,2
257,190,57855,5,0
320,253,58041,1,4
320,253,58134,1,0
320,253,58227,2,0,B|426:253,1,90
473,189,58598,1,0
473,98,58784,1,0
441,66,58877,1,0
395,66,58970,1,0
304,66,59156,1,4
124,66,59527,6,0,B|124:184,1,90,4|0
124,291,59899,2,0,B|124:188,1,90,8|0
257,197,60270,2,0,B|257:315,1,90
392,287,60642,2,0,B|392:170,1,90,8|0
256,197,61013,6,0,B|256:96,1,90
391,107,61385,2,0,B|391:202,1,90,8|0
391,106,61756,5,2
120,106,62128,1,2
257,221,62499,5,4
257,85,62685,1,0
257,220,62871,1,8
121,220,63057,1,0
255,220,63242,1,0
390,220,63428,1,0
254,220,63614,1,8
381,347,63985,5,2
381,76,64357,1,2
111,76,64728,1,2
111,346,65100,1,2
255,239,65471,5,4
191,175,65657,1,0
100,175,65843,1,8
100,84,66029,2,0,B|7:84,2,90
190,84,66586,1,8
190,84,66679,1,0
190,84,66772,2,0,B|308:84,1,90
280,174,67143,2,0,B|280:296,2,90,0|8|0
280,83,67701,2,0,B|400:83,2,90,0|8|0
99,83,68444,5,2
99,262,68629,1,2
279,262,69001,5,2
444,190,69187,1,2
280,116,69372,1,2
100,126,69744,5,0
100,126,69837,1,0
100,126,69930,1,0
29,240,70115,2,0,B|70:152,1,90
174,240,70487,2,0,B|135:157,1,90
101,289,70858,2,0,B|101:171,1,90
257,107,71416,5,4
122,107,71601,1,0
217,202,71787,1,8
352,202,71973,1,0
256,297,72159,1,0
390,297,72344,1,0
453,233,72530,5,8
453,142,72716,2,0,B|397:70,1,90
352,70,72995,1,0
306,70,73088,2,0,B|208:70,1,90,0|8
125,70,73459,1,0
79,70,73552,1,0
47,101,73645,1,2
47,191,73831,5,0
47,101,74016,1,10
227,101,74388,6,0,B|301:173,1,90,4|0
355,100,74759,1,12
227,227,74945,1,4
46,227,75317,5,4
225,227,75502,1,4
405,227,75874,5,2
45,227,76245,1,2
366,64,76617,1,2
120,326,76988,1,2
256,192,77360,5,4
256,192,89249,5,4
183,78,89527,1,0
183,78,89620,1,8
119,141,89806,1,0
119,231,89992,1,0
214,326,90270,1,0
214,327,90363,1,8
304,327,90549,2,0,B|336:288|400:320,1,90
449,250,90920,1,0
385,186,91106,1,8
448,249,91292,1,0
384,185,91478,6,0,B|272:184,1,90
294,94,91849,2,0,B|294:206,1,90,8|0
294,274,92221,2,0,B|206:346|133:271,1,180,0|8
70,208,92778,1,0
133,144,92964,2,0,B|221:72|294:147,1,180,0|8
356,82,93521,1,0
419,145,93707,1,0
387,176,93800,1,0
355,207,93892,1,0
386,238,93985,1,0
417,269,94078,1,8
385,300,94171,1,0
353,331,94264,1,0
321,299,94357,1,0
289,267,94450,1,0
198,267,94636,6,0,B|150:251,1,45
187,220,94821,2,0,B|131:204,1,45,8|0
175,175,95007,2,0,B|111:167,2,45,0|0|4
79,79,95471,1,0
124,79,95564,1,8
214,79,95750,2,0,B|280:80|280:160,1,90
407,168,96214,1,0
407,213,96307,1,8
343,276,96493,1,0
279,212,96679,1,0
342,275,96865,5,0
261,314,97050,1,8
170,314,97236,2,0,B|97:226|184:134,1,180
201,118,97701,1,0
242,102,97793,1,8
332,102,97979,1,0
419,124,98165,5,0
419,259,98444,1,0
419,303,98536,1,8
328,303,98722,1,0
237,303,98908,2,0,B|149:331|52:305,1,180,0|8
59,216,99465,1,0
59,125,99651,1,0
104,125,99744,1,0
149,125,99837,1,0
194,125,99930,1,0
239,125,100023,1,8
283,125,100115,1,0
328,125,100208,1,0
373,125,100301,1,0
418,125,100394,1,0
418,215,100580,6,0,B|341:214,1,45
390,256,100766,2,0,B|312:264,1,45,8|0
365,297,100951,2,0,B|317:321,2,45,0|0|4
229,297,101416,5,0
183,297,101509,1,8
119,233,101694,1,0
119,233,101787,1,0
119,233,101880,1,0
119,233,101973,1,0
119,233,102066,1,0
120,144,102252,1,8
74,66,102437,6,0,B|123:149,1,90,4|0
248,136,102809,1,4
360,193,102995,1,0
256,263,103180,1,4
152,192,103366,2,0,B|32:192,1,90,0|0
64,104,103738,6,0,B|123:73|123:73|157:114|157:114|216:80,1,180,8|4
299,83,104295,1,0
344,83,104388,1,0
389,83,104481,1,8
389,172,104666,1,0
389,262,104852,2,0,B|356:262,4,22.5
389,171,105224,5,8
298,171,105410,2,0,B|298:72,1,90
298,171,105781,2,0,B|298:265,1,90,4|8
207,261,106153,2,0,B|168:262,4,22.5,4|0|0|0|0
207,170,106524,1,0
207,260,106710,6,0,B|248:296|248:296|320:296|320:296|368:256,1,180,4|0
361,126,107360,1,0
361,126,107453,1,8
284,78,107639,1,0
194,78,107824,1,0
103,78,108010,1,0
71,109,108103,1,0
71,154,108196,1,8
71,244,108382,2,0,B|175:244,1,90
251,244,108753,1,4
314,180,108939,5,0
250,243,109125,1,4
313,306,109310,2,0,B|416:306|416:184,1,180,0|0
288,59,110053,5,4
288,149,110239,1,0
242,149,110332,1,0
196,149,110425,1,8
196,239,110611,6,0,B|196:136,1,90
196,58,110982,1,0
150,58,111075,1,0
104,58,111168,2,0,B|103:182,1,90,8|0
103,238,111540,5,4
192,238,111725,2,0,B|194:136,1,90,0|8
284,148,112097,1,0
329,148,112190,1,0
374,148,112283,1,0
374,237,112468,2,0,B|261:237,1,90,0|8
32,192,113026,6,0,B|139:192,1,90,4|0
256,352,113397,2,0,B|256:245,1,90,4|0
480,192,113769,2,0,B|373:192,1,90,4|0
256,32,114140,2,0,B|256:139,1,90,4|0
256,352,114697,5,0
192,288,114883,1,8
255,224,115069,1,0
318,287,115255,2,0,B|352:200,1,90
312,120,115626,1,8
221,120,115812,1,0
239,161,115905,1,0
256,200,115998,5,4
120,200,116184,1,0
120,65,116369,1,8
255,65,116555,1,0
390,65,116741,1,0
390,200,116927,1,0
255,200,117112,1,8
255,335,117298,1,0
159,239,117484,5,0
352,240,117670,1,0
192,160,117855,1,8
320,160,118041,1,0
256,96,118227,5,2
256,275,118598,1,10
421,346,118970,5,2
255,275,119156,1,2
95,191,119527,5,2
256,110,119713,1,2
416,191,119899,1,2
256,221,120270,5,0
192,284,120456,1,0
192,284,120549,1,0
192,284,120642,1,0
102,284,120827,1,0
11,284,121013,2,0,B|11:171,1,90
11,103,121385,2,0,B|11:215,1,90
191,193,121942,6,0,B|191:93,1,90,4|0
317,103,122314,2,0,B|317:208,2,90,8|0|0
253,39,122871,5,0
253,129,123057,1,8
253,218,123242,1,0
253,308,123428,1,0
253,308,123521,1,0
253,308,123614,1,0
253,217,123800,6,0,B|253:314,1,90,8|0
433,307,124171,5,2
72,307,124543,1,2
256,312,124914,5,4
256,312,125007,1,0
256,312,125100,1,0
192,248,125286,2,0,B|192:140,1,90,8|0
255,94,125657,1,0
318,157,125843,2,0,B|318:259,1,90,0|8
470,343,126400,5,4
470,43,126772,1,4
73,44,127143,1,4
72,352,127515,1,4
162,285,127701,6,0,B|162:189,1,90,0|4
342,195,128072,2,0,B|342:98,1,90,0|8
213,233,128444,6,0,B|213:340,1,90
281,156,128815,2,0,B|281:261,1,90,0|8
345,310,129187,6,0,B|460:310,1,90
466,278,129465,1,0
466,232,129558,2,0,B|466:114,1,90,0|8
401,77,129930,1,0
311,77,130115,2,0,B|89:77,1,180,0|8
131,257,130858,5,2
131,257,131044,2,0,B|320:257,1,180,2|2
311,76,131601,1,2
311,76,131787,2,0,B|523:76,1,180,2|0
491,166,132344,1,0
491,211,132437,1,0
491,256,132530,1,0
427,319,132716,5,0
331,223,132902,1,0
255,334,133088,1,0
179,222,133273,1,0
83,317,133459,1,4
257,109,133831,6,0,B|257:10,2,90,4|0|8
320,172,134388,1,0
383,235,134574,2,0,B|383:334,2,90,0|0|8
446,171,135131,1,0
382,107,135317,1,0
382,107,135410,1,0
382,107,135502,2,0,B|382:209,1,90,0|8
317,261,135874,1,0
253,324,136060,2,0,B|43:322,1,180,0|8
200,194,136803,6,0,B|13:196,1,180,4|0
147,68,137360,2,0,B|352:68,1,180
417,68,137917,1,8
417,158,138103,1,0
417,203,138196,1,0
417,248,138289,5,4
75,249,138660,1,4
417,249,139032,1,4
75,249,139403,1,4
256,32,139775,1,4
345,103,148691,5,4
256,192,148877,6,0,B|256:93,1,90,0|8
256,192,149249,2,0,B|368:192,1,90
192,168,149620,6,0,B|192:64,1,90,0|8
280,256,149992,2,0,B|384:256,1,90
128,144,150363,6,0,B|128:32,1,90,0|8
304,320,150735,2,0,B|416:320,2,90
176,272,151292,5,8
85,272,151478,6,0,B|85:176,1,90,0|4
85,91,151849,1,0
175,91,152035,2,0,B|280:91,1,90
265,181,152406,2,0,B|386:181,2,90
265,271,152964,2,0,B|152:272,1,90
175,180,153335,1,0
175,91,153521,5,0
175,180,153707,1,0
175,269,153892,2,0,B|280:268,1,90
355,267,154264,2,0,B|442:223|442:108,1,180,4|4
351,119,154821,6,0,B|247:119,1,90
337,167,155193,2,0,B|233:247,1,90
175,221,155564,1,0
175,221,155750,1,0
256,192,155936,12,0,157236
242,128,157608,5,4
152,128,157793,1,0
243,128,157979,5,8
152,128,158165,2,0,B|152:216,1,90
215,281,158536,1,0
260,281,158629,1,0
301,263,158722,1,8
332,231,158815,1,0
346,188,158908,1,0
256,192,159094,5,4
160,96,159279,1,0
64,191,159465,1,8
159,286,159651,6,0,B|76:356,2,90,0|0|0
249,286,160208,2,0,B|247:156,1,90,8|0
311,131,160580,2,0,B|311:34,1,90
265,41,160858,1,0
219,41,160951,2,0,B|98:42,1,90,8|0
52,82,161323,5,4
52,351,161694,1,4
156,204,162066,6,0,B|256:204,1,90,2|2
373,76,162623,5,2
246,204,162809,1,2
373,331,162995,1,2
500,203,163366,5,0
409,203,163552,2,0,B|409:97,2,90,4|0|8
256,200,164109,2,0,B|256:97,1,90
102,114,164481,2,0,B|102:214,1,90,0|4
256,320,165038,5,4
256,192,165224,1,0
256,65,165410,1,8
256,190,165595,1,0
129,190,165781,1,0
255,190,165967,1,0
381,190,166153,1,8
255,190,166338,1,0
164,107,166524,5,0
335,107,166710,1,0
335,278,166896,1,8
164,278,167081,1,0
257,350,167267,5,4
257,44,167639,1,4
436,44,168010,5,4
372,107,168196,1,0
372,152,168289,1,0
372,197,168382,1,8
282,197,168567,1,0
218,260,168753,1,0
136,221,168939,6,0,B|33:186,1,90,0|8
256,340,169496,1,4
461,192,169868,1,4
256,48,170239,1,4
47,194,170611,1,4
127,354,170982,5,4
127,83,171354,1,4
396,83,171725,1,4
396,353,172097,1,4
332,289,172283,5,0
332,289,172375,1,0
332,289,172468,2,0,B|332:193,1,90,4|0
241,199,172840,2,0,B|241:74,1,90,8|0
177,45,173211,1,0
113,108,173397,1,0
49,171,173583,1,8
112,234,173769,1,0
112,234,173862,1,0
112,234,173954,6,0,B|112:351,1,90,0|0
256,324,174326,2,0,B|256:216,1,90,8|0
400,234,174697,2,0,B|400:334,2,90,0|0|8
257,151,175440,6,0,B|257:48,1,90,4|0
394,295,175998,1,4
258,295,176184,1,4
123,295,176369,1,4
123,114,176741,5,0
186,50,176927,1,0
230,50,177019,1,0
261,81,177112,1,0
261,171,177298,5,8
159,272,177484,1,0
260,170,177670,1,0
361,271,177855,1,0
259,169,178041,1,4
386,41,178413,5,4
449,104,178598,1,0
449,149,178691,1,0
417,180,178784,1,8
353,243,178970,2,0,B|353:331,2,90
289,179,179527,2,0,B|239:183|213:226,1,90,8|0
214,268,179806,1,0
214,313,179899,2,0,B|100:313,2,90,0|0|8
304,313,180456,1,0
349,313,180549,1,0
394,313,180642,2,0,B|485:272|493:137,1,180,4|4
323,100,181385,6,0,B|392:206|304:285,1,180,4|8
255,326,181942,1,0
191,262,182128,1,0
254,198,182314,1,0
190,134,182499,1,8
256,68,182685,1,0
409,68,182871,5,4
409,319,183242,1,4
84,319,183614,1,4
84,67,183985,1,4
256,195,184357,5,4
408,88,185843,5,4
408,88,186029,2,0,B|304:88,1,90,0|8
227,88,186400,1,0
136,88,186586,2,0,B|136:136|104:136|104:208|136:208|136:264,1,180,0|8
199,326,187143,1,0
289,326,187329,1,0
379,326,187515,6,0,B|267:326,1,90,0|8
289,235,187886,1,0
289,144,188072,2,0,B|205:209|112:137,1,180,0|8
32,144,188629,1,0
122,144,188815,5,4
122,234,189001,2,0,B|242:234,1,90,0|8
302,234,189372,1,0
353,308,189558,2,0,B|363:226|490:192,1,180,0|8
39,40,190301,5,4
474,345,190673,1,4
37,347,191044,1,4
472,40,191416,1,4
256,192,191787,5,4
346,192,191973,2,0,B|464:192,2,90,0|8|0
346,101,192530,2,0,B|312:40|168:40,1,180,0|8
93,40,193088,1,0
93,129,193273,1,0
93,219,193459,6,0,B|92:312,2,90,0|8|0
183,219,194016,2,0,B|270:218|270:279|360:279,2,180,0|8|4
270,61,195131,1,8
355,90,195317,2,0,B|354:177|415:177|415:267,1,180
472,192,195874,5,4
40,192,196245,1,4
400,192,196617,5,4
112,192,196988,1,4
328,192,197360,5,4
184,192,197731,1,4
256,136,197917,5,0
256,224,198103,2,0,B|256:320,1,90,8|0
336,272,198475,2,0,B|456:272,1,90
384,184,198846,2,0,B|384:80,2,90,8|0|0
306,138,199403,2,0,B|193:138,1,90,0|8
151,73,199775,1,0
87,136,199961,2,0,B|87:325,1,180,0|8
177,316,200518,1,0
267,316,200704,5,4
267,226,200889,2,0,B|378:227,1,90,0|8
447,226,201261,6,0,B|447:321,1,90
64,70,201818,1,4
448,314,202190,1,4
136,104,202561,5,4
376,280,202933,1,4
208,144,203304,5,4
304,240,203676,1,4
367,176,203862,6,0,B|367:88,1,90,0|8
457,86,204233,1,0
366,86,204419,6,0,B|271:86,1,90
185,86,204790,2,0,B|296:87,1,90,8|0
274,177,205162,5,0
274,267,205348,2,0,B|393:267,1,90,0|8
273,267,205719,2,0,B|174:267,1,90
273,267,206091,6,0,B|274:162,1,90,0|8
472,40,206648,1,4
40,40,207019,1,8
40,130,207205,6,0,B|40:324,1,180,4|0
122,347,207762,1,4
390,37,208134,1,4
124,271,208505,5,4
388,113,208877,1,4
125,195,209249,5,4
387,189,209620,1,4
56,48,209991,5,4
389,191,210363,1,4
54,340,210734,1,4
390,192,211106,5,4
125,195,211477,1,4
457,48,211849,5,4
125,195,212220,1,4
461,339,212592,1,4
125,196,212963,5,4
389,192,213335,1,4
256,192,213707,5,4
256,192,213799,1,0
256,192,213892,1,0
256,282,214078,1,0
256,327,214171,1,0
256,192,214264,12,4,215564
