osu file format v14

[General]
AudioFilename: Toyosaki Aki - Shun Pu.mp3
AudioLeadIn: 0
PreviewTime: 61350
Countdown: 0
SampleSet: Soft
StackLeniency: 0.9
Mode: 0
LetterboxInBreaks: 0
EpilepsyWarning: 1
WidescreenStoryboard: 1

[Editor]
DistanceSpacing: 0.8
BeatDivisor: 8
GridSize: 4
TimelineZoom: 1.8

[Metadata]
Title:Shun Puu
TitleUnicode:春風
Artist:Toyosaki Aki
ArtistUnicode:豊崎 愛生
Creator:eclipselotus
Version:Sakura
Source:春風 Shun Pu
Tags:Love your life love my life Spring Breeze Tsuji Ayano SMCL 232 234 April 13 2011 Mllst -nanoRIPE- ibacot Sky Trias mraihani
BeatmapID:625063
BeatmapSetID:275549

[Difficulty]
HPDrainRate:7
CircleSize:4
OverallDifficulty:6
ApproachRate:9
SliderMultiplier:2.4
SliderTickRate:2

[Events]
//Background and Video events
0,0,"Pixiv.Id.4656825.full.1866765.jpg",0,0
//Break Periods
2,13258,22702
2,93746,99165
2,177159,179287
//Storyboard Layer 0 (Background)
//Storyboard Layer 1 (Fail)
//Storyboard Layer 2 (Pass)
//Storyboard Layer 3 (Foreground)
Sprite,Foreground,Centre,"storyboard/black.png",320,240 F,0,13047,13779,0,0.5 F,0,25486,26218,0.5,0
Sprite,Foreground,TopRight,"storyboard/lyric01.png",400,240 S,0,26218,,0.5 F,0,26218,26583,0,1 M,0,26218,29144,600,400,596,400 F,0,28779,29144,1,0
Sprite,Foreground,TopRight,"storyboard/lyric02.png",320,240 S,0,26218,,0.5 F,0,29144,29510,0,1 M,0,29144,32071,600,400,596,400 F,0,31339,32071,1,0
Sprite,Foreground,TopRight,"storyboard/lyric03.png",400,240 S,0,26218,,0.5 F,0,32071,32437,0,1 M,0,32071,37925,600,400,596,400 F,0,37559,37925,1,0
Sprite,Foreground,TopRight,"storyboard/lyric04.png",320,240 S,0,26218,,0.5 F,0,37925,38291,0,1 M,0,37925,40852,600,400,596,400 F,0,40486,40852,1,0
Sprite,Foreground,TopRight,"storyboard/lyric05.png",400,240 S,0,26218,,0.5 F,0,40852,41218,0,1 M,0,40852,43779,600,400,596,400 F,0,43413,43779,1,0
Sprite,Foreground,TopRight,"storyboard/lyric06.png",320,240 S,0,26218,,0.5 F,0,43779,44145,0,1 M,0,43779,45974,600,400,596,400 F,0,45608,45974,1,0
Sprite,Foreground,TopRight,"storyboard/lyric06.png",320,240 S,0,26218,,0.5 F,0,43779,44145,0,1 M,0,43779,45974,470,400,466,400 F,0,45608,45974,1,0
Sprite,Foreground,TopRight,"storyboard/lyric07.png",400,240 S,0,26218,,0.5 F,0,45974,46340,0,1 M,0,45974,48900,600,400,596,400 F,0,48534,48900,1,0
Sprite,Foreground,TopLeft,"storyboard/lyric08.png",400,240 S,0,15,,0.5 F,0,49632,49998,0,1 M,0,49632,54754,40,400,44,400 F,0,54388,54754,1,0
Sprite,Foreground,TopLeft,"storyboard/lyric09.png",400,240 S,0,15,,0.5 F,0,49632,49998,0,1 M,0,49632,54754,200,400,204,400 F,0,54388,54754,1,0
Sprite,Foreground,TopLeft,"storyboard/lyric10.png",400,240 S,0,15,,0.5 F,0,55486,55852,0,1 M,0,55486,61340,40,400,44,400 F,0,60974,61340,1,0
Sprite,Foreground,TopLeft,"storyboard/lyric11.png",400,240 S,0,15,,0.5 F,0,55486,55852,0,1 M,0,55486,61340,160,400,164,400 F,0,60974,61340,1,0
Sprite,Foreground,TopRight,"storyboard/lyric12.png",400,240 S,0,15,,0.5 F,0,62071,62437,0,1 M,0,62071,67925,320,320,316,320 F,0,67559,67925,1,0
Sprite,Foreground,TopLeft,"storyboard/lyric13.png",400,240 S,0,15,,0.5 F,0,62071,62437,0,1 M,0,62071,67925,320,320,324,320 F,0,67559,67925,1,0
Sprite,Foreground,Centre,"storyboard/lyric14.png",400,240 S,0,15,,0.6 F,0,62071,62437,0,1 M,0,62071,67925,320,400 S,0,62071,67925,0.6,0.65 F,0,67559,67925,1,0
Sprite,Foreground,TopRight,"storyboard/lyric15.png",400,240 S,0,15,,0.5 F,0,67925,68291,0,1 M,0,67925,73413,320,320,316,320 F,0,72681,73413,1,0
Sprite,Foreground,TopLeft,"storyboard/lyric15.png",400,240 S,0,15,,0.5 F,0,67925,68291,0,1 M,0,67925,73413,320,320,324,320 F,0,72681,73413,1,0
Sprite,Foreground,Centre,"storyboard/lyric16.png",400,240 S,0,15,,0.6 F,0,67925,68291,0,1 M,0,67925,73413,320,400 S,0,67925,73413,0.6,0.65 F,0,72681,73413,1,0
Sprite,Foreground,TopRight,"storyboard/lyric17.png",400,240 S,0,15,,0.5 F,0,73779,74145,0,1 M,0,73779,79632,320,350,316,350 F,0,79266,79632,1,0
Sprite,Foreground,TopLeft,"storyboard/lyric18.png",400,240 S,0,15,,0.5 F,0,73779,74145,0,1 M,0,73779,79632,320,350,324,350 F,0,79266,79632,1,0
Sprite,Foreground,TopRight,"storyboard/lyric19.png",400,240 S,0,15,,0.5 F,0,73779,74145,0,1 M,0,73779,79632,320,400,316,400 F,0,79266,79632,1,0
Sprite,Foreground,TopLeft,"storyboard/lyric20.png",400,240 S,0,15,,0.5 F,0,73779,74145,0,1 M,0,73779,79632,320,400,324,400 F,0,79266,79632,1,0
Sprite,Foreground,TopRight,"storyboard/lyric21.png",400,240 S,0,15,,0.5 F,0,79632,79998,0,1 M,0,79632,85486,320,350,316,350 F,0,85120,85486,1,0
Sprite,Foreground,TopLeft,"storyboard/lyric22.png",400,240 S,0,15,,0.5 F,0,79632,79998,0,1 M,0,79632,85486,320,350,324,350 F,0,85120,85486,1,0
Sprite,Foreground,TopRight,"storyboard/lyric23.png",400,240 S,0,15,,0.5 F,0,79632,79998,0,1 M,0,79632,85486,320,400,316,400 F,0,85120,85486,1,0
Sprite,Foreground,TopLeft,"storyboard/lyric24.png",400,240 S,0,15,,0.5 F,0,79632,79998,0,1 M,0,79632,85486,320,400,324,400 F,0,85120,85486,1,0
Sprite,Foreground,TopRight,"storyboard/lyric25.png",400,240 S,0,15,,0.5 F,0,99388,99754,0,1 M,0,99388,102315,600,400,596,400 F,0,101949,102315,1,0
Sprite,Foreground,TopRight,"storyboard/lyric26.png",400,240 S,0,15,,0.5 F,0,102315,102681,0,1 M,0,102315,105242,600,400,596,400 F,0,104876,105242,1,0
Sprite,Foreground,TopRight,"storyboard/lyric27.png",400,240 S,0,15,,0.5 F,0,105242,105608,0,1 M,0,105242,111096,600,400,596,400 F,0,110730,111096,1,0
Sprite,Foreground,TopLeft,"storyboard/lyric28.png",400,240 S,0,26218,,0.5 F,0,111096,111462,0,1 M,0,111096,114022,40,400,44,400 F,0,113656,114022,1,0
Sprite,Foreground,TopLeft,"storyboard/lyric05.png",400,240 S,0,26218,,0.5 F,0,114022,114388,0,1 M,0,114022,116949,40,400,44,400 F,0,116583,116949,1,0
Sprite,Foreground,TopRight,"storyboard/lyric29.png",320,240 S,0,26218,,0.5 F,0,116949,117315,0,1 M,0,116949,122071,600,400,596,400 F,0,121705,122071,1,0
Sprite,Foreground,TopRight,"storyboard/lyric30.png",320,240 S,0,26218,,0.5 F,0,122437,122803,0,1 M,0,122437,128657,400,400,396,400 F,0,128291,128657,1,0
Sprite,Foreground,TopRight,"storyboard/lyric31.png",320,240 S,0,26218,,0.5 F,0,122437,122803,0,1 M,0,122437,128657,600,400,596,400 F,0,128291,128657,1,0
Sprite,Foreground,TopRight,"storyboard/lyric32.png",320,240 S,0,26218,,0.5 F,0,128657,129023,0,1 M,0,128657,134510,400,400,396,400 F,0,134144,134510,1,0
Sprite,Foreground,TopRight,"storyboard/lyric33.png",320,240 S,0,26218,,0.5 F,0,128657,129023,0,1 M,0,128657,134510,600,400,596,400 F,0,134144,134510,1,0
Sprite,Foreground,TopRight,"storyboard/lyric12.png",400,240 S,0,15,,0.5 F,0,134876,135242,0,1 M,0,134876,140730,320,320,316,320 F,0,140364,140730,1,0
Sprite,Foreground,TopLeft,"storyboard/lyric34.png",400,240 S,0,15,,0.5 F,0,134876,135242,0,1 M,0,134876,140730,320,320,324,320 F,0,140364,140730,1,0
Sprite,Foreground,Centre,"storyboard/lyric35.png",400,240 S,0,15,,0.6 F,0,134876,135242,0,1 M,0,134876,140730,320,400 S,0,134876,140730,0.6,0.65 F,0,140364,140730,1,0
Sprite,Foreground,TopRight,"storyboard/lyric15.png",400,240 S,0,15,,0.5 F,0,141096,141462,0,1 M,0,141096,146584,320,320,316,320 F,0,145852,146584,1,0
Sprite,Foreground,TopLeft,"storyboard/lyric15.png",400,240 S,0,15,,0.5 F,0,141096,141462,0,1 M,0,141096,146584,320,320,324,320 F,0,145852,146584,1,0
Sprite,Foreground,Centre,"storyboard/lyric16.png",400,240 S,0,15,,0.6 F,0,141096,141462,0,1 M,0,141096,146584,320,400 S,0,141096,146584,0.6,0.65 F,0,145852,146584,1,0
Sprite,Foreground,TopRight,"storyboard/lyric17.png",400,240 S,0,15,,0.5 F,0,146583,146949,0,1 M,0,146583,152436,320,350,316,350 F,0,152070,152436,1,0
Sprite,Foreground,TopLeft,"storyboard/lyric18.png",400,240 S,0,15,,0.5 F,0,146583,146949,0,1 M,0,146583,152436,320,350,324,350 F,0,152070,152436,1,0
Sprite,Foreground,TopRight,"storyboard/lyric19.png",400,240 S,0,15,,0.5 F,0,146583,146949,0,1 M,0,146583,152436,320,400,316,400 F,0,152070,152436,1,0
Sprite,Foreground,TopLeft,"storyboard/lyric20.png",400,240 S,0,15,,0.5 F,0,146583,146949,0,1 M,0,146583,152436,320,400,324,400 F,0,152070,152436,1,0
Sprite,Foreground,TopRight,"storyboard/lyric21.png",400,240 S,0,15,,0.5 F,0,152803,153169,0,1 M,0,152803,158657,320,350,316,350 F,0,158291,158657,1,0
Sprite,Foreground,TopLeft,"storyboard/lyric22.png",400,240 S,0,15,,0.5 F,0,152803,153169,0,1 M,0,152803,158657,320,350,324,350 F,0,158291,158657,1,0
Sprite,Foreground,TopRight,"storyboard/lyric23.png",400,240 S,0,15,,0.5 F,0,152803,153169,0,1 M,0,152803,158657,320,400,316,400 F,0,158291,158657,1,0
Sprite,Foreground,TopLeft,"storyboard/lyric24.png",400,240 S,0,15,,0.5 F,0,152803,153169,0,1 M,0,152803,158657,320,400,324,400 F,0,158291,158657,1,0
Sprite,Foreground,TopRight,"storyboard/lyric12.png",400,240 S,0,15,,0.5 F,0,184998,185364,0,1 M,0,184998,190852,320,320,316,320 F,0,190486,190852,1,0
Sprite,Foreground,TopLeft,"storyboard/lyric13.png",400,240 S,0,15,,0.5 F,0,184998,185364,0,1 M,0,184998,190852,320,320,324,320 F,0,190486,190852,1,0
Sprite,Foreground,Centre,"storyboard/lyric14.png",400,240 S,0,15,,0.6 F,0,184998,185364,0,1 M,0,184998,190852,320,400 S,0,184998,190852,0.6,0.65 F,0,190486,190852,1,0
Sprite,Foreground,TopRight,"storyboard/lyric15.png",400,240 S,0,15,,0.5 F,0,190852,191848,0,1 M,0,190852,196340,320,320,316,320 F,0,195608,196340,1,0
Sprite,Foreground,TopLeft,"storyboard/lyric15.png",400,240 S,0,15,,0.5 F,0,190852,191848,0,1 M,0,190852,196340,320,320,324,320 F,0,195608,196340,1,0
Sprite,Foreground,Centre,"storyboard/lyric16.png",400,240 S,0,15,,0.6 F,0,190852,191848,0,1 M,0,190852,196340,320,400 S,0,190852,196340,0.6,0.65 F,0,195608,196340,1,0
Sprite,Foreground,TopRight,"storyboard/lyric17.png",320,240 S,0,15,,0.5 F,0,196705,197071,0,1 M,0,196705,202559,320,350,316,350 F,0,202193,202559,1,0
Sprite,Foreground,TopLeft,"storyboard/lyric18.png",400,240 S,0,15,,0.5 F,0,196705,197071,0,1 M,0,196705,202559,320,350,324,350 F,0,202193,202559,1,0
Sprite,Foreground,TopRight,"storyboard/lyric19.png",400,240 S,0,15,,0.5 F,0,196705,197071,0,1 M,0,196705,202559,320,400,316,400 F,0,202193,202559,1,0
Sprite,Foreground,TopLeft,"storyboard/lyric20.png",400,240 S,0,15,,0.5 F,0,196705,197071,0,1 M,0,196705,202559,320,400,324,400 F,0,202193,202559,1,0
Sprite,Foreground,TopRight,"storyboard/lyric21.png",400,240 S,0,15,,0.5 F,0,202559,202925,0,1 M,0,202559,208413,320,350,316,350 F,0,208047,208413,1,0
Sprite,Foreground,TopLeft,"storyboard/lyric22.png",400,240 S,0,15,,0.5 F,0,202559,202925,0,1 M,0,202559,208413,320,350,324,350 F,0,208047,208413,1,0
Sprite,Foreground,TopRight,"storyboard/lyric23.png",400,240 S,0,15,,0.5 F,0,202559,202925,0,1 M,0,202559,208413,320,400,316,400 F,0,208047,208413,1,0
Sprite,Foreground,TopLeft,"storyboard/lyric24.png",400,240 S,0,15,,0.5 F,0,202559,202925,0,1 M,0,202559,208413,320,400,324,400 F,0,208047,208413,1,0
Sprite,Foreground,TopRight,"storyboard/lyric21.png",400,240 S,0,15,,0.5 F,0,208413,208779,0,1 M,0,208413,213900,320,350,316,350 F,0,213535,213900,1,0
Sprite,Foreground,TopLeft,"storyboard/lyric22.png",400,240 S,0,15,,0.5 F,0,208413,208779,0,1 M,0,208413,213900,320,350,324,350 F,0,213535,213900,1,0
Sprite,Foreground,TopRight,"storyboard/lyric23.png",400,240 S,0,15,,0.5 F,0,208413,208779,0,1 M,0,208413,213900,320,400,316,400 F,0,213535,213900,1,0
Sprite,Foreground,TopLeft,"storyboard/lyric24.png",400,240 S,0,15,,0.5 F,0,208413,208779,0,1 M,0,208413,213900,320,400,324,400 F,0,213535,213900,1,0
Sprite,Foreground,Centre,"storyboard/white.png",320,240 M,0,62803,,320,240 F,0,62803,63535,0.5,0
Sprite,Foreground,Centre,"storyboard/white.png",320,240 M,0,87681,,320,240 F,0,87681,88047,0.5,0
Sprite,Foreground,Centre,"storyboard/white.png",320,240 C,0,15,,163,118,221 M,0,14510,,320,240 S,0,14510,,0.1 F,0,14510,17437,0,1 V,0,14510,17437,0.01,0.005,1,0.005 F,0,24754,25486,1,0
//Storyboard Sound Samples

[TimingPoints]
1350,731.707317073171,4,2,1,50,1,0
13057,-100,4,2,1,60,0,0
58423,-100,4,2,1,70,0,0
61167,-62.5,4,2,1,70,0,0
62813,-52.6315789473684,4,2,1,75,0,1
63545,-100,4,2,1,75,0,1
65740,-52.6315789473684,4,2,1,75,0,1
67203,-111.111111111111,4,2,1,75,0,1
67935,-52.6315789473684,4,2,1,75,0,1
84764,-100,4,2,1,75,0,1
86593,-62.5,4,2,1,75,0,1
87691,-71.4285714285714,4,2,1,55,0,0
89154,-76.9230769230769,4,2,1,55,0,0
93545,-71.4285714285714,4,2,1,55,0,0
99764,-76.9230769230769,4,2,1,60,0,0
112203,-66.6666666666667,4,2,1,60,0,0
131593,-52.6315789473684,4,2,1,70,0,0
134154,-58.8235294117647,4,2,1,70,0,0
134886,-52.6315789473684,4,2,1,70,0,0
135984,-52.6315789473684,4,2,1,80,0,1
161228,-58.8235294117647,4,2,1,70,0,0
162325,-66.6666666666667,4,2,1,60,0,0
185740,-66.6666666666667,4,3,1,60,0,0
187203,-52.6315789473684,4,3,1,60,0,0
189947,-83.3333333333333,4,3,1,60,0,0
191045,-52.6315789473684,4,3,1,60,0,0
195984,-52.6315789473684,4,2,1,60,0,0
197447,-52.6315789473684,4,2,1,75,0,1
198910,-76.9230769230769,4,2,1,75,0,1
200740,-55.5555555555556,4,2,1,75,0,1
206228,-50,4,2,1,75,0,1
212081,-71.4285714285714,4,2,1,75,0,1
212813,-76.9230769230769,4,2,1,75,0,1
213545,-52.6315789473684,4,2,1,60,0,0
217020,-76.9230769230769,4,2,1,60,0,0
219398,-58.8235294117647,4,2,1,60,0,0
236959,779.220779220779,4,2,1,50,1,0
238517,800,4,2,1,60,1,0
241317,821.917808219178,4,2,1,50,1,0
242241,-100,4,3,1,50,0,0

[Colours]
Combo1 : 236,70,129
Combo2 : 29,226,217
Combo3 : 176,249,187
Combo4 : 202,72,234
Combo5 : 182,236,19

[HitObjects]
80,84,618,5,0,0:0:0:0:
80,84,801,1,0,0:0:0:0:
192,264,984,1,0,0:0:0:0:
264,88,1167,1,0,0:0:0:0:
152,172,1350,6,0,P|104:216|108:304,1,120,2|0,0:0|0:0,0:0:0:0:
228,348,1898,2,0,L|304:332,1,60
492,263,2264,2,0,P|511:234|511:200,1,60
300,132,2630,2,0,P|281:161|281:195,1,60,0|8,0:0|0:0,0:0:0:0:
356,184,2996,1,0,0:0:0:0:
448,76,3179,1,0,0:0:0:0:
384,204,3363,1,0,0:0:0:0:
476,96,3545,1,0,0:0:0:0:
264,164,3911,5,0,0:0:0:0:
164,216,4094,1,0,0:0:0:0:
196,320,4277,1,2,0:0:0:0:
336,316,4643,1,0,0:0:0:0:
368,220,4826,1,0,0:0:0:0:
264,44,5191,1,0,0:0:0:0:
96,164,5557,1,0,0:0:0:0:
388,192,6472,5,0,0:0:0:0:
292,292,6655,1,0,0:0:0:0:
456,240,6837,1,0,0:0:0:0:
312,320,7021,1,0,0:0:0:0:
249,135,7204,6,0,P|281:148|316:144,1,60,2|0,0:0|0:0,0:0:0:0:
456,128,7570,2,0,P|416:112|380:116,1,60
164,168,7936,1,0,0:0:0:0:
164,168,8301,1,0,0:0:0:0:
32,120,8484,1,0,0:0:0:0:
32,120,8667,6,0,P|28:176|40:200,1,60,8|0,0:0|0:0,0:0:0:0:
112,296,9033,1,0,0:0:0:0:
164,168,9216,1,0,0:0:0:0:
296,212,9399,1,0,0:0:0:0:
244,344,9764,5,0,0:0:0:0:
112,296,9947,1,0,0:0:0:0:
164,168,10131,2,0,P|208:108|208:100,1,60,2|0,0:0|0:0,0:0:0:0:
256,44,10497,1,0,0:0:0:0:
388,84,10679,1,0,0:0:0:0:
388,84,10863,6,0,P|416:156|416:164,1,60
424,232,11229,1,0,0:0:0:0:
296,288,11411,1,0,0:0:0:0:
296,288,11594,2,0,L|228:268,1,60,8|0,0:0|0:0,0:0:0:0:
96,256,11960,1,0,0:0:0:0:
280,128,12143,5,0,0:0:0:0:
60,124,12326,1,2,0:0:0:0:
236,260,12509,1,0,0:0:0:0:
160,56,12692,1,2,0:0:0:0:
164,168,12875,1,0,0:0:0:0:
164,168,13058,5,4,0:0:0:0:
256,192,23302,12,0,25863,0:0:0:0:
212,32,26229,5,0,0:0:0:0:
116,136,26594,1,0,0:0:0:0:
248,164,26777,1,0,0:0:0:0:
380,196,26960,1,2,0:0:0:0:
400,100,27325,1,0,0:0:0:0:
400,100,27508,2,0,L|328:136,1,60
223,295,27874,2,0,L|284:260,1,60
420,292,28240,1,0,0:0:0:0:
348,232,28423,6,0,L|288:184,1,60,8|0,0:0|0:0,0:0:0:0:
112,48,28789,1,0,0:0:0:0:
220,36,28972,1,0,0:0:0:0:
32,56,29154,2,0,P|0:112|24:188,1,120
96,320,29703,1,0,0:0:0:0:
156,228,29886,6,0,P|200:236|232:220,1,60,2|0,0:0|0:0,0:0:0:0:
280,132,30252,2,0,P|340:136|368:160,2,60
304,240,30801,1,0,0:0:0:0:
168,44,30984,1,0,0:0:0:0:
400,176,31167,1,0,0:0:0:0:
280,132,31350,1,8,0:0:0:0:
404,140,31533,1,0,0:0:0:0:
304,240,31716,1,0,0:0:0:0:
364,316,31898,1,0,0:0:0:0:
336,332,32081,6,0,P|296:340|220:276,1,120
164,140,32631,1,0,0:0:0:0:
222,283,32814,2,0,B|276:264|276:264|277:261,1,60,2|0,0:0|0:0,0:0:0:0:
148,176,33179,1,0,0:0:0:0:
370,51,33362,1,0,0:0:0:0:
360,184,33545,2,0,L|354:265,2,60
370,51,34094,1,0,0:0:0:0:
452,72,34277,6,0,P|428:116|380:128,1,60,8|0,0:0|0:0,0:0:0:0:
164,184,34642,1,0,0:0:0:0:
416,204,34825,1,0,0:0:0:0:
192,72,35008,2,0,P|216:116|260:136,1,60
232,224,35374,2,0,P|280:216|312:184,1,60
360,280,35740,1,2,0:0:0:0:
144,276,36107,1,0,0:0:0:0:
360,280,36289,2,0,L|436:280,1,60
352,124,36837,5,0,0:0:0:0:
224,204,37021,1,0,0:0:0:0:
272,88,37204,1,8,0:0:0:0:
440,192,37387,1,0,0:0:0:0:
440,192,37570,2,0,P|408:244|336:260,1,120,0|2,0:0|0:0,0:0:0:0:
340,156,38301,5,0,0:0:0:0:
304,336,38484,1,0,0:0:0:0:
480,316,38667,1,8,0:0:0:0:
72,240,39032,1,0,0:0:0:0:
36,120,39215,2,0,L|96:72,1,60
148,188,39581,2,0,P|168:232|160:268,1,60
64,328,39947,1,0,0:0:0:0:
148,188,40131,1,2,0:0:0:0:
308,200,40314,1,0,0:0:0:0:
228,224,40496,1,0,0:0:0:0:
308,200,40679,6,0,P|304:256|284:272,1,60
432,300,41228,2,0,L|500:320,2,60,0|0|8,0:0|0:0|0:0,0:0:0:0:
220,308,41959,1,0,0:0:0:0:
328,300,42143,1,0,0:0:0:0:
284,212,42326,1,0,0:0:0:0:
144,208,42509,1,0,0:0:0:0:
292,72,42692,1,0,0:0:0:0:
264,200,43057,5,2,0:0:0:0:
124,196,43240,1,0,0:0:0:0:
272,60,43423,1,0,0:0:0:0:
96,272,43606,1,0,0:0:0:0:
100,304,43789,6,0,P|136:340|212:328,1,120
484,232,44337,1,0,0:0:0:0:
260,100,44521,1,8,0:0:0:0:
260,100,44887,1,0,0:0:0:0:
272,192,45070,1,0,0:0:0:0:
324,275,45253,6,0,P|300:288|260:284,1,60
68,148,45618,1,0,0:0:0:0:
148,272,45801,2,0,L|192:336,1,60,0|2,0:0|0:0,0:0:0:0:
80,244,46350,2,0,P|99:215|139:199,1,60
272,300,46715,1,0,0:0:0:0:
80,244,47081,5,0,0:0:0:0:
240,96,47264,1,0,0:0:0:0:
144,84,47448,2,0,P|148:140|204:188,1,120,8|0,0:0|0:0,0:0:0:0:
280,224,47996,1,0,0:0:0:0:
388,236,48179,1,0,0:0:0:0:
276,200,48545,5,0,0:0:0:0:
440,312,48728,1,0,0:0:0:0:
276,200,48910,2,0,L|348:224,1,60,2|0,0:0|0:0,0:0:0:0:
376,144,49277,2,0,L|444:168,1,60,2|0,0:0|0:0,0:0:0:0:
300,112,49642,6,0,P|252:108|224:128,1,60,4|0,0:0|0:0,0:0:0:0:
128,252,50009,1,0,0:0:0:0:
108,156,50191,2,0,L|92:80,2,60,0|8|0,0:0|0:0|0:0,0:0:0:0:
288,340,50741,1,0,0:0:0:0:
272,244,50923,2,0,L|260:160,1,60
376,244,51471,6,0,P|372:288|340:320,1,60
304,176,51837,2,0,P|264:160|244:128,1,60,8|0,0:0|0:0,0:0:0:0:
384,148,52203,2,0,P|436:136|460:152,1,60
272,244,52570,1,0,0:0:0:0:
40,64,52936,1,0,0:0:0:0:
72,280,53301,1,8,0:0:0:0:
140,156,53667,6,0,P|176:176|188:204,1,60
136,340,54033,1,0,0:0:0:0:
336,192,54215,1,0,0:0:0:0:
187,201,54398,2,0,L|192:272,1,60
300,328,54764,1,2,0:0:0:0:
400,216,54946,1,0,0:0:0:0:
356,52,55130,1,0,0:0:0:0:
336,84,55497,6,0,B|312:112|312:112|256:60|192:96,1,120,8|0,0:0|0:0,0:0:0:0:
48,120,56045,2,0,L|124:164,1,60
228,216,56410,1,0,0:0:0:0:
352,280,56593,1,0,0:0:0:0:
228,216,56959,1,8,0:0:0:0:
368,196,57142,6,0,P|420:224|428:240,1,60
300,168,57508,2,0,P|285:110|291:94,1,60
228,216,58058,6,0,B|172:208|184:308|108:284,1,120,0|8,0:0|0:0,0:0:0:0:
16,192,58606,1,0,0:0:0:0:
156,116,58789,1,0,0:0:0:0:
64,264,58972,1,0,0:0:0:0:
112,188,59155,1,0,0:0:0:0:
148,304,59338,6,0,L|220:312,2,60
112,188,59886,1,8,0:0:0:0:
336,304,60070,1,0,0:0:0:0:
336,304,60253,1,0,0:0:0:0:
416,116,60436,1,0,0:0:0:0:
416,116,60619,1,0,0:0:0:0:
476,240,60802,1,0,0:0:0:0:
476,240,60984,1,0,0:0:0:0:
272,132,61167,6,0,B|288:104|288:104|288:40,1,96,0|8,0:0|0:0,0:0:0:0:
64,68,61533,1,0,0:0:0:0:
180,104,61716,2,0,B|160:168|212:208,1,96
416,116,62082,1,8,0:0:0:0:
196,193,62264,1,0,0:0:0:0:
160,308,62448,5,8,0:0:0:0:
188,324,62539,1,0,0:0:0:0:
220,324,62631,1,0,0:0:0:0:
252,312,62722,1,0,0:0:0:0:
280,296,62814,2,0,B|356:216|432:296|432:296|412:368,1,227.999993911743,4|0,0:0|0:0,0:0:0:0:
418,345,63362,1,0,0:0:0:0:
460,188,63545,2,0,L|482:114,2,60,2|0|0,0:0|0:0|0:0,0:0:0:0:
460,188,64093,5,0,0:0:0:0:
388,140,64277,2,0,B|328:148|296:100|296:100|272:96,1,120,2|0,0:0|0:0,0:0:0:0:
282,97,64826,1,0,0:0:0:0:
148,56,65009,5,2,0:0:0:0:
248,172,65192,1,0,0:0:0:0:
368,60,65375,1,0,0:0:0:0:
468,192,65558,1,0,0:0:0:0:
268,256,65741,2,0,B|184:272|152:168,1,113.999996955872,2|0,0:0|0:0,0:0:0:0:
124,72,66106,1,0,0:0:0:0:
124,72,66289,1,0,0:0:0:0:
180,168,66471,6,0,B|208:212|208:212|176:248|212:324,1,113.999996955872,2|0,0:0|0:0,0:0:0:0:
276,352,66837,1,0,0:0:0:0:
276,352,67021,1,0,0:0:0:0:
344,260,67203,2,0,L|408:160,1,107.999996704102,2|0,0:0|0:0,0:0:0:0:
192,264,67935,2,0,B|166:302|112:296|112:296|92:316,1,113.999996955872,2|0,0:0|0:0,0:0:0:0:
72,332,68301,2,0,B|52:352|52:352|16:312|36:240,1,113.999996955872
112,124,68668,6,0,P|128:72|192:44,1,113.999996955872,2|0,0:0|0:0,0:0:0:0:
276,240,69033,1,0,0:0:0:0:
396,104,69216,1,0,0:0:0:0:
201,130,69399,1,2,0:0:0:0:
201,130,69765,5,0,0:0:0:0:
136,224,69948,2,0,P|76:224|24:160,1,113.999996955872,0|2,0:0|0:0,0:0:0:0:
124,88,70314,1,0,0:0:0:0:
256,68,70497,2,0,L|336:180,1,113.999996955872
384,252,70862,1,2,0:0:0:0:
384,252,71228,5,0,0:0:0:0:
280,288,71411,1,0,0:0:0:0:
184,156,71593,2,0,L|108:44,1,113.999996955872,2|0,0:0|0:0,0:0:0:0:
268,192,71959,1,0,0:0:0:0:
359,110,72142,2,0,L|236:68,1,113.999996955872,0|2,0:0|0:0,0:0:0:0:
36,188,72509,1,0,0:0:0:0:
136,240,72692,1,0,0:0:0:0:
80,336,72875,6,0,P|152:348|196:328,1,113.999996955872,0|2,0:0|0:0,0:0:0:0:
328,288,73240,1,0,0:0:0:0:
432,112,73423,1,0,0:0:0:0:
352,268,73606,1,0,0:0:0:0:
456,132,73789,1,2,0:0:0:0:
312,32,73972,1,0,0:0:0:0:
220,96,74155,5,2,0:0:0:0:
200,136,74246,1,0,0:0:0:0:
208,180,74338,1,0,0:0:0:0:
232,216,74429,1,0,0:0:0:0:
248,260,74520,2,0,B|263:319|263:319|256:376,1,113.999996955872,4|0,0:0|0:0,0:0:0:0:
352,244,74887,1,0,0:0:0:0:
220,96,75070,1,0,0:0:0:0:
352,244,75253,1,2,0:0:0:0:
312,32,75618,5,0,0:0:0:0:
380,112,75801,1,0,0:0:0:0:
68,80,75983,1,6,0:0:0:0:
148,24,76166,1,0,0:0:0:0:
36,180,76349,2,0,P|56:240|112:280,1,113.999996955872
196,224,76715,2,0,L|340:156,1,113.999996955872,2|0,0:0|0:0,0:0:0:0:
304,260,77082,2,0,L|424:208,1,113.999996955872
452,112,77448,1,2,0:0:0:0:
406,215,77814,5,0,0:0:0:0:
286,115,77997,1,0,0:0:0:0:
166,215,78179,1,2,0:0:0:0:
296,300,78362,1,0,0:0:0:0:
342,167,78545,2,0,P|396:136|456:160,1,113.999996955872
406,215,78910,2,0,P|352:248|288:220,2,113.999996955872,2|0|0,0:0|0:0|0:0,0:0:0:0:
286,115,79459,1,0,0:0:0:0:
352,248,79642,6,0,P|372:324|354:357,1,113.999996955872,2|0,0:0|0:0,0:0:0:0:
296,300,80008,2,0,P|250:337|182:325,1,113.999996955872
228,260,80374,2,0,P|176:236|238:101,1,227.999993911743,4|0,0:0|0:0,0:0:0:0:
236,184,80923,1,0,0:0:0:0:
172,232,81106,2,0,L|48:216,2,113.999996955872,2|0|0,0:0|0:0|0:0,0:0:0:0:
292,128,81654,1,0,0:0:0:0:
364,64,81838,6,0,P|272:40|216:72,1,113.999996955872,2|0,0:0|0:0,0:0:0:0:
40,244,82203,1,0,0:0:0:0:
8,144,82386,1,0,0:0:0:0:
136,232,82569,1,2,0:0:0:0:
184,308,82752,1,0,0:0:0:0:
280,312,82936,2,0,B|340:316|380:256,1,113.999996955872
364,64,83301,1,2,0:0:0:0:
288,208,83484,1,0,0:0:0:0:
288,208,83668,6,0,B|301:195|232:224|232:224|184:172,1,113.999996955872
80,44,84033,1,2,0:0:0:0:
58,150,84216,2,0,L|156:252,1,113.999996955872
280,312,84581,1,0,0:0:0:0:
184,308,84764,2,0,P|120:324|72:280,1,120,2|0,0:0|0:0,0:0:0:0:
152,100,85313,1,0,0:0:0:0:
152,100,85496,5,2,0:0:0:0:
244,240,85679,1,0,0:0:0:0:
244,240,85862,5,0,0:0:0:0:
112,212,86045,1,0,0:0:0:0:
112,212,86228,5,2,0:0:0:0:
332,236,86410,1,0,0:0:0:0:
332,236,86593,6,0,B|351:283|351:283|331:307|327:339,1,96,8|0,0:0|0:0,0:0:0:0:
152,100,86959,1,8,0:0:0:0:
332,236,87142,1,0,0:0:0:0:
372,212,87234,1,0,0:0:0:0:
388,168,87326,1,8,0:0:0:0:
384,124,87417,1,0,0:0:0:0:
352,92,87509,1,0,0:0:0:0:
308,88,87600,1,0,0:0:0:0:
272,68,87691,1,4,0:0:0:0:
280,288,88058,5,0,0:0:0:0:
152,100,88240,1,0,0:0:0:0:
352,92,88423,1,2,0:0:0:0:
220,236,88606,1,0,0:0:0:0:
64,116,88789,1,0,0:0:0:0:
156,288,88972,1,0,0:0:0:0:
152,100,89155,6,0,L|176:20,1,77.9999964294435,8|0,0:0|0:0,0:0:0:0:
168,172,89521,2,0,L|76:204,1,77.9999964294435
220,236,89887,2,0,L|296:204,1,77.9999964294435,2|0,0:0|0:0,0:0:0:0:
436,176,90252,5,0,0:0:0:0:
410,188,90435,1,0,0:0:0:0:
384,200,90618,1,8,0:0:0:0:
312,228,90801,1,0,0:0:0:0:
184,80,90984,5,0,0:0:0:0:
208,96,91167,1,0,0:0:0:0:
236,116,91350,1,2,0:0:0:0:
300,160,91533,1,0,0:0:0:0:
101,194,91715,5,0,0:0:0:0:
88,172,91898,1,0,0:0:0:0:
76,148,92082,1,8,0:0:0:0:
256,120,92813,5,8,0:0:0:0:
256,120,92996,1,0,0:0:0:0:
316,256,93179,1,8,0:0:0:0:
192,192,93363,1,0,0:0:0:0:
380,136,93546,1,4,0:0:0:0:
104,96,99765,5,0,0:0:0:0:
156,224,99948,1,0,0:0:0:0:
136,80,100130,1,2,0:0:0:0:
244,196,100314,2,0,P|248:244|224:284,1,77.9999964294435
108,312,100679,1,0,0:0:0:0:
412,108,100862,1,0,0:0:0:0:
344,36,101046,6,0,P|320:68|320:116,1,77.9999964294435
229,129,101411,2,0,P|233:177|256:208,2,77.9999964294435,0|8|0,0:0|0:0|0:0,0:0:0:0:
252,328,101959,1,0,0:0:0:0:
252,328,102142,2,0,P|296:336|344:312,1,77.9999964294435
229,129,102691,1,0,0:0:0:0:
432,220,102875,1,0,0:0:0:0:
432,220,103058,6,0,L|360:272,1,77.9999964294435,2|0,0:0|0:0,0:0:0:0:
229,129,103423,1,0,0:0:0:0:
368,156,103606,1,0,0:0:0:0:
260,244,103789,2,0,L|176:212,1,77.9999964294435
248,348,104154,2,0,L|160:320,1,77.9999964294435
28,128,104520,1,8,0:0:0:0:
104,292,104703,1,0,0:0:0:0:
140,44,104886,2,0,P|168:116|128:204,1,155.999992858887
454,333,105619,6,0,L|444:248,1,77.9999964294435
356,76,105984,2,0,L|460:72,1,77.9999964294435,2|0,0:0|0:0,0:0:0:0:
241,77,106350,1,0,0:0:0:0:
448,264,106532,1,0,0:0:0:0:
480,128,106715,1,0,0:0:0:0:
260,168,107082,6,0,P|260:208|280:240,1,77.9999964294435
176,196,107447,1,8,0:0:0:0:
241,77,107813,6,0,P|201:93|177:133,1,77.9999964294435
279,239,108178,1,0,0:0:0:0:
373,340,108545,6,0,P|373:300|355:267,1,77.9999964294435
220,328,108910,2,0,L|316:320,1,77.9999964294435,2|0,0:0|0:0,0:0:0:0:
464,100,109275,1,0,0:0:0:0:
380,212,109458,1,0,0:0:0:0:
512,172,109641,1,0,0:0:0:0:
380,120,109824,1,0,0:0:0:0:
464,232,110007,1,0,0:0:0:0:
380,212,110191,6,0,P|324:196|304:168,1,77.9999964294435,0|8,0:0|0:0,0:0:0:0:
180,104,110557,1,0,0:0:0:0:
256,244,110740,1,8,0:0:0:0:
208,16,111106,1,4,0:0:0:0:
228,236,111471,6,0,P|248:284|292:308,1,77.9999964294435
404,332,111837,1,2,0:0:0:0:
324,220,112020,2,0,P|268:216|224:184,1,77.9999964294435
299,134,112386,2,0,L|368:76,1,90.0000034332277
386,169,112752,2,0,L|456:112,1,90.0000034332277
324,220,113118,2,0,P|268:216|216:176,1,90.0000034332277,0|8,0:0|0:0,0:0:0:0:
96,120,113484,2,0,L|12:64,2,90.0000034332277
96,120,114032,1,0,0:0:0:0:
324,220,114399,6,0,L|224:160,1,90.0000034332277
96,120,114765,2,0,P|148:128|188:120,1,90.0000034332277,2|0,0:0|0:0,0:0:0:0:
496,92,115130,1,0,0:0:0:0:
238,196,115313,1,0,0:0:0:0:
408,240,115496,1,0,0:0:0:0:
348,44,115679,1,0,0:0:0:0:
480,276,115863,6,0,P|451:306|400:316,1,90.0000034332277
268,84,116228,1,8,0:0:0:0:
304,188,116411,1,0,0:0:0:0:
408,240,116594,1,0,0:0:0:0:
60,284,116959,1,0,0:0:0:0:
420,200,117325,1,0,0:0:0:0:
224,56,117508,1,0,0:0:0:0:
204,84,117691,6,0,P|160:116|44:80,1,180.000006866455,2|0,0:0|0:0,0:0:0:0:
12,300,118240,1,0,0:0:0:0:
188,196,118423,1,0,0:0:0:0:
12,300,118789,2,0,L|96:248,1,90.0000034332277
20,188,119155,2,0,L|104:132,1,90.0000034332277,8|0,0:0|0:0,0:0:0:0:
192,300,119520,1,0,0:0:0:0:
447,184,119886,6,0,P|468:144|468:100,1,90.0000034332277
315,176,120252,2,0,P|297:216|308:284,1,90.0000034332277
240,340,120618,2,0,L|168:280,1,90.0000034332277,2|0,0:0|0:0,0:0:0:0:
100,328,120984,2,0,P|88:284|120:212,1,90.0000034332277
176,88,121350,1,0,0:0:0:0:
240,340,121532,1,0,0:0:0:0:
97,241,121715,1,2,0:0:0:0:
200,180,122081,5,2,0:0:0:0:
284,148,122264,1,0,0:0:0:0:
372,160,122447,1,2,0:0:0:0:
440,220,122630,1,0,0:0:0:0:
384,292,122814,6,0,B|320:316|320:316|276:300,1,90.0000034332277,6|0,0:0|0:0,0:0:0:0:
97,241,123179,1,0,0:0:0:0:
152,328,123362,2,0,P|196:292|208:244,1,90.0000034332277,0|8,0:0|0:0,0:0:0:0:
280,176,123728,2,0,P|240:156|176:164,2,90.0000034332277
364,212,124276,2,0,P|368:157|264:80,1,180.000006866455
204,96,124825,2,0,B|148:112|148:112|104:88,1,90.0000034332277,0|8,0:0|0:0,0:0:0:0:
120,96,125374,1,0,0:0:0:0:
224,228,125557,1,0,0:0:0:0:
60,148,125740,1,0,0:0:0:0:
152,256,125923,6,0,P|168:288|248:300,1,90.0000034332277
80,152,126289,2,0,P|36:146|0:171,1,90.0000034332277,0|8,0:0|0:0,0:0:0:0:
204,143,126654,2,0,P|223:103|217:59,1,90.0000034332277
288,296,127204,6,0,L|200:336,1,90.0000034332277
324,204,127570,2,0,L|224:168,1,90.0000034332277
408,140,127936,2,0,L|348:64,1,90.0000034332277,8|0,0:0|0:0,0:0:0:0:
120,54,128301,1,2,0:0:0:0:
480,200,128484,1,0,0:0:0:0:
288,296,128667,2,0,P|228:288|152:176,1,180.000006866455,6|0,0:0|0:0,0:0:0:0:
120,54,129398,1,8,0:0:0:0:
60,256,129764,1,0,0:0:0:0:
248,212,130130,5,0,0:0:0:0:
300,76,130312,1,0,0:0:0:0:
160,104,130495,1,0,0:0:0:0:
240,132,130678,1,0,0:0:0:0:
396,40,130862,1,8,0:0:0:0:
392,132,131045,2,0,L|388:232,1,90.0000034332277
188,268,131593,2,0,P|238:290|308:268,2,113.999996955872
357,198,132142,2,0,P|304:181|242:194,1,113.999996955872,0|8,0:0|0:0,0:0:0:0:
128,344,132508,2,0,P|92:296|112:216,1,113.999996955872
112,120,133057,5,0,0:0:0:0:
128,344,133240,1,0,0:0:0:0:
203,74,133423,1,0,0:0:0:0:
160,264,133606,1,0,0:0:0:0:
305,55,133789,1,8,0:0:0:0:
220,199,133972,1,0,0:0:0:0:
228,316,134155,6,0,B|344:348,1,102.000001945496
292,248,134520,2,0,B|408:280,1,102.000001945496,8|0,0:0|0:0,0:0:0:0:
424,268,134886,2,0,B|468:252|468:196|468:196|432:200,1,113.999996955872
332,176,135252,2,0,P|272:172|212:140,1,113.999996955872,8|0,0:0|0:0,0:0:0:0:
112,112,135618,1,8,0:0:0:0:
76,124,135709,1,0,0:0:0:0:
56,160,135801,1,0,0:0:0:0:
56,200,135892,1,0,0:0:0:0:
80,232,135984,6,0,B|109:249|149:241|149:241|181:213,1,113.999996955872,4|0,0:0|0:0,0:0:0:0:
204,184,136351,1,0,0:0:0:0:
408,300,136533,1,0,0:0:0:0:
152,240,136715,1,2,0:0:0:0:
340,68,137082,6,0,B|324:86|324:116|324:116|284:136|248:92,1,113.999996955872
236,80,137447,1,2,0:0:0:0:
404,116,137630,1,0,0:0:0:0:
204,184,137814,2,0,P|124:180|96:140,1,113.999996955872
168,120,138180,1,2,0:0:0:0:
20,312,138546,5,0,0:0:0:0:
236,204,138728,1,0,0:0:0:0:
20,104,138911,1,2,0:0:0:0:
132,184,139093,1,0,0:0:0:0:
235,203,139277,2,0,P|328:148|408:236,1,227.999993911743,0|2,0:0|0:0,0:0:0:0:
224,284,139825,1,0,0:0:0:0:
224,284,140008,2,0,P|292:264|268:132,1,227.999993911743,0|2,0:0|0:0,0:0:0:0:
132,184,140557,5,0,0:0:0:0:
235,203,140740,1,0,0:0:0:0:
44,276,140923,1,0,0:0:0:0:
192,128,141106,1,2,0:0:0:0:
224,284,141288,1,0,0:0:0:0:
52,196,141471,2,0,P|60:140|116:104,1,113.999996955872
136,96,141837,2,0,B|188:128|188:128|288:120,1,113.999996955872,2|0,0:0|0:0,0:0:0:0:
479,92,142203,2,0,B|457:110|457:110|397:86|376:104,1,113.999996955872
236,204,142569,1,2,0:0:0:0:
236,204,142935,6,0,P|280:224|356:208,1,113.999996955872
164,136,143301,2,0,B|145:120|85:144|85:144|52:116,1,113.999996955872,2|0,0:0|0:0,0:0:0:0:
136,212,143667,2,0,P|132:260|64:300,1,113.999996955872
200,116,144032,2,0,P|276:96|312:120,1,113.999996955872,2|0,0:0|0:0,0:0:0:0:
252,172,144398,2,0,P|296:216|280:284,1,113.999996955872
212,240,144764,2,0,P|184:276|56:200,1,227.999993911743,2|0,0:0|0:0,0:0:0:0:
136,212,145313,1,0,0:0:0:0:
188,84,145496,1,2,0:0:0:0:
296,272,145862,5,0,0:0:0:0:
136,212,146045,1,0,0:0:0:0:
303,111,146228,1,2,0:0:0:0:
196,92,146410,1,0,0:0:0:0:
196,92,146593,1,0,0:0:0:0:
296,272,146776,1,0,0:0:0:0:
296,272,146959,1,2,0:0:0:0:
364,48,147143,2,0,P|324:28|240:44,1,113.999996955872,0|2,0:0|0:0,0:0:0:0:
196,92,147508,5,0,0:0:0:0:
208,176,147691,1,4,0:0:0:0:
12,280,147874,1,0,0:0:0:0:
12,280,148058,2,0,B|120:224,1,113.999996955872
208,176,148423,1,2,0:0:0:0:
220,56,148789,5,2,0:0:0:0:
100,180,148972,1,0,0:0:0:0:
172,328,149154,1,6,0:0:0:0:
260,348,149337,2,0,B|314:320|314:320|338:294|330:273,2,113.999996955872
256,256,149886,1,2,0:0:0:0:
208,176,150252,6,0,P|152:128|164:56,1,113.999996955872
312,172,150618,1,2,0:0:0:0:
208,176,150984,6,0,P|215:103|284:72,1,113.999996955872
271,259,151350,1,2,0:0:0:0:
208,176,151715,6,0,P|272:140|336:172,1,113.999996955872
176,275,152081,1,2,0:0:0:0:
108,336,152264,6,0,B|72:292|100:224,2,113.999996955872
215,327,152813,1,2,0:0:0:0:
251,299,152904,1,0,0:0:0:0:
271,259,152996,1,0,0:0:0:0:
267,215,153087,1,0,0:0:0:0:
247,175,153179,1,2,0:0:0:0:
227,135,153270,1,0,0:0:0:0:
231,91,153362,1,0,0:0:0:0:
199,119,153453,1,0,0:0:0:0:
155,135,153545,6,0,P|91:147|35:127,2,113.999996955872,4|0|0,0:0|0:0|0:0,0:0:0:0:
320,36,154093,1,0,0:0:0:0:
420,292,154276,1,2,0:0:0:0:
384,140,154642,6,0,P|448:160|472:216,1,113.999996955872
308,192,155009,2,0,P|296:214|208:236,1,113.999996955872,2|0,0:0|0:0,0:0:0:0:
120,292,155375,2,0,L|80:172,1,113.999996955872
136,88,155741,2,0,B|184:56|184:56|256:56,1,113.999996955872,2|0,0:0|0:0,0:0:0:0:
340,100,156107,2,0,B|364:136|364:136|392:168|451:147,1,113.999996955872
431,150,156472,6,0,B|360:228|432:300|432:300|344:308,1,227.999993911743,2|0,0:0|0:0,0:0:0:0:
168,320,157020,1,0,0:0:0:0:
168,320,157204,2,0,B|116:288|16:320|16:320|64:260,1,227.999993911743,2|0,0:0|0:0,0:0:0:0:
204,84,157752,1,0,0:0:0:0:
204,84,157936,2,0,P|172:164|36:144,1,227.999993911743,2|0,0:0|0:0,0:0:0:0:
46,157,158667,5,8,0:0:0:0:
46,157,158850,1,0,0:0:0:0:
112,308,159032,1,8,0:0:0:0:
196,276,159215,1,0,0:0:0:0:
272,240,159398,1,4,0:0:0:0:
204,192,159764,5,0,0:0:0:0:
432,168,159947,1,0,0:0:0:0:
264,324,160130,1,8,0:0:0:0:
272,240,160313,1,0,0:0:0:0:
280,156,160496,1,0,0:0:0:0:
288,72,160679,1,0,0:0:0:0:
356,208,160862,1,8,0:0:0:0:
120,192,161229,6,0,L|188:280,1,102.000001945496
248,100,161594,2,0,L|132:88,1,102.000001945496,8|0,0:0|0:0,0:0:0:0:
268,260,161960,2,0,L|336:164,1,102.000001945496,8|0,0:0|0:0,0:0:0:0:
347,150,162325,1,8,0:0:0:0:
268,260,162691,1,0,0:0:0:0:
146,89,162874,1,0,0:0:0:0:
232,328,163057,1,8,0:0:0:0:
324,180,163423,5,0,0:0:0:0:
153,302,163606,1,0,0:0:0:0:
392,216,163789,1,8,0:0:0:0:
128,188,164154,1,0,0:0:0:0:
340,332,164337,1,0,0:0:0:0:
348,136,164520,1,8,0:0:0:0:
153,302,164703,1,0,0:0:0:0:
236,240,164886,5,8,0:0:0:0:
244,200,164977,1,0,0:0:0:0:
236,160,165069,1,0,0:0:0:0:
216,124,165160,1,0,0:0:0:0:
188,96,165252,2,0,P|144:80|24:156,1,180.000006866455,12|0,0:0|0:0,0:0:0:0:
336,252,165984,5,8,0:0:0:0:
180,248,166167,1,0,0:0:0:0:
308,164,166350,1,0,0:0:0:0:
256,312,166532,1,0,0:0:0:0:
204,164,166715,1,8,0:0:0:0:
308,164,167081,1,0,0:0:0:0:
459,117,167448,5,8,0:0:0:0:
309,73,167631,1,0,0:0:0:0:
405,192,167814,1,8,0:0:0:0:
401,35,167997,1,0,0:0:0:0:
306,160,168180,1,8,0:0:0:0:
376,112,168545,1,0,0:0:0:0:
136,44,168911,5,8,0:0:0:0:
4,132,169093,1,0,0:0:0:0:
160,128,169276,1,0,0:0:0:0:
32,44,169459,1,0,0:0:0:0:
84,192,169642,1,8,0:0:0:0:
136,44,169825,1,0,0:0:0:0:
60,108,170008,5,0,0:0:0:0:
188,192,170191,1,0,0:0:0:0:
136,44,170374,1,8,0:0:0:0:
84,192,170557,1,0,0:0:0:0:
216,104,170740,1,8,0:0:0:0:
60,108,170923,1,0,0:0:0:0:
83,191,171107,2,0,L|99:280,2,90.0000034332277,12|0|0,0:0|0:0|0:0,0:0:0:0:
136,44,171837,5,2,0:0:0:0:
364,124,172020,1,0,0:0:0:0:
260,52,172203,1,0,0:0:0:0:
428,232,172386,1,0,0:0:0:0:
420,328,172570,2,0,P|500:288|504:268,2,90.0000034332277,8|0|0,0:0|0:0|0:0,0:0:0:0:
364,120,173301,5,2,0:0:0:0:
200,280,173484,1,0,0:0:0:0:
320,240,173667,1,0,0:0:0:0:
168,162,173850,1,0,0:0:0:0:
182,73,174033,2,0,L|167:162,2,90.0000034332277,8|0|0,0:0|0:0|0:0,0:0:0:0:
60,300,174764,5,2,0:0:0:0:
88,108,174947,1,0,0:0:0:0:
200,280,175130,1,0,0:0:0:0:
167,161,175313,1,0,0:0:0:0:
296,52,175497,2,0,B|336:68|396:48,1,90.0000034332277,8|0,0:0|0:0,0:0:0:0:
272,152,175862,2,0,B|328:188|396:160,1,90.0000034332277
308,276,176228,2,0,P|364:300|416:296,2,90.0000034332277,2|0|2,0:0|0:0|0:0,0:0:0:0:
88,108,176776,1,0,0:0:0:0:
200,280,176959,1,4,0:0:0:0:
444,316,179887,6,0,P|412:228|224:320,1,360.000013732911,2|2,0:0|0:0,0:0:0:0:
16,240,180801,1,0,0:0:0:0:
100,228,180984,1,0,0:0:0:0:
181,215,181167,1,0,0:0:0:0:
392,212,181350,6,0,P|360:124|188:240,1,360.000013732911,2|2,0:0|0:0,0:0:0:0:
8,204,182264,1,0,0:0:0:0:
68,144,182447,1,0,0:0:0:0:
132,88,182630,1,0,0:0:0:0:
132,88,182813,6,0,P|164:176|348:80,1,360.000013732911,2|2,0:0|0:0,0:0:0:0:
504,168,183727,1,0,0:0:0:0:
440,120,183910,1,0,0:0:0:0:
372,248,184093,1,0,0:0:0:0:
340,276,184185,6,0,L|384:304,1,45.0000017166138,0|2,0:0|0:0,0:0:0:0:
136,332,184459,1,0,0:0:0:0:
116,296,184551,2,0,L|88:340,1,45.0000017166138
108,92,184825,1,0,0:0:0:0:
144,72,184917,2,0,L|96:44,1,45.0000017166138,0|2,0:0|0:0,0:0:0:0:
348,208,185191,1,0,0:0:0:0:
372,248,185283,2,0,L|404:208,1,45.0000017166138,0|2,0:0|0:0,0:0:0:0:
440,120,185557,1,0,0:0:0:0:
360,52,185740,6,0,L|260:20,1,90.0000034332277,4|0,0:0|0:0,0:0:0:0:
280,220,186106,2,0,L|216:140,2,90.0000034332277,0|0|6,0:0|0:0|0:0,0:0:0:0:
420,180,186837,1,0,0:0:0:0:
280,304,187020,1,0,0:0:0:0:
324,136,187204,2,0,P|248:128|208:160,1,113.999996955872
136,76,187569,2,0,L|96:212,1,113.999996955872
152,284,187935,2,0,P|84:300|0:184,1,227.999993911743,2|0,0:0|0:0,0:0:0:0:
368,284,188667,5,0,0:0:0:0:
340,200,188850,2,0,P|408:196|452:252,1,113.999996955872
240,112,189398,1,2,0:0:0:0:
257,207,189581,2,0,P|201:207|157:151,1,113.999996955872
143,279,189947,2,0,P|140:216|247:111,1,215.999993408203
444,212,190862,1,6,0:0:0:0:
424,100,191046,2,0,L|304:32,2,113.999996955872
444,212,191593,2,0,L|308:237,1,113.999996955872
232,308,191959,5,0,0:0:0:0:
356,344,192142,1,0,0:0:0:0:
331,232,192325,1,2,0:0:0:0:
331,232,192691,2,0,P|367:196|379:120,1,113.999996955872
292,152,193056,1,0,0:0:0:0:
244,216,193239,1,0,0:0:0:0:
160,120,193422,1,0,0:0:0:0:
80,280,193605,1,0,0:0:0:0:
244,216,193788,1,2,0:0:0:0:
216,136,194154,5,0,0:0:0:0:
380,72,194337,1,0,0:0:0:0:
344,236,194520,1,0,0:0:0:0:
296,136,194886,5,0,0:0:0:0:
168,236,195069,1,0,0:0:0:0:
132,72,195252,1,0,0:0:0:0:
132,72,195618,5,0,0:0:0:0:
276,64,195801,2,0,P|328:64|372:132,1,113.999996955872,0|2,0:0|0:0,0:0:0:0:
296,136,196167,1,0,0:0:0:0:
168,236,196350,1,0,0:0:0:0:
132,72,196533,1,2,0:0:0:0:
296,248,196715,5,0,0:0:0:0:
92,160,196898,1,0,0:0:0:0:
180,164,197081,1,2,0:0:0:0:
224,156,197173,1,0,0:0:0:0:
268,148,197264,1,0,0:0:0:0:
312,157,197356,1,0,0:0:0:0:
344,184,197447,6,0,B|388:200|380:272|380:272|420:216|536:228|476:64|412:144,1,341.999990867615,6|0,0:0|0:0,0:0:0:0:
296,248,198179,2,0,P|223:278|177:257,1,113.999996955872,2|0,0:0|0:0,0:0:0:0:
180,164,198545,1,0,0:0:0:0:
108,224,198728,1,0,0:0:0:0:
268,148,198910,2,0,P|304:116|327:12,1,155.999992858887,2|0,0:0|0:0,0:0:0:0:
144,208,199642,2,0,P|104:244|84:345,2,155.999992858887,2|0|2,0:0|0:0|0:0,0:0:0:0:
340,200,200740,2,0,B|320:220|320:220|396:228|408:288,1,107.999996704102
344,324,201106,6,0,P|252:304|120:364,1,215.999993408203,2|0,0:0|0:0,0:0:0:0:
96,256,201654,1,0,0:0:0:0:
280,128,201837,1,2,0:0:0:0:
60,124,202020,1,0,0:0:0:0:
236,260,202203,1,0,0:0:0:0:
176,52,202386,1,0,0:0:0:0:
172,168,202569,6,0,L|240:264,1,107.999996704102,2|0,0:0|0:0,0:0:0:0:
312,180,202935,2,0,L|324:296,1,107.999996704102,2|0,0:0|0:0,0:0:0:0:
389,357,203301,2,0,P|456:264|380:208,1,215.999993408203,6|0,0:0|0:0,0:0:0:0:
376,284,203850,1,0,0:0:0:0:
123,357,204032,2,0,P|56:264|132:208,1,215.999993408203,2|0,0:0|0:0,0:0:0:0:
136,284,204581,1,0,0:0:0:0:
72,140,204764,6,0,P|132:132|188:172,1,107.999996704102,2|0,0:0|0:0,0:0:0:0:
232,88,205130,2,0,P|256:160|232:228,1,107.999996704102
332,224,205496,2,0,P|276:276|204:276,2,107.999996704102,2|0|0,0:0|0:0|0:0,0:0:0:0:
332,224,206045,1,0,0:0:0:0:
376,136,206228,2,0,P|372:72|312:72,1,120,2|0,0:0|0:0,0:0:0:0:
185,63,206593,2,0,P|132:80|136:136,1,120
184,220,206959,2,0,P|224:292|232:340,1,120,2|0,0:0|0:0,0:0:0:0:
280,328,207325,2,0,P|295:270|328:220,1,120
256,100,207691,5,2,0:0:0:0:
96,40,207874,1,0,0:0:0:0:
256,132,208057,1,0,0:0:0:0:
416,72,208240,1,0,0:0:0:0:
256,172,208423,1,2,0:0:0:0:
96,112,208606,1,0,0:0:0:0:
196,272,208789,5,2,0:0:0:0:
236,283,208880,1,0,0:0:0:0:
276,283,208971,1,0,0:0:0:0:
316,271,209063,1,0,0:0:0:0:
352,247,209155,2,0,P|308:192|200:288,1,240,6|0,0:0|0:0,0:0:0:0:
336,344,209703,1,0,0:0:0:0:
336,344,209886,2,0,P|392:336|420:176,1,240,2|0,0:0|0:0,0:0:0:0:
356,108,210435,1,0,0:0:0:0:
275,18,210618,6,0,L|356:108,1,120,6|0,0:0|0:0,0:0:0:0:
260,156,210984,2,0,L|140:156,1,120
284,296,211350,2,0,L|360:200,2,120,2|0|0,0:0|0:0|0:0,0:0:0:0:
208,304,211898,1,0,0:0:0:0:
161,244,212082,6,0,P|174:166|261:129,1,167.999994873047,2|0,0:0|0:0,0:0:0:0:
302,174,212630,1,0,0:0:0:0:
242,206,212814,2,0,P|177:163|183:80,1,155.999992858887,2|0,0:0|0:0,0:0:0:0:
215,35,213362,1,0,0:0:0:0:
256,192,213545,12,0,215740,0:0:0:0:
156,248,216106,5,0,0:0:0:0:
156,248,216289,1,0,0:0:0:0:
172,336,216471,2,0,P|220:312|244:257,1,113.999996955872,2|0,0:0|0:0,0:0:0:0:
243,258,216837,1,0,0:0:0:0:
268,125,217020,2,0,P|290:73|408:64,1,155.999992858887
244,152,217752,2,0,P|171:234|68:195,1,233.999989288331
67,194,218484,5,0,0:0:0:0:
268,125,218667,1,8,0:0:0:0:
244,152,218850,1,0,0:0:0:0:
442,80,219033,1,8,0:0:0:0:
320,260,219215,1,0,0:0:0:0:
388,184,219398,6,0,P|427:234|400:308,1,102.000001945496,6|0,0:0|0:0,0:0:0:0:
364,352,219765,1,0,0:0:0:0:
320,260,219947,1,0,0:0:0:0:
426,269,220130,1,8,0:0:0:0:
388,184,220496,6,0,P|323:184|282:117,1,102.000001945496
184,68,220863,1,2,0:0:0:0:
297,161,221046,1,0,0:0:0:0:
328,68,221228,1,0,0:0:0:0:
215,161,221410,1,0,0:0:0:0:
215,161,221593,2,0,P|173:189|44:116,1,204.000003890991,8|0,0:0|0:0,0:0:0:0:
264,96,222142,2,0,P|300:152|272:216,1,102.000001945496,0|2,0:0|0:0,0:0:0:0:
232,244,222508,1,0,0:0:0:0:
295,184,222691,1,0,0:0:0:0:
383,270,222874,6,0,P|328:308|263:284,1,102.000001945496,0|8,0:0|0:0,0:0:0:0:
232,244,223240,1,0,0:0:0:0:
295,303,223423,1,0,0:0:0:0:
196,320,223606,2,0,P|160:288|216:160,1,204.000003890991
252,68,224154,2,0,P|316:72|364:60,1,102.000001945496
307,166,224520,2,0,P|243:170|195:158,1,102.000001945496,8|0,0:0|0:0,0:0:0:0:
116,112,224886,1,8,0:0:0:0:
76,108,224978,1,0,0:0:0:0:
44,132,225069,1,0,0:0:0:0:
32,172,225160,1,0,0:0:0:0:
36,212,225252,6,0,P|40:292|28:320,1,102.000001945496,6|0,0:0|0:0,0:0:0:0:
132,292,225618,2,0,L|244:256,1,102.000001945496
305,328,225984,2,0,L|397:260,1,102.000001945496,8|0,0:0|0:0,0:0:0:0:
388,268,226350,1,0,0:0:0:0:
344,340,226715,2,0,P|396:348|452:340,1,102.000001945496,2|0,0:0|0:0,0:0:0:0:
216,340,227081,2,0,P|164:332|104:340,1,102.000001945496
283,298,227447,2,0,B|320:212|240:212|292:88,2,204.000003890991,8|0|2,0:0|0:0|0:0,0:0:0:0:
212,228,228362,2,0,P|200:168|212:104,1,102.000001945496
356,200,228728,2,0,P|368:260|356:324,1,102.000001945496,0|8,0:0|0:0,0:0:0:0:
363,300,229276,5,0,0:0:0:0:
179,172,229459,1,0,0:0:0:0:
399,168,229642,1,2,0:0:0:0:
223,304,229825,1,0,0:0:0:0:
299,100,230008,1,0,0:0:0:0:
295,212,230191,1,0,0:0:0:0:
111,340,230374,5,8,0:0:0:0:
295,212,230557,1,0,0:0:0:0:
75,208,230740,1,8,0:0:0:0:
251,344,230923,1,0,0:0:0:0:
175,140,231106,1,6,0:0:0:0:
232,208,231289,1,0,0:0:0:0:
152,212,231472,6,0,P|168:256|244:288,1,102.000001945496
232,208,231837,2,0,P|276:221|348:180,1,102.000001945496,8|0,0:0|0:0,0:0:0:0:
276,140,232203,2,0,P|313:112|323:30,2,102.000001945496,0|0|2,0:0|0:0|0:0,0:0:0:0:
192,144,232752,2,0,L|88:116,1,102.000001945496
320,144,233118,2,0,L|424:116,1,102.000001945496,0|8,0:0|0:0,0:0:0:0:
192,240,233484,2,0,L|104:336,1,102.000001945496
320,240,233850,2,0,L|408:336,1,102.000001945496,0|2,0:0|0:0,0:0:0:0:
123,315,234215,2,0,L|92:212,1,102.000001945496
84,176,234581,5,0,0:0:0:0:
96,132,234765,2,0,P|118:121|228:132,1,102.000001945496,8|0,0:0|0:0,0:0:0:0:
411,146,235130,2,0,P|359:165|296:156,1,102.000001945496
194,117,235496,1,2,0:0:0:0:
268,264,235679,1,0,0:0:0:0:
240,228,235771,6,0,L|184:284,1,51.0000009727478
68,136,236045,1,0,0:0:0:0:
36,104,236137,6,0,L|112:60,1,51.0000009727478,0|2,0:0|0:0,0:0:0:0:
124,212,236410,1,2,0:0:0:0:
168,228,236503,6,0,L|132:304,1,51.0000009727478,0|2,0:0|0:0,0:0:0:0:
240,40,236776,1,0,0:0:0:0:
256,192,236959,12,4,242241,0:0:0:0:
