osu file format v14

[General]
AudioFilename: Toyosaki Aki - Shun Pu.mp3
AudioLeadIn: 0
PreviewTime: 61350
Countdown: 0
SampleSet: Soft
StackLeniency: 0.6
Mode: 0
LetterboxInBreaks: 0
EpilepsyWarning: 1
WidescreenStoryboard: 1

[Editor]
DistanceSpacing: 1
BeatDivisor: 4
GridSize: 4
TimelineZoom: 1.3

[Metadata]
Title:Shun Puu
TitleUnicode:春風
Artist:Toyosaki Aki
ArtistUnicode:豊崎 愛生
Creator:eclipselotus
Version:Rose
Source:春風 Shun Pu
Tags:Love your life love my life Spring Breeze Tsuji Ayano SMCL 232 234 April 13 2011 Mllst -nanoRIPE- ibacot Sky Trias mraihani
BeatmapID:633077
BeatmapSetID:275549

[Difficulty]
HPDrainRate:3
CircleSize:3
OverallDifficulty:2
ApproachRate:3
SliderMultiplier:1.2
SliderTickRate:2

[Events]
//Background and Video events
0,0,"Pixiv.Id.4656825.full.1866765.jpg",0,0
//Break Periods
2,13256,24788
2,87891,97958
2,177159,178446
2,185940,194544
//Storyboard Layer 0 (Background)
//Storyboard Layer 1 (Fail)
//Storyboard Layer 2 (Pass)
//Storyboard Layer 3 (Foreground)
Sprite,Foreground,Centre,"storyboard/black.png",320,240 F,0,13047,13779,0,0.5 F,0,25486,26218,0.5,0
Sprite,Foreground,TopRight,"storyboard/lyric01.png",400,240 S,0,26218,,0.5 F,0,26218,26583,0,1 M,0,26218,29144,600,400,596,400 F,0,28779,29144,1,0
Sprite,Foreground,TopRight,"storyboard/lyric02.png",320,240 S,0,26218,,0.5 F,0,29144,29510,0,1 M,0,29144,32071,600,400,596,400 F,0,31339,32071,1,0
Sprite,Foreground,TopRight,"storyboard/lyric03.png",400,240 S,0,26218,,0.5 F,0,32071,32437,0,1 M,0,32071,37925,600,400,596,400 F,0,37559,37925,1,0
Sprite,Foreground,TopRight,"storyboard/lyric04.png",320,240 S,0,26218,,0.5 F,0,37925,38291,0,1 M,0,37925,40852,600,400,596,400 F,0,40486,40852,1,0
Sprite,Foreground,TopRight,"storyboard/lyric05.png",400,240 S,0,26218,,0.5 F,0,40852,41218,0,1 M,0,40852,43779,600,400,596,400 F,0,43413,43779,1,0
Sprite,Foreground,TopRight,"storyboard/lyric06.png",320,240 S,0,26218,,0.5 F,0,43779,44145,0,1 M,0,43779,45974,600,400,596,400 F,0,45608,45974,1,0
Sprite,Foreground,TopRight,"storyboard/lyric06.png",320,240 S,0,26218,,0.5 F,0,43779,44145,0,1 M,0,43779,45974,470,400,466,400 F,0,45608,45974,1,0
Sprite,Foreground,TopRight,"storyboard/lyric07.png",400,240 S,0,26218,,0.5 F,0,45974,46340,0,1 M,0,45974,48900,600,400,596,400 F,0,48534,48900,1,0
Sprite,Foreground,TopLeft,"storyboard/lyric08.png",400,240 S,0,15,,0.5 F,0,49632,49998,0,1 M,0,49632,54754,40,400,44,400 F,0,54388,54754,1,0
Sprite,Foreground,TopLeft,"storyboard/lyric09.png",400,240 S,0,15,,0.5 F,0,49632,49998,0,1 M,0,49632,54754,200,400,204,400 F,0,54388,54754,1,0
Sprite,Foreground,TopLeft,"storyboard/lyric10.png",400,240 S,0,15,,0.5 F,0,55486,55852,0,1 M,0,55486,61340,40,400,44,400 F,0,60974,61340,1,0
Sprite,Foreground,TopLeft,"storyboard/lyric11.png",400,240 S,0,15,,0.5 F,0,55486,55852,0,1 M,0,55486,61340,160,400,164,400 F,0,60974,61340,1,0
Sprite,Foreground,TopRight,"storyboard/lyric12.png",400,240 S,0,15,,0.5 F,0,62071,62437,0,1 M,0,62071,67925,320,320,316,320 F,0,67559,67925,1,0
Sprite,Foreground,TopLeft,"storyboard/lyric13.png",400,240 S,0,15,,0.5 F,0,62071,62437,0,1 M,0,62071,67925,320,320,324,320 F,0,67559,67925,1,0
Sprite,Foreground,Centre,"storyboard/lyric14.png",400,240 S,0,15,,0.6 F,0,62071,62437,0,1 M,0,62071,67925,320,400 S,0,62071,67925,0.6,0.65 F,0,67559,67925,1,0
Sprite,Foreground,TopRight,"storyboard/lyric15.png",400,240 S,0,15,,0.5 F,0,67925,68291,0,1 M,0,67925,73413,320,320,316,320 F,0,72681,73413,1,0
Sprite,Foreground,TopLeft,"storyboard/lyric15.png",400,240 S,0,15,,0.5 F,0,67925,68291,0,1 M,0,67925,73413,320,320,324,320 F,0,72681,73413,1,0
Sprite,Foreground,Centre,"storyboard/lyric16.png",400,240 S,0,15,,0.6 F,0,67925,68291,0,1 M,0,67925,73413,320,400 S,0,67925,73413,0.6,0.65 F,0,72681,73413,1,0
Sprite,Foreground,TopRight,"storyboard/lyric17.png",400,240 S,0,15,,0.5 F,0,73779,74145,0,1 M,0,73779,79632,320,350,316,350 F,0,79266,79632,1,0
Sprite,Foreground,TopLeft,"storyboard/lyric18.png",400,240 S,0,15,,0.5 F,0,73779,74145,0,1 M,0,73779,79632,320,350,324,350 F,0,79266,79632,1,0
Sprite,Foreground,TopRight,"storyboard/lyric19.png",400,240 S,0,15,,0.5 F,0,73779,74145,0,1 M,0,73779,79632,320,400,316,400 F,0,79266,79632,1,0
Sprite,Foreground,TopLeft,"storyboard/lyric20.png",400,240 S,0,15,,0.5 F,0,73779,74145,0,1 M,0,73779,79632,320,400,324,400 F,0,79266,79632,1,0
Sprite,Foreground,TopRight,"storyboard/lyric21.png",400,240 S,0,15,,0.5 F,0,79632,79998,0,1 M,0,79632,85486,320,350,316,350 F,0,85120,85486,1,0
Sprite,Foreground,TopLeft,"storyboard/lyric22.png",400,240 S,0,15,,0.5 F,0,79632,79998,0,1 M,0,79632,85486,320,350,324,350 F,0,85120,85486,1,0
Sprite,Foreground,TopRight,"storyboard/lyric23.png",400,240 S,0,15,,0.5 F,0,79632,79998,0,1 M,0,79632,85486,320,400,316,400 F,0,85120,85486,1,0
Sprite,Foreground,TopLeft,"storyboard/lyric24.png",400,240 S,0,15,,0.5 F,0,79632,79998,0,1 M,0,79632,85486,320,400,324,400 F,0,85120,85486,1,0
Sprite,Foreground,TopRight,"storyboard/lyric25.png",400,240 S,0,15,,0.5 F,0,99388,99754,0,1 M,0,99388,102315,600,400,596,400 F,0,101949,102315,1,0
Sprite,Foreground,TopRight,"storyboard/lyric26.png",400,240 S,0,15,,0.5 F,0,102315,102681,0,1 M,0,102315,105242,600,400,596,400 F,0,104876,105242,1,0
Sprite,Foreground,TopRight,"storyboard/lyric27.png",400,240 S,0,15,,0.5 F,0,105242,105608,0,1 M,0,105242,111096,600,400,596,400 F,0,110730,111096,1,0
Sprite,Foreground,TopLeft,"storyboard/lyric28.png",400,240 S,0,26218,,0.5 F,0,111096,111462,0,1 M,0,111096,114022,40,400,44,400 F,0,113656,114022,1,0
Sprite,Foreground,TopLeft,"storyboard/lyric05.png",400,240 S,0,26218,,0.5 F,0,114022,114388,0,1 M,0,114022,116949,40,400,44,400 F,0,116583,116949,1,0
Sprite,Foreground,TopRight,"storyboard/lyric29.png",320,240 S,0,26218,,0.5 F,0,116949,117315,0,1 M,0,116949,122071,600,400,596,400 F,0,121705,122071,1,0
Sprite,Foreground,TopRight,"storyboard/lyric30.png",320,240 S,0,26218,,0.5 F,0,122437,122803,0,1 M,0,122437,128657,400,400,396,400 F,0,128291,128657,1,0
Sprite,Foreground,TopRight,"storyboard/lyric31.png",320,240 S,0,26218,,0.5 F,0,122437,122803,0,1 M,0,122437,128657,600,400,596,400 F,0,128291,128657,1,0
Sprite,Foreground,TopRight,"storyboard/lyric32.png",320,240 S,0,26218,,0.5 F,0,128657,129023,0,1 M,0,128657,134510,400,400,396,400 F,0,134144,134510,1,0
Sprite,Foreground,TopRight,"storyboard/lyric33.png",320,240 S,0,26218,,0.5 F,0,128657,129023,0,1 M,0,128657,134510,600,400,596,400 F,0,134144,134510,1,0
Sprite,Foreground,TopRight,"storyboard/lyric12.png",400,240 S,0,15,,0.5 F,0,134876,135242,0,1 M,0,134876,140730,320,320,316,320 F,0,140364,140730,1,0
Sprite,Foreground,TopLeft,"storyboard/lyric34.png",400,240 S,0,15,,0.5 F,0,134876,135242,0,1 M,0,134876,140730,320,320,324,320 F,0,140364,140730,1,0
Sprite,Foreground,Centre,"storyboard/lyric35.png",400,240 S,0,15,,0.6 F,0,134876,135242,0,1 M,0,134876,140730,320,400 S,0,134876,140730,0.6,0.65 F,0,140364,140730,1,0
Sprite,Foreground,TopRight,"storyboard/lyric15.png",400,240 S,0,15,,0.5 F,0,141096,141462,0,1 M,0,141096,146584,320,320,316,320 F,0,145852,146584,1,0
Sprite,Foreground,TopLeft,"storyboard/lyric15.png",400,240 S,0,15,,0.5 F,0,141096,141462,0,1 M,0,141096,146584,320,320,324,320 F,0,145852,146584,1,0
Sprite,Foreground,Centre,"storyboard/lyric16.png",400,240 S,0,15,,0.6 F,0,141096,141462,0,1 M,0,141096,146584,320,400 S,0,141096,146584,0.6,0.65 F,0,145852,146584,1,0
Sprite,Foreground,TopRight,"storyboard/lyric17.png",400,240 S,0,15,,0.5 F,0,146583,146949,0,1 M,0,146583,152436,320,350,316,350 F,0,152070,152436,1,0
Sprite,Foreground,TopLeft,"storyboard/lyric18.png",400,240 S,0,15,,0.5 F,0,146583,146949,0,1 M,0,146583,152436,320,350,324,350 F,0,152070,152436,1,0
Sprite,Foreground,TopRight,"storyboard/lyric19.png",400,240 S,0,15,,0.5 F,0,146583,146949,0,1 M,0,146583,152436,320,400,316,400 F,0,152070,152436,1,0
Sprite,Foreground,TopLeft,"storyboard/lyric20.png",400,240 S,0,15,,0.5 F,0,146583,146949,0,1 M,0,146583,152436,320,400,324,400 F,0,152070,152436,1,0
Sprite,Foreground,TopRight,"storyboard/lyric21.png",400,240 S,0,15,,0.5 F,0,152803,153169,0,1 M,0,152803,158657,320,350,316,350 F,0,158291,158657,1,0
Sprite,Foreground,TopLeft,"storyboard/lyric22.png",400,240 S,0,15,,0.5 F,0,152803,153169,0,1 M,0,152803,158657,320,350,324,350 F,0,158291,158657,1,0
Sprite,Foreground,TopRight,"storyboard/lyric23.png",400,240 S,0,15,,0.5 F,0,152803,153169,0,1 M,0,152803,158657,320,400,316,400 F,0,158291,158657,1,0
Sprite,Foreground,TopLeft,"storyboard/lyric24.png",400,240 S,0,15,,0.5 F,0,152803,153169,0,1 M,0,152803,158657,320,400,324,400 F,0,158291,158657,1,0
Sprite,Foreground,TopRight,"storyboard/lyric12.png",400,240 S,0,15,,0.5 F,0,184998,185364,0,1 M,0,184998,190852,320,320,316,320 F,0,190486,190852,1,0
Sprite,Foreground,TopLeft,"storyboard/lyric13.png",400,240 S,0,15,,0.5 F,0,184998,185364,0,1 M,0,184998,190852,320,320,324,320 F,0,190486,190852,1,0
Sprite,Foreground,Centre,"storyboard/lyric14.png",400,240 S,0,15,,0.6 F,0,184998,185364,0,1 M,0,184998,190852,320,400 S,0,184998,190852,0.6,0.65 F,0,190486,190852,1,0
Sprite,Foreground,TopRight,"storyboard/lyric15.png",400,240 S,0,15,,0.5 F,0,190852,191848,0,1 M,0,190852,196340,320,320,316,320 F,0,195608,196340,1,0
Sprite,Foreground,TopLeft,"storyboard/lyric15.png",400,240 S,0,15,,0.5 F,0,190852,191848,0,1 M,0,190852,196340,320,320,324,320 F,0,195608,196340,1,0
Sprite,Foreground,Centre,"storyboard/lyric16.png",400,240 S,0,15,,0.6 F,0,190852,191848,0,1 M,0,190852,196340,320,400 S,0,190852,196340,0.6,0.65 F,0,195608,196340,1,0
Sprite,Foreground,TopRight,"storyboard/lyric17.png",320,240 S,0,15,,0.5 F,0,196705,197071,0,1 M,0,196705,202559,320,350,316,350 F,0,202193,202559,1,0
Sprite,Foreground,TopLeft,"storyboard/lyric18.png",400,240 S,0,15,,0.5 F,0,196705,197071,0,1 M,0,196705,202559,320,350,324,350 F,0,202193,202559,1,0
Sprite,Foreground,TopRight,"storyboard/lyric19.png",400,240 S,0,15,,0.5 F,0,196705,197071,0,1 M,0,196705,202559,320,400,316,400 F,0,202193,202559,1,0
Sprite,Foreground,TopLeft,"storyboard/lyric20.png",400,240 S,0,15,,0.5 F,0,196705,197071,0,1 M,0,196705,202559,320,400,324,400 F,0,202193,202559,1,0
Sprite,Foreground,TopRight,"storyboard/lyric21.png",400,240 S,0,15,,0.5 F,0,202559,202925,0,1 M,0,202559,208413,320,350,316,350 F,0,208047,208413,1,0
Sprite,Foreground,TopLeft,"storyboard/lyric22.png",400,240 S,0,15,,0.5 F,0,202559,202925,0,1 M,0,202559,208413,320,350,324,350 F,0,208047,208413,1,0
Sprite,Foreground,TopRight,"storyboard/lyric23.png",400,240 S,0,15,,0.5 F,0,202559,202925,0,1 M,0,202559,208413,320,400,316,400 F,0,208047,208413,1,0
Sprite,Foreground,TopLeft,"storyboard/lyric24.png",400,240 S,0,15,,0.5 F,0,202559,202925,0,1 M,0,202559,208413,320,400,324,400 F,0,208047,208413,1,0
Sprite,Foreground,TopRight,"storyboard/lyric21.png",400,240 S,0,15,,0.5 F,0,208413,208779,0,1 M,0,208413,213900,320,350,316,350 F,0,213535,213900,1,0
Sprite,Foreground,TopLeft,"storyboard/lyric22.png",400,240 S,0,15,,0.5 F,0,208413,208779,0,1 M,0,208413,213900,320,350,324,350 F,0,213535,213900,1,0
Sprite,Foreground,TopRight,"storyboard/lyric23.png",400,240 S,0,15,,0.5 F,0,208413,208779,0,1 M,0,208413,213900,320,400,316,400 F,0,213535,213900,1,0
Sprite,Foreground,TopLeft,"storyboard/lyric24.png",400,240 S,0,15,,0.5 F,0,208413,208779,0,1 M,0,208413,213900,320,400,324,400 F,0,213535,213900,1,0
Sprite,Foreground,Centre,"storyboard/white.png",320,240 M,0,62803,,320,240 F,0,62803,63535,0.5,0
Sprite,Foreground,Centre,"storyboard/white.png",320,240 M,0,87681,,320,240 F,0,87681,88047,0.5,0
Sprite,Foreground,Centre,"storyboard/white.png",320,240 C,0,15,,163,118,221 M,0,14510,,320,240 S,0,14510,,0.1 F,0,14510,17437,0,1 V,0,14510,17437,0.01,0.005,1,0.005 F,0,24754,25486,1,0
//Storyboard Sound Samples

[TimingPoints]
1350,731.707317073171,4,2,1,70,1,0
10862,-100,4,2,1,40,0,0
11959,-100,4,2,1,60,0,0
12691,-100,4,2,1,65,0,0
13057,-100,4,2,1,80,0,0
26228,-100,4,2,1,40,0,0
26959,-100,4,2,1,70,0,0
49642,-100,4,2,1,75,0,0
59886,-100,4,2,1,80,0,0
62813,-100,4,2,1,85,0,1
74520,-100,4,2,1,90,0,1
84764,-100,4,2,1,80,0,1
85496,-100,4,2,1,75,0,1
86228,-100,4,2,1,70,0,1
86959,-100,4,2,1,65,0,1
87691,-100,4,2,1,60,0,0
99398,-100,4,2,1,40,0,0
100130,-100,4,2,1,70,0,0
122813,-100,4,2,1,40,0,0
123545,-100,4,2,1,75,0,0
135984,-100,4,2,1,85,0,1
147691,-100,4,2,1,90,0,1
159398,-100,4,2,1,80,0,0
171106,-100,4,2,1,85,0,0
174032,-100,4,2,1,90,0,0
176959,-100,4,2,1,80,0,0
179886,-100,4,2,1,70,0,0
185740,-100,4,2,1,75,0,0
197447,-100,4,2,1,85,0,1
209154,-100,4,2,1,75,0,1
213545,-100,4,2,1,70,0,0
236959,779.220779220779,4,2,1,80,1,0
238517,800,4,2,1,80,1,0
241317,821.917808219178,4,2,1,80,1,0

[HitObjects]
88,296,1350,5,2,0:0:0:0:
256,124,2813,1,2,0:0:0:0:
404,312,4276,2,0,P|436:256|436:176,2,120,0|0|2,0:0|0:0|0:0,0:0:0:0:
256,124,7203,1,2,0:0:0:0:
100,308,8667,1,2,0:0:0:0:
80,68,10130,6,0,P|140:52|204:76,1,120,0|4,0:0|0:0,0:0:0:0:
256,172,11593,2,0,P|316:188|380:168,2,120,8|0|4,0:0|0:0|0:0,0:0:0:0:
428,72,26228,6,0,B|448:140|448:140|436:200,1,120,4|8,0:0|0:0,0:0:0:0:
356,276,27691,2,0,B|336:200|336:200|348:136,1,120,0|8,0:0|0:0,0:0:0:0:
264,72,29154,2,0,L|132:60,1,120,0|8,0:0|0:0,0:0:0:0:
64,152,30618,2,0,L|208:168,1,120,0|8,0:0|0:0,0:0:0:0:
256,260,32081,5,0,0:0:0:0:
352,332,32813,2,0,P|412:312|448:268,1,120,8|0,0:0|0:0,0:0:0:0:
380,172,34276,1,8,0:0:0:0:
292,88,35008,2,0,P|216:84|172:48,2,120,0|8|0,0:0|0:0|0:0,0:0:0:0:
408,52,37203,1,8,0:0:0:0:
424,172,37935,6,0,L|412:308,1,120,0|8,0:0|0:0,0:0:0:0:
300,332,39398,2,0,P|244:340|176:316,1,120,0|8,0:0|0:0,0:0:0:0:
84,252,40862,1,0,0:0:0:0:
148,148,41593,1,8,0:0:0:0:
104,36,42325,2,0,L|232:52,1,120,0|8,0:0|0:0,0:0:0:0:
324,100,43789,6,0,B|344:168|344:168|336:244,1,120,0|8,0:0|0:0,0:0:0:0:
256,304,45252,2,0,B|240:224|240:224|252:164,1,120,0|8,0:0|0:0,0:0:0:0:
204,76,46715,2,0,P|152:108|128:176,2,120,0|8|0,0:0|0:0|0:0,0:0:0:0:
320,112,48910,2,0,L|396:128,2,60,8|8|4,0:0|0:0|0:0,0:0:0:0:
256,212,50374,5,0,0:0:0:0:
164,288,51106,2,0,P|112:224|100:172,1,120,0|8,0:0|0:0,0:0:0:0:
124,72,52569,2,0,P|184:48|256:64,1,120,0|8,0:0|0:0,0:0:0:0:
244,176,54032,2,0,P|324:148|352:100,2,120,0|8|0,0:0|0:0|0:0,0:0:0:0:
140,236,56228,5,8,0:0:0:0:
252,284,56959,2,0,L|396:296,1,120,0|8,0:0|0:0,0:0:0:0:
444,196,58423,2,0,B|452:124|452:124|440:64,1,120,0|8,0:0|0:0,0:0:0:0:
256,192,59886,12,0,62081,0:0:0:0:
412,76,62813,6,0,P|348:72|288:112,1,120,4|8,0:0|0:0,0:0:0:0:
316,216,64276,2,0,P|252:232|192:216,1,120,0|8,0:0|0:0,0:0:0:0:
108,140,65740,2,0,L|88:272,2,120,0|8|0,0:0|0:0|0:0,0:0:0:0:
208,76,67935,6,0,P|260:64|328:80,1,120,8|0,0:0|0:0,0:0:0:0:
324,200,69398,2,0,P|248:216|192:192,1,120,8|0,0:0|0:0,0:0:0:0:
132,116,70862,1,8,0:0:0:0:
76,220,71593,1,0,0:0:0:0:
152,316,72325,6,0,B|232:328|232:328|296:304|352:304|352:304|396:320,1,240,8|8,0:0|0:0,0:0:0:0:
452,216,74520,1,4,0:0:0:0:
416,100,75252,2,0,P|332:88|288:104,1,120,8|0,0:0|0:0,0:0:0:0:
236,200,76715,2,0,P|164:212|116:196,2,120,8|0|8,0:0|0:0|0:0,0:0:0:0:
344,144,78910,6,0,L|360:264,1,120,0|8,0:0|0:0,0:0:0:0:
264,328,80374,1,0,0:0:0:0:
164,264,81106,1,8,0:0:0:0:
156,148,81837,2,0,P|212:96|356:164,1,240
400,256,84032,2,0,L|396:340,1,60
256,192,84764,12,4,87691,0:0:0:0:
428,136,99398,5,4,0:0:0:0:
336,60,100130,2,0,B|248:60|248:60|204:72,1,120,8|0,0:0|0:0,0:0:0:0:
144,164,101593,2,0,B|232:164|232:164|284:144,1,120,8|0,0:0|0:0,0:0:0:0:
380,172,103057,2,0,P|392:240|376:300,1,120,8|0,0:0|0:0,0:0:0:0:
292,220,104520,2,0,P|280:164|296:100,1,120,8|0,0:0|0:0,0:0:0:0:
396,40,105984,5,8,0:0:0:0:
464,136,106715,2,0,L|448:264,1,120,0|8,0:0|0:0,0:0:0:0:
344,308,108179,2,0,P|280:320|208:304,1,120,0|8,0:0|0:0,0:0:0:0:
228,192,109642,2,0,P|292:180|356:196,1,120,0|8,0:0|0:0,0:0:0:0:
460,244,111106,6,0,B|472:160|472:160|456:100,1,120,0|8,0:0|0:0,0:0:0:0:
356,64,112569,1,0,0:0:0:0:
244,104,113301,2,0,P|184:124|120:108,1,120,8|0,0:0|0:0,0:0:0:0:
52,204,114764,2,0,P|40:272|64:328,1,120,8|0,0:0|0:0,0:0:0:0:
176,340,116228,5,8,0:0:0:0:
272,268,116959,2,0,L|408:256,1,120,0|8,0:0|0:0,0:0:0:0:
452,148,118423,2,0,L|320:136,1,120,0|8,0:0|0:0,0:0:0:0:
236,68,119886,2,0,P|212:116|220:188,1,120,0|8,0:0|0:0,0:0:0:0:
336,200,121350,2,0,P|348:240|332:316,2,120,0|8|4,0:0|0:0|0:0,0:0:0:0:
256,104,123545,5,8,0:0:0:0:
144,148,124276,2,0,B|116:216|116:216|120:288,1,120,0|8,0:0|0:0,0:0:0:0:
204,344,125740,2,0,B|224:272|224:272|220:224,1,120,0|8,0:0|0:0,0:0:0:0:
260,108,127203,2,0,L|248:24,2,60,0|0|8,0:0|0:0|0:0,0:0:0:0:
364,172,128667,6,0,L|492:180,2,120,0|8|0,0:0|0:0|0:0,0:0:0:0:
244,184,130862,2,0,P|232:252|244:312,1,120,8|0,0:0|0:0,0:0:0:0:
120,300,132325,2,0,P|132:220|120:164,1,120,8|4,0:0|0:0,0:0:0:0:
100,64,133789,5,8,0:0:0:0:
220,44,134520,2,0,L|292:36,2,60,8|0|8,0:0|0:0|0:0,0:0:0:0:
204,164,135984,6,0,B|196:240|196:240|212:300,1,120,4|8,0:0|0:0,0:0:0:0:
308,348,137447,2,0,B|320:272|320:272|312:228,1,120,0|8,0:0|0:0,0:0:0:0:
320,108,138910,1,0,0:0:0:0:
312,228,139642,2,0,P|400:208|424:180,2,120,8|0|8,0:0|0:0|0:0,0:0:0:0:
196,204,141837,6,0,P|128:196|72:208,1,120,0|8,0:0|0:0,0:0:0:0:
136,312,143301,2,0,P|200:320|268:308,1,120,0|8,0:0|0:0,0:0:0:0:
352,240,144764,2,0,B|424:244|424:244|472:272,2,120,0|8|0,0:0|0:0|0:0,0:0:0:0:
252,168,146959,1,0,0:0:0:0:
164,88,147691,6,0,P|120:136|104:188,1,120,4|8,0:0|0:0,0:0:0:0:
168,292,149154,2,0,P|216:236|228:184,1,120,0|8,0:0|0:0,0:0:0:0:
260,76,150618,2,0,B|328:68|328:68|380:80,1,120,0|8,0:0|0:0,0:0:0:0:
456,172,152081,2,0,B|468:232|468:232|452:300,1,120,0|8,0:0|0:0,0:0:0:0:
340,328,153545,5,0,0:0:0:0:
256,244,154276,1,8,0:0:0:0:
184,148,155008,2,0,L|48:136,2,120,0|8|0,0:0|0:0|0:0,0:0:0:0:
284,80,157203,2,0,L|360:72,1,60,8|0,0:0|0:0,0:0:0:0:
256,192,157935,12,4,159398,0:0:0:0:
360,80,160130,6,0,P|392:152|392:204,1,120,8|0,0:0|0:0,0:0:0:0:
320,288,161593,2,0,P|296:248|288:172,1,120,8|0,0:0|0:0,0:0:0:0:
256,64,163057,1,8,0:0:0:0:
148,116,163789,1,0,0:0:0:0:
68,204,164520,6,0,B|56:280|56:280|72:336,1,120,8|0,0:0|0:0,0:0:0:0:
188,308,165984,2,0,P|248:300|316:320,1,120,8|0,0:0|0:0,0:0:0:0:
424,332,167447,2,0,B|440:288|440:288|424:200,1,120,8|0,0:0|0:0,0:0:0:0:
360,116,168910,1,8,0:0:0:0:
252,64,169642,2,0,L|112:52,1,120,8|2,0:0|0:0,0:0:0:0:
68,156,171106,6,0,P|56:228|76:288,1,120,4|8,0:0|0:0,0:0:0:0:
168,340,172569,2,0,P|184:276|172:216,1,120,0|8,0:0|0:0,0:0:0:0:
252,132,174032,2,0,L|384:124,1,120,0|8,0:0|0:0,0:0:0:0:
336,236,175496,2,0,L|208:244,1,120,0|8,0:0|0:0,0:0:0:0:
140,152,176959,1,4,0:0:0:0:
140,152,179886,5,4,0:0:0:0:
200,256,180618,2,0,P|272:264|328:248,1,120,0|2,0:0|0:0,0:0:0:0:
312,132,182081,2,0,P|252:116|180:136,1,120,0|2,0:0|0:0,0:0:0:0:
96,184,183545,2,0,L|84:312,2,120,8|8|8,0:0|0:0|0:0,0:0:0:0:
64,68,185740,1,4,0:0:0:0:
256,192,195984,12,4,197447,0:0:0:0:
412,68,198179,6,0,P|436:136|432:196,1,120,8|0,0:0|0:0,0:0:0:0:
364,280,199642,2,0,P|336:216|336:160,1,120,8|0,0:0|0:0,0:0:0:0:
256,72,201106,1,8,0:0:0:0:
144,112,201837,2,0,P|132:176|152:232,1,120,0|8,0:0|0:0,0:0:0:0:
252,292,203301,6,0,L|380:300,1,120,0|8,0:0|0:0,0:0:0:0:
364,180,204764,2,0,L|224:168,1,120,0|8,0:0|0:0,0:0:0:0:
132,212,206228,2,0,P|124:160|152:92,2,120,0|8|0,0:0|0:0|0:0,0:0:0:0:
236,268,208423,2,0,P|244:316|240:348,2,60,2|0|4,0:0|0:0|0:0,0:0:0:0:
380,80,210618,5,4,0:0:0:0:
348,316,212081,2,0,B|288:324|288:324|208:312,1,120,4|0,0:0|0:0,0:0:0:0:
256,192,213545,12,0,215740,0:0:0:0:
152,80,216471,6,0,P|172:144|160:208,1,120,0|8,0:0|0:0,0:0:0:0:
76,276,217935,2,0,P|140:312|204:304,1,120,0|8,0:0|0:0,0:0:0:0:
256,220,219398,1,0,0:0:0:0:
328,316,220130,2,0,P|396:296|432:244,1,120,8|0,0:0|0:0,0:0:0:0:
432,140,221593,5,8,0:0:0:0:
320,92,222325,2,0,B|260:80|260:80|184:96,1,120,0|8,0:0|0:0,0:0:0:0:
120,180,223789,2,0,B|180:196|180:196|244:184,1,120,0|8,0:0|0:0,0:0:0:0:
356,180,225252,6,0,P|368:232|352:296,1,120,4|8,0:0|0:0,0:0:0:0:
232,308,226715,2,0,L|112:296,1,120,0|8,0:0|0:0,0:0:0:0:
52,192,228179,2,0,L|180:184,1,120,0|8,0:0|0:0,0:0:0:0:
244,88,229642,2,0,P|292:144|300:200,2,120,0|8|0,0:0|0:0|0:0,0:0:0:0:
128,52,231837,5,8,0:0:0:0:
84,164,232569,2,0,P|68:240|84:288,1,120,0|8,0:0|0:0,0:0:0:0:
196,284,234032,2,0,P|208:216|192:160,1,120,0|8,0:0|0:0,0:0:0:0:
272,72,235496,2,0,L|396:88,1,120,0|8,0:0|0:0,0:0:0:0:
256,192,236959,12,0,242241,0:0:0:0:
