osu file format v14

[General]
AudioFilename: Toyosaki Aki - Shun Pu.mp3
AudioLeadIn: 0
PreviewTime: 61350
Countdown: 0
SampleSet: Normal
StackLeniency: 0.6
Mode: 1
LetterboxInBreaks: 0
WidescreenStoryboard: 1

[Editor]
DistanceSpacing: 2
BeatDivisor: 8
GridSize: 4
TimelineZoom: 1.3

[Metadata]
Title:Shun Puu
TitleUnicode:春風
Artist:Toyosaki Aki
ArtistUnicode:豊崎 愛生
Creator:eclipselotus
Version:Oni
Source:春風 Shun Pu
Tags:Love your life love my life Spring Breeze Tsuji Ayano SMCL 232 234 April 13 2011 Mllst -nanoRIPE- ibacot Sky Trias mraihani
BeatmapID:633071
BeatmapSetID:275549

[Difficulty]
HPDrainRate:4
CircleSize:7
OverallDifficulty:5
ApproachRate:10
SliderMultiplier:1.60000000596046
SliderTickRate:1

[Events]
//Background and Video events
0,0,"Pixiv.Id.4656825.full.1866765.jpg",0,0
//Break Periods
2,13258,25778
2,87892,93095
//Storyboard Layer 0 (Background)
//Storyboard Layer 1 (Fail)
//Storyboard Layer 2 (Pass)
//Storyboard Layer 3 (Foreground)
//Storyboard Sound Samples

[TimingPoints]
1350,731.707317073171,4,1,1,61,1,0
11959,-71.4285714285714,4,1,1,61,0,0
13057,-71.4285714285714,4,1,1,80,0,0
26228,-71.4285714285714,4,1,1,61,0,0
43423,-71.4285714285714,4,1,1,61,0,0
43789,-71.4285714285714,4,1,1,61,0,0
54032,-71.4285714285714,4,1,1,61,0,0
59886,-71.4285714285714,4,1,1,10,0,0
60252,-71.4285714285714,4,1,1,30,0,0
60618,-71.4285714285714,4,1,1,50,0,0
60984,-71.4285714285714,4,1,1,70,0,0
61167,-71.4285714285714,4,1,1,90,0,0
61350,-71.4285714285714,4,1,1,100,0,0
62813,-66.6666666666667,4,1,1,70,0,1
84764,-71.4285714285714,4,1,1,100,0,0
84947,-71.4285714285714,4,1,1,85,0,0
85496,-71.4285714285714,4,1,1,75,0,0
86228,-71.4285714285714,4,1,1,50,0,0
86959,-71.4285714285714,4,1,1,25,0,0
87691,-71.4285714285714,4,1,1,10,0,0
93545,-71.4285714285714,4,1,1,80,0,0
133057,-71.4285714285714,4,1,1,40,0,0
133423,-71.4285714285714,4,1,1,55,0,0
133789,-71.4285714285714,4,1,1,70,0,0
134154,-71.4285714285714,4,1,1,90,0,0
134886,-71.4285714285714,4,1,1,50,0,0
135984,-66.6666666666667,4,1,1,70,0,1
157569,-71.4285714285714,4,1,1,80,0,0
157935,-71.4285714285714,4,1,1,70,0,0
158301,-71.4285714285714,4,1,1,60,0,0
158667,-71.4285714285714,4,1,1,40,0,0
159398,-71.4285714285714,4,1,1,61,0,0
185740,-66.6666666666667,4,1,1,70,0,1
209154,-71.4285714285714,4,1,1,60,0,0
236959,779.220779220779,4,1,1,60,1,0
238517,800,4,1,1,60,1,0
240117,-71.4285714285714,4,1,1,50,0,0
240717,-71.4285714285714,4,1,1,40,0,0
241117,-71.4285714285714,4,1,1,30,0,0
241317,821.917808219178,4,1,1,30,1,0
241933,-71.4285714285714,4,1,1,20,0,0
242344,-71.4285714285714,4,1,1,10,0,0

[HitObjects]
256,192,618,5,0,0:0:0:0:
256,192,801,1,0,0:0:0:0:
256,192,892,1,2,0:0:0:0:
256,192,984,1,8,0:0:0:0:
256,192,1167,1,4,0:0:0:0:
256,192,1350,5,0,0:0:0:0:
256,192,1715,1,0,0:0:0:0:
256,192,2081,1,8,0:0:0:0:
256,192,2447,1,8,0:0:0:0:
256,192,2630,1,8,0:0:0:0:
256,192,2814,1,0,0:0:0:0:
256,192,3179,1,8,0:0:0:0:
256,192,3545,1,8,0:0:0:0:
256,192,3910,1,0,0:0:0:0:
256,192,4002,1,2,0:0:0:0:
256,192,4093,1,2,0:0:0:0:
256,192,4185,1,0,0:0:0:0:
256,192,4276,1,0,0:0:0:0:
256,192,4459,1,0,0:0:0:0:
256,192,4642,1,0,0:0:0:0:
256,192,5008,1,8,0:0:0:0:
256,192,5374,1,0,0:0:0:0:
256,192,5740,1,0,0:0:0:0:
256,192,5923,1,2,0:0:0:0:
256,192,6014,1,2,0:0:0:0:
256,192,6106,1,8,0:0:0:0:
256,192,6472,1,0,0:0:0:0:
256,192,6654,1,0,0:0:0:0:
256,192,6746,1,0,0:0:0:0:
256,192,6838,5,0,0:0:0:0:
256,192,7020,1,8,0:0:0:0:
256,192,7204,1,0,0:0:0:0:
256,192,7387,1,0,0:0:0:0:
256,192,7753,1,8,0:0:0:0:
256,192,8301,1,0,0:0:0:0:
256,192,8484,1,0,0:0:0:0:
256,192,8667,1,4,0:0:0:0:
256,192,9032,1,8,0:0:0:0:
256,192,9215,1,8,0:0:0:0:
256,192,9399,1,8,0:0:0:0:
256,192,9765,1,0,0:0:0:0:
256,192,10131,1,0,0:0:0:0:
256,192,10497,1,0,0:0:0:0:
256,192,10679,1,0,0:0:0:0:
256,192,10862,1,0,0:0:0:0:
256,192,11228,1,0,0:0:0:0:
256,192,11411,1,0,0:0:0:0:
256,192,11594,1,8,0:2:0:0:
256,192,11960,1,0,0:0:0:0:
256,192,12143,1,0,0:0:0:0:
256,192,12326,1,2,0:0:0:0:
256,192,12509,1,0,0:0:0:0:
256,192,12600,1,0,0:0:0:0:
256,192,12692,1,0,0:0:0:0:
256,192,12875,1,0,0:0:0:0:
256,192,13058,1,6,0:0:0:0:
256,192,26228,5,4,0:0:0:0:
256,192,26594,1,8,0:0:0:0:
256,192,26777,1,8,0:0:0:0:
256,192,26960,5,0,0:0:0:0:
256,192,27326,1,8,0:0:0:0:
256,192,27508,1,0,0:0:0:0:
256,192,27692,1,0,0:0:0:0:
256,192,28058,1,8,0:0:0:0:
256,192,28148,1,8,0:0:0:0:
256,192,28240,1,8,0:0:0:0:
256,192,28423,1,8,0:0:0:0:
256,192,28789,1,0,0:0:0:0:
256,192,29155,1,2,0:0:0:0:
256,192,29521,1,0,0:0:0:0:
256,192,29704,1,0,0:0:0:0:
256,192,29887,1,0,0:0:0:0:
256,192,30253,1,8,0:0:0:0:
256,192,30436,1,8,0:0:0:0:
256,192,30801,1,8,0:0:0:0:
256,192,30984,1,8,0:0:0:0:
256,192,31350,1,0,0:0:0:0:
256,192,31716,1,0,0:0:0:0:
256,192,32082,1,2,0:0:0:0:
256,192,32448,1,0,0:0:0:0:
256,192,32631,1,8,0:0:0:0:
256,192,32814,1,0,0:0:0:0:
256,192,32997,1,0,0:0:0:0:
256,192,33179,1,0,0:0:0:0:
256,192,33362,1,8,0:0:0:0:
256,192,33453,1,8,0:0:0:0:
256,192,33545,1,0,0:0:0:0:
256,192,33911,1,0,0:0:0:0:
112,192,34277,2,0,B|216:192|312:192|408:192,1,279.999992289543
256,192,35374,1,0,0:0:0:0:
256,192,35740,1,8,0:0:0:0:
256,192,35831,1,8,0:0:0:0:
256,192,35923,1,8,0:0:0:0:
256,192,36289,1,8,0:0:0:0:
256,192,36472,1,4,0:0:0:0:
256,192,36838,1,8,0:0:0:0:
256,192,37021,1,4,0:0:0:0:
256,192,37387,1,8,0:0:0:0:
256,192,37570,1,8,0:0:0:0:
256,192,37753,1,0,0:0:0:0:
256,192,37936,5,2,0:0:0:0:
256,192,38301,1,0,0:0:0:0:
256,192,38667,1,0,0:0:0:0:
256,192,39033,1,0,0:0:0:0:
256,192,39399,1,8,0:0:0:0:
256,192,39490,1,8,0:0:0:0:
256,192,39582,1,8,0:0:0:0:
256,192,39764,1,0,0:0:0:0:
256,192,39948,1,8,0:0:0:0:
256,192,40131,1,8,0:0:0:0:
256,192,40497,1,0,0:0:0:0:
256,192,40862,1,6,0:2:0:0:
256,192,41594,1,0,0:0:0:0:
256,192,41960,1,0,0:0:0:0:
256,192,42326,1,0,0:0:0:0:
256,192,42417,1,0,0:0:0:0:
256,192,42509,1,8,0:0:0:0:
256,192,42692,1,0,0:0:0:0:
256,192,43058,1,0,0:0:0:0:
256,192,43240,1,8,0:0:0:0:
256,192,43423,1,4,0:0:0:0:
256,192,43789,1,4,0:0:0:0:
256,192,44521,1,0,0:0:0:0:
256,192,44887,1,0,0:0:0:0:
256,192,45069,1,0,0:0:0:0:
256,192,45160,1,0,0:0:0:0:
256,192,45253,1,0,0:0:0:0:
256,192,45619,1,8,0:0:0:0:
256,192,45801,1,8,0:0:0:0:
256,192,46167,1,8,0:0:0:0:
256,192,46350,1,8,0:0:0:0:
256,192,46716,1,0,0:0:0:0:
256,192,47082,1,0,0:0:0:0:
256,192,47448,5,0,0:0:0:0:
256,192,47631,1,8,0:0:0:0:
256,192,47721,1,8,0:0:0:0:
256,192,47814,1,8,0:0:0:0:
256,192,47997,1,0,0:0:0:0:
256,192,48179,1,6,0:0:0:0:
256,192,48545,1,0,0:0:0:0:
256,192,48636,1,0,0:0:0:0:
256,192,48728,1,0,0:0:0:0:
256,192,48911,1,0,0:0:0:0:
256,192,49277,1,0,0:0:0:0:
256,192,49642,1,4,0:0:0:0:
256,192,50009,1,8,0:0:0:0:
256,192,50100,1,8,0:0:0:0:
256,192,50192,1,0,0:0:0:0:
256,192,50375,1,8,0:0:0:0:
256,192,50740,1,0,0:0:0:0:
256,192,51106,1,8,0:0:0:0:
256,192,51197,1,8,0:0:0:0:
256,192,51289,1,8,0:0:0:0:
256,192,51471,1,0,0:0:0:0:
256,192,51654,1,0,0:0:0:0:
256,192,51837,1,8,0:0:0:0:
256,192,51929,1,8,0:0:0:0:
256,192,52020,1,8,0:0:0:0:
256,192,52203,1,0,0:0:0:0:
256,192,52386,1,0,0:0:0:0:
256,192,52570,1,8,0:0:0:0:
256,192,52936,1,0,0:0:0:0:
256,192,53119,1,8,0:0:0:0:
256,192,53484,1,0,0:0:0:0:
256,192,53667,1,8,0:0:0:0:
256,192,54033,1,4,0:0:0:0:
256,192,54399,1,4,0:0:0:0:
256,192,54765,1,8,0:0:0:0:
256,192,54948,1,0,0:0:0:0:
256,192,55131,1,8,0:0:0:0:
256,192,55314,1,0,0:0:0:0:
256,192,55404,1,0,0:0:0:0:
256,192,55497,1,0,0:0:0:0:
256,192,55862,1,8,0:0:0:0:
256,192,55953,1,8,0:0:0:0:
256,192,56045,1,8,0:0:0:0:
256,192,56228,5,2,0:0:0:0:
256,192,56594,1,8,0:0:0:0:
256,192,56960,1,0,0:0:0:0:
256,192,57143,1,8,0:0:0:0:
256,192,57509,1,2,0:0:0:0:
256,192,57692,1,0,0:0:0:0:
256,192,58058,1,0,0:0:0:0:
256,192,58423,1,10,0:2:0:0:
256,192,58606,1,8,0:2:0:0:
256,192,58788,1,8,0:2:0:0:
256,192,58972,1,0,0:2:0:0:
256,192,59155,1,10,0:2:0:0:
256,192,59246,1,0,0:0:0:0:
256,192,59338,1,0,0:2:0:0:
256,192,59429,1,0,0:0:0:0:
256,192,59521,1,8,0:2:0:0:
256,192,59703,1,0,0:0:0:0:
256,192,59887,12,0,61350,0:0:0:0:
256,192,62082,5,8,0:0:0:0:
256,192,62265,1,0,0:0:0:0:
256,192,62448,1,8,0:0:0:0:
256,192,62631,1,0,0:0:0:0:
256,192,62814,5,4,0:0:0:0:
256,192,63179,1,0,0:0:0:0:
256,192,63545,1,8,0:0:0:0:
256,192,63728,1,0,0:0:0:0:
256,192,63911,1,8,0:0:0:0:
256,192,64094,1,0,0:0:0:0:
256,192,64277,1,4,0:0:0:0:
256,192,64643,1,0,0:0:0:0:
256,192,65009,1,0,0:0:0:0:
256,192,65100,1,0,0:0:0:0:
256,192,65192,1,0,0:0:0:0:
256,192,65375,1,8,0:0:0:0:
256,192,65740,1,0,0:0:0:0:
256,192,66106,1,8,0:0:0:0:
256,192,66197,1,8,0:0:0:0:
256,192,66289,1,8,0:0:0:0:
256,192,66472,1,8,0:0:0:0:
256,192,66654,1,0,0:0:0:0:
256,192,66838,1,4,0:0:0:0:
256,192,67021,1,2,0:0:0:0:
256,192,67387,1,0,0:0:0:0:
256,192,67570,1,6,0:0:0:0:
256,192,67936,1,8,0:0:0:0:
256,192,68301,1,0,0:0:0:0:
256,192,68484,1,8,0:0:0:0:
256,192,68575,1,8,0:0:0:0:
256,192,68667,1,0,0:0:0:0:
256,192,69033,1,8,0:0:0:0:
256,192,69399,1,8,0:0:0:0:
256,192,69765,1,0,0:0:0:0:
256,192,69948,1,8,0:0:0:0:
256,192,70039,1,8,0:0:0:0:
256,192,70131,1,0,0:0:0:0:
256,192,70497,1,8,0:0:0:0:
256,192,70862,1,0,0:0:0:0:
256,192,71228,1,0,0:0:0:0:
256,192,71319,1,0,0:0:0:0:
256,192,71410,1,0,0:0:0:0:
256,192,71594,1,0,0:0:0:0:
256,192,71959,1,0,0:0:0:0:
256,192,72051,1,0,0:0:0:0:
256,192,72143,1,8,0:0:0:0:
256,192,72326,1,8,0:0:0:0:
256,192,72692,1,0,0:0:0:0:
256,192,72782,1,0,0:0:0:0:
256,192,72875,1,0,0:0:0:0:
256,192,73240,1,6,0:1:0:0:
256,192,73423,1,0,0:0:0:0:
256,192,73789,1,0,0:0:0:0:
256,192,73972,1,0,0:0:0:0:
256,192,74155,1,8,0:0:0:0:
256,192,74338,1,8,0:0:0:0:
256,192,74429,1,8,0:0:0:0:
256,192,74521,1,8,0:0:0:0:
256,192,74887,1,4,0:0:0:0:
256,192,75253,1,0,0:0:0:0:
256,192,75436,1,8,0:0:0:0:
256,192,75618,1,8,0:0:0:0:
256,192,75801,1,8,0:0:0:0:
256,192,75892,1,8,0:0:0:0:
256,192,75984,1,0,0:0:0:0:
256,192,76350,1,4,0:0:0:0:
256,192,76716,1,0,0:0:0:0:
256,192,77081,1,8,0:0:0:0:
256,192,77173,1,0,0:0:0:0:
256,192,77264,1,0,0:0:0:0:
256,192,77447,1,0,0:0:0:0:
256,192,77630,1,0,0:0:0:0:
256,192,77813,1,8,0:0:0:0:
256,192,78179,1,0,0:0:0:0:
256,192,78545,1,8,0:0:0:0:
256,192,78636,1,8,0:0:0:0:
256,192,78728,1,8,0:0:0:0:
256,192,78910,1,0,0:0:0:0:
256,192,79277,1,0,0:0:0:0:
256,192,79460,1,2,0:0:0:0:
256,192,79826,5,4,0:0:0:0:
256,192,80009,1,8,0:0:0:0:
256,192,80192,1,8,0:0:0:0:
256,192,80375,1,8,0:0:0:0:
256,192,81106,1,0,0:0:0:0:
256,192,81472,1,8,0:0:0:0:
256,192,81655,1,8,0:0:0:0:
256,192,82021,1,8,0:0:0:0:
256,192,82204,1,8,0:0:0:0:
256,192,82570,1,0,0:0:0:0:
256,192,82936,1,0,0:0:0:0:
256,192,83301,1,8,0:0:0:0:
256,192,83484,1,0,0:0:0:0:
256,192,83575,1,0,0:0:0:0:
256,192,83667,1,0,0:0:0:0:
256,192,83850,1,0,0:0:0:0:
256,192,84033,1,8,0:0:0:0:
256,192,84216,1,0,0:0:0:0:
256,192,84307,1,0,0:0:0:0:
256,192,84399,1,0,0:0:0:0:
256,192,84582,1,0,0:0:0:0:
256,192,84765,1,12,0:0:0:0:
256,192,84947,12,2,87691,0:0:0:0:
256,192,93545,5,4,0:0:0:0:
256,192,94643,1,0,0:0:0:0:
256,192,95375,1,0,0:0:0:0:
256,192,95740,1,0,0:0:0:0:
256,192,96106,1,8,0:0:0:0:
256,192,96289,1,0,0:0:0:0:
256,192,96472,1,8,0:0:0:0:
256,192,96837,1,8,0:0:0:0:
256,192,96929,1,8,0:0:0:0:
256,192,97021,1,8,0:0:0:0:
120,192,97204,2,8,L|412:192,1,279.999992289543
256,192,98301,1,8,0:0:0:0:
256,192,98484,1,0,0:0:0:0:
256,192,98850,1,0,0:0:0:0:
256,192,99033,1,8,0:0:0:0:
256,192,99399,1,4,0:0:0:0:
256,192,100131,5,0,0:0:0:0:
256,192,100497,5,0,0:0:0:0:
256,192,100587,1,0,0:0:0:0:
256,192,100679,5,8,0:0:0:0:
256,192,100862,5,8,0:0:0:0:
256,192,101228,1,8,0:0:0:0:
256,192,101319,1,8,0:0:0:0:
256,192,101411,1,8,0:0:0:0:
256,192,101594,1,0,0:0:0:0:
256,192,101960,1,4,0:0:0:0:
256,192,102326,1,4,0:0:0:0:
256,192,102692,1,0,0:0:0:0:
256,192,102875,1,0,0:0:0:0:
256,192,103058,5,8,0:0:0:0:
256,192,103423,1,8,0:0:0:0:
256,192,103606,5,0,0:0:0:0:
256,192,103972,5,0,0:0:0:0:
256,192,104063,1,0,0:0:0:0:
256,192,104155,5,8,0:0:0:0:
256,192,104521,5,8,0:0:0:0:
256,192,104887,1,0,0:0:0:0:
256,192,105253,1,6,0:2:0:0:
256,192,105619,1,0,0:0:0:0:
256,192,105801,1,0,0:0:0:0:
256,192,105984,1,0,0:0:0:0:
256,192,106350,1,0,0:0:0:0:
256,192,106441,1,0,0:0:0:0:
256,192,106532,1,8,0:0:0:0:
256,192,106716,1,8,0:0:0:0:
256,192,106899,1,0,0:0:0:0:
256,192,107265,1,8,0:0:0:0:
256,192,107448,1,0,0:0:0:0:
256,192,107814,1,0,0:0:0:0:
256,192,108179,1,0,0:0:0:0:
256,192,108545,1,8,0:0:0:0:
256,192,108911,1,0,0:0:0:0:
256,192,109277,1,8,0:0:0:0:
256,192,109368,1,8,0:0:0:0:
256,192,109460,1,8,0:0:0:0:
256,192,109643,1,2,0:0:0:0:
256,192,110009,1,0,0:0:0:0:
256,192,110375,1,0,0:0:0:0:
256,192,110558,1,8,0:0:0:0:
256,192,110923,1,0,0:0:0:0:
256,192,111106,1,12,0:0:0:0:
256,192,111472,1,0,0:0:0:0:
256,192,111838,1,8,0:0:0:0:
256,192,112021,1,8,0:0:0:0:
256,192,112204,1,0,0:0:0:0:
256,192,112387,1,0,0:0:0:0:
256,192,112478,1,0,0:0:0:0:
256,192,112570,1,8,0:0:0:0:
256,192,112936,1,0,0:0:0:0:
256,192,113119,1,0,0:0:0:0:
256,192,113484,1,0,0:0:0:0:
256,192,113667,1,0,0:0:0:0:
256,192,114033,1,12,0:0:0:0:
256,192,114399,1,0,0:0:0:0:
256,192,114490,1,0,0:0:0:0:
256,192,114581,1,8,0:0:0:0:
256,192,114673,1,0,0:0:0:0:
256,192,114765,1,0,0:0:0:0:
256,192,114948,1,8,0:0:0:0:
256,192,115131,1,0,0:0:0:0:
256,192,115497,1,0,0:0:0:0:
256,192,115862,1,0,0:0:0:0:
256,192,116045,1,8,0:0:0:0:
256,192,116411,1,0,0:0:0:0:
256,192,116594,1,8,0:0:0:0:
256,192,116777,1,0,0:0:0:0:
256,192,116960,1,12,0:0:0:0:
256,192,117692,1,0,0:0:0:0:
256,192,118423,1,2,0:0:0:0:
256,192,119155,1,0,0:0:0:0:
256,192,119338,1,0,0:0:0:0:
256,192,119521,1,8,0:0:0:0:
256,192,119887,1,0,0:0:0:0:
256,192,119978,1,0,0:0:0:0:
256,192,120069,1,0,0:0:0:0:
256,192,120253,1,0,0:0:0:0:
256,192,120619,1,0,0:0:0:0:
256,192,120801,1,8,0:0:0:0:
256,192,120984,1,0,0:0:0:0:
256,192,121350,1,2,0:0:0:0:
256,192,121716,1,4,0:0:0:0:
256,192,121899,1,8,0:0:0:0:
256,192,122082,1,0,0:2:0:0:
256,192,122265,1,8,0:0:0:0:
256,192,122356,1,8,0:0:0:0:
256,192,122448,1,0,0:0:0:0:
256,192,122631,1,8,0:0:0:0:
256,192,122814,1,4,0:0:0:0:
256,192,123179,1,8,0:0:0:0:
256,192,123362,1,0,0:0:0:0:
256,192,123545,1,0,0:0:0:0:
256,192,123911,1,0,0:0:0:0:
256,192,124277,1,8,0:0:0:0:
256,192,124368,1,8,0:0:0:0:
256,192,124460,1,8,0:0:0:0:
256,192,124643,1,8,0:0:0:0:
256,192,125009,5,0,0:0:0:0:
256,192,125375,1,8,0:0:0:0:
256,192,125740,1,8,0:0:0:0:
256,192,126106,1,0,0:0:0:0:
256,192,126197,1,0,0:0:0:0:
256,192,126289,1,0,0:0:0:0:
256,192,126472,1,8,0:0:0:0:
256,192,126655,1,0,0:0:0:0:
256,192,127021,1,0,0:0:0:0:
256,192,127204,1,8,0:0:0:0:
256,192,127570,1,0,0:0:0:0:
256,192,127936,1,0,0:0:0:0:
256,192,128119,1,8,0:0:0:0:
256,192,128301,1,0,0:0:0:0:
256,192,128484,1,8,0:0:0:0:
256,192,128667,5,6,0:0:0:0:
256,192,129033,1,8,0:0:0:0:
256,192,129124,1,8,0:0:0:0:
256,192,129216,1,0,0:0:0:0:
256,192,129399,1,0,0:0:0:0:
256,192,129765,1,0,0:0:0:0:
256,192,129948,1,0,0:0:0:0:
256,192,130131,1,8,0:0:0:0:
256,192,130221,1,8,0:0:0:0:
256,192,130314,1,8,0:0:0:0:
256,192,130497,1,8,0:0:0:0:
256,192,130862,1,0,0:0:0:0:
256,192,131228,1,0,0:0:0:0:
256,192,131594,1,0,0:0:0:0:
256,192,131777,1,0,0:0:0:0:
256,192,131960,1,8,0:0:0:0:
256,192,132143,1,0,0:0:0:0:
256,192,132326,1,0,0:0:0:0:
256,192,132417,1,0,0:0:0:0:
256,192,132509,1,8,0:0:0:0:
256,192,132600,1,0,0:0:0:0:
256,192,132692,1,0,0:0:0:0:
256,192,132874,1,0,0:0:0:0:
256,192,133058,12,0,134155,0:0:0:0:
256,192,134887,5,0,0:0:0:0:
256,192,135070,1,8,0:0:0:0:
256,192,135253,1,0,0:0:0:0:
256,192,135436,1,0,0:0:0:0:
256,192,135619,1,8,0:0:0:0:
256,192,135801,1,8,0:0:0:0:
256,192,135984,5,4,0:0:0:0:
104,192,136350,2,0,L|404:192,1,300.000012338161
256,192,137448,1,4,0:0:0:0:
100,192,137814,2,0,L|400:192,1,300.000012338161
256,192,138911,1,4,0:0:0:0:
256,192,139094,1,0,0:0:0:0:
256,192,139277,1,0,0:0:0:0:
256,192,139643,1,0,0:0:0:0:
256,192,140009,1,8,0:0:0:0:
256,192,140100,1,8,0:0:0:0:
256,192,140192,1,8,0:0:0:0:
256,192,140375,1,0,0:0:0:0:
256,192,140557,1,0,0:0:0:0:
256,192,140740,1,8,0:0:0:0:
256,192,141106,1,0,0:0:0:0:
256,192,141289,1,0,0:0:0:0:
256,192,141472,1,8,0:0:0:0:
256,192,141838,1,6,0:0:0:0:
256,192,142021,1,0,0:0:0:0:
256,192,142204,1,2,0:0:0:0:
256,192,142570,1,0,0:0:0:0:
256,192,142936,1,0,0:0:0:0:
256,192,143301,1,6,0:0:0:0:
256,192,143484,1,0,0:0:0:0:
256,192,143667,1,8,0:0:0:0:
256,192,144033,1,0,0:0:0:0:
256,192,144399,1,8,0:0:0:0:
256,192,144582,1,8,0:0:0:0:
256,192,144765,1,0,0:0:0:0:
256,192,144948,1,0,0:0:0:0:
256,192,145314,1,0,0:0:0:0:
256,192,145497,1,0,0:0:0:0:
256,192,145862,1,12,0:2:0:0:
256,192,146228,1,12,0:2:0:0:
256,192,146593,1,0,0:0:0:0:
256,192,146685,1,0,0:0:0:0:
256,192,146776,1,0,0:0:0:0:
256,192,146868,1,0,0:0:0:0:
256,192,146959,1,8,0:0:0:0:
256,192,147325,1,0,0:0:0:0:
256,192,147692,1,4,0:0:0:0:
256,192,148057,1,8,0:0:0:0:
256,192,148149,1,8,0:0:0:0:
256,192,148240,1,8,0:0:0:0:
256,192,148332,1,8,0:0:0:0:
256,192,148423,1,0,0:0:0:0:
256,192,148789,1,8,0:0:0:0:
256,192,149155,1,4,0:0:0:0:
256,192,149521,1,8,0:0:0:0:
256,192,149612,1,8,0:0:0:0:
256,192,149704,1,0,0:0:0:0:
256,192,149887,1,8,0:0:0:0:
256,192,150070,1,8,0:0:0:0:
256,192,150160,1,0,0:0:0:0:
256,192,150253,1,0,0:0:0:0:
256,192,150435,1,0,0:0:0:0:
256,192,150619,1,0,0:0:0:0:
256,192,150801,1,8,0:0:0:0:
256,192,151167,1,8,0:0:0:0:
256,192,151350,1,8,0:0:0:0:
256,192,151715,1,0,0:0:0:0:
256,192,152082,1,8,0:0:0:0:
256,192,152448,1,0,0:0:0:0:
256,192,152631,1,0,0:0:0:0:
256,192,152814,5,4,0:0:0:0:
256,192,152997,1,0,0:0:0:0:
256,192,153087,1,0,0:0:0:0:
256,192,153179,1,8,0:0:0:0:
256,192,153362,1,8,0:0:0:0:
256,192,153453,1,8,0:0:0:0:
256,192,153545,1,8,0:0:0:0:
256,192,153728,1,6,0:0:0:0:
256,192,154277,1,0,0:0:0:0:
256,192,154460,1,0,0:0:0:0:
256,192,154826,1,0,0:0:0:0:
256,192,155009,1,0,0:0:0:0:
256,192,155375,1,0,0:0:0:0:
256,192,155740,1,8,0:0:0:0:
256,192,155831,1,8,0:0:0:0:
256,192,155923,1,8,0:0:0:0:
256,192,156106,1,8,0:0:0:0:
256,192,156472,1,0,0:0:0:0:
256,192,156655,1,0,0:0:0:0:
256,192,156838,1,0,0:0:0:0:
256,192,156929,1,0,0:0:0:0:
256,192,157021,1,8,0:0:0:0:
256,192,157204,1,0,0:0:0:0:
256,192,157569,1,8,0:0:0:0:
256,192,157752,12,0,158667,0:0:0:0:
256,192,159399,5,2,0:0:0:0:
256,192,159765,1,0,0:0:0:0:
256,192,160131,1,0,0:0:0:0:
256,192,160497,1,0,0:0:0:0:
256,192,160862,5,8,0:0:0:0:
256,192,161045,1,8,0:0:0:0:
256,192,161411,1,8,0:0:0:0:
256,192,161594,1,8,0:0:0:0:
256,192,161960,1,0,0:0:0:0:
256,192,162051,1,0,0:0:0:0:
256,192,162143,1,8,0:0:0:0:
256,192,162326,1,12,0:0:0:0:
108,192,162692,2,0,L|388:192,1,279.999992289543
256,192,163789,1,0,0:0:0:0:
256,192,164155,1,8,0:0:0:0:
256,192,164521,1,0,0:0:0:0:
256,192,165253,1,4,0:0:0:0:
256,192,165619,1,0,0:0:0:0:
256,192,165801,1,0,0:0:0:0:
256,192,165892,1,0,0:0:0:0:
256,192,165984,1,8,0:0:0:0:
256,192,166350,1,0,0:0:0:0:
256,192,166533,1,0,0:0:0:0:
256,192,166899,1,0,0:0:0:0:
256,192,167082,1,0,0:0:0:0:
256,192,167448,1,8,0:0:0:0:
256,192,168179,1,0,0:0:0:0:
256,192,168545,1,0,0:0:0:0:
256,192,168728,1,0,0:0:0:0:
256,192,168911,1,8,0:0:0:0:
256,192,169277,1,0,0:0:0:0:
256,192,169460,1,0,0:0:0:0:
256,192,169826,1,0,0:0:0:0:
256,192,170009,1,8,0:0:0:0:
256,192,170375,5,0,0:0:0:0:
256,192,170740,1,0,0:0:0:0:
256,192,171106,1,8,0:0:0:0:
256,192,171197,1,8,0:0:0:0:
256,192,171289,1,8,0:0:0:0:
256,192,171380,1,8,0:0:0:0:
256,192,171472,1,8,0:0:0:0:
256,192,171838,1,0,0:0:0:0:
256,192,171929,1,0,0:0:0:0:
256,192,172021,1,0,0:0:0:0:
256,192,172112,1,0,0:0:0:0:
256,192,172204,1,0,0:0:0:0:
256,192,172570,1,8,0:0:0:0:
256,192,172660,1,8,0:0:0:0:
256,192,172753,1,8,0:0:0:0:
256,192,172843,1,8,0:0:0:0:
256,192,172936,1,8,0:0:0:0:
256,192,173301,1,0,0:0:0:0:
256,192,173392,1,0,0:0:0:0:
256,192,173484,1,0,0:0:0:0:
256,192,173575,1,0,0:0:0:0:
256,192,173667,1,0,0:0:0:0:
256,192,174033,1,0,0:0:0:0:
256,192,174124,1,0,0:0:0:0:
256,192,174216,1,8,0:0:0:0:
256,192,174398,1,8,0:0:0:0:
256,192,174581,1,0,0:0:0:0:
256,192,174764,1,8,0:0:0:0:
256,192,175131,1,8,0:0:0:0:
256,192,175314,1,8,0:0:0:0:
256,192,175679,1,8,0:0:0:0:
256,192,175862,1,0,0:0:0:0:
256,192,176228,1,8,0:0:0:0:
256,192,176319,1,8,0:0:0:0:
256,192,176411,1,0,0:0:0:0:
256,192,176594,1,0,0:0:0:0:
256,192,176685,1,0,0:0:0:0:
256,192,176777,1,8,0:0:0:0:
256,192,176960,1,6,0:0:0:0:
256,192,179887,5,8,0:0:0:0:
256,192,180070,1,8,0:0:0:0:
256,192,180253,1,8,0:0:0:0:
256,192,180619,1,4,0:0:0:0:
256,192,180984,1,4,0:0:0:0:
256,192,181350,1,8,0:0:0:0:
256,192,181533,1,8,0:0:0:0:
256,192,181716,1,0,0:0:0:0:
256,192,182082,1,4,0:0:0:0:
256,192,182448,1,6,0:0:0:0:
256,192,182814,1,8,0:0:0:0:
256,192,182997,1,0,0:0:0:0:
256,192,183179,1,0,0:0:0:0:
256,192,183545,1,4,0:0:0:0:
256,192,183911,1,8,0:0:0:0:
256,192,184094,1,8,0:0:0:0:
256,192,184460,1,8,0:0:0:0:
256,192,184643,1,8,0:0:0:0:
256,192,185009,5,0,0:0:0:0:
256,192,185375,1,8,0:0:0:0:
256,192,185740,1,12,0:0:0:0:
256,192,186106,1,0,0:0:0:0:
256,192,186197,1,0,0:0:0:0:
256,192,186289,1,8,0:0:0:0:
256,192,186472,1,0,0:0:0:0:
256,192,186655,1,8,0:0:0:0:
256,192,186838,1,0,0:0:0:0:
256,192,186929,1,0,0:0:0:0:
256,192,187021,1,0,0:0:0:0:
256,192,187204,1,12,0:0:0:0:
256,192,187570,1,0,0:0:0:0:
256,192,187753,1,8,0:0:0:0:
256,192,187936,1,0,0:0:0:0:
256,192,188026,1,0,0:0:0:0:
256,192,188119,1,8,0:0:0:0:
256,192,188301,1,0,0:0:0:0:
256,192,188392,1,0,0:0:0:0:
256,192,188485,1,0,0:0:0:0:
256,192,188668,1,12,0:0:0:0:
256,192,189033,1,0,0:0:0:0:
256,192,189216,1,0,0:0:0:0:
256,192,189399,5,8,0:0:0:0:
256,192,189582,1,8,0:0:0:0:
256,192,189765,1,0,0:0:0:0:
256,192,189948,1,0,0:0:0:0:
256,192,190039,1,0,0:0:0:0:
256,192,190131,1,0,0:0:0:0:
256,192,190314,1,8,0:0:0:0:
256,192,190497,1,0,0:0:0:0:
256,192,190679,1,8,0:0:0:0:
256,192,190770,1,8,0:0:0:0:
256,192,190862,1,0,0:0:0:0:
256,192,191228,1,6,0:0:0:0:
256,192,191411,1,8,0:0:0:0:
256,192,191502,1,8,0:0:0:0:
256,192,191594,1,0,0:0:0:0:
256,192,191960,1,0,0:0:0:0:
256,192,192143,1,8,0:0:0:0:
256,192,192326,1,0,0:0:0:0:
256,192,192509,1,8,0:0:0:0:
256,192,192692,1,6,0:0:0:0:
256,192,192875,1,8,0:0:0:0:
256,192,192965,1,8,0:0:0:0:
256,192,193058,1,0,0:0:0:0:
256,192,193423,1,0,0:0:0:0:
256,192,193606,1,8,0:0:0:0:
256,192,193789,1,0,0:0:0:0:
256,192,193972,1,8,0:0:0:0:
256,192,194155,1,8,0:0:0:0:
256,192,194246,1,8,0:0:0:0:
256,192,194338,1,8,0:0:0:0:
256,192,194521,1,0,0:0:0:0:
256,192,194887,1,0,0:0:0:0:
256,192,195070,1,0,0:0:0:0:
256,192,195253,1,8,0:0:0:0:
256,192,195436,1,0,0:0:0:0:
256,192,195619,1,0,0:0:0:0:
256,192,195801,1,8,0:0:0:0:
256,192,195984,1,12,0:0:0:0:
256,192,196167,1,0,0:0:0:0:
256,192,196350,1,4,0:0:0:0:
256,192,196716,1,4,0:0:0:0:
256,192,197082,1,8,0:0:0:0:
256,192,197265,1,0,0:0:0:0:
256,192,197356,1,0,0:0:0:0:
256,192,197448,1,2,0:0:0:0:
256,192,197814,1,0,0:0:0:0:
256,192,198180,1,0,0:0:0:0:
256,192,198362,1,8,0:0:0:0:
256,192,198545,1,8,0:0:0:0:
256,192,198728,1,0,0:0:0:0:
256,192,198819,1,0,0:0:0:0:
256,192,198911,1,8,0:0:0:0:
256,192,199277,1,0,0:0:0:0:
256,192,199460,1,8,0:0:0:0:
256,192,199826,1,8,0:0:0:0:
256,192,200009,1,2,0:0:0:0:
256,192,200192,1,0,0:0:0:0:
256,192,200375,1,8,0:0:0:0:
256,192,200740,1,0,0:0:0:0:
256,192,200923,1,8,0:0:0:0:
256,192,201106,1,0,0:0:0:0:
256,192,201472,1,0,0:0:0:0:
256,192,201655,1,0,0:0:0:0:
256,192,201838,1,12,0:2:0:0:
256,192,202203,1,0,0:0:0:0:
112,192,202569,2,0,L|412:192,1,300.000012338161
256,192,203667,1,0,0:0:0:0:
256,192,203850,1,0,0:0:0:0:
256,192,204033,1,8,0:0:0:0:
256,192,204399,1,8,0:0:0:0:
256,192,204490,1,0,0:0:0:0:
256,192,204582,1,0,0:0:0:0:
256,192,204765,1,0,0:0:0:0:
256,192,204948,1,8,0:0:0:0:
256,192,205314,1,0,0:0:0:0:
256,192,205497,1,0,0:0:0:0:
256,192,205862,1,0,0:0:0:0:
256,192,206045,1,0,0:0:0:0:
256,192,206228,1,8,0:0:0:0:
256,192,206411,1,0,0:0:0:0:
256,192,206594,1,0,0:0:0:0:
256,192,206777,1,8,0:0:0:0:
256,192,206960,1,0,0:0:0:0:
256,192,207143,1,0,0:0:0:0:
256,192,207326,1,8,0:0:0:0:
256,192,207509,1,8,0:0:0:0:
256,192,207692,1,12,0:2:0:0:
256,192,208058,1,0,0:0:0:0:
256,192,208240,1,0,0:0:0:0:
256,192,208423,1,0,0:0:0:0:
256,192,208789,1,8,0:0:0:0:
256,192,208972,1,8,0:0:0:0:
256,192,209063,1,8,0:0:0:0:
256,192,209155,1,0,0:0:0:0:
256,192,209887,1,8,0:0:0:0:
256,192,210619,1,8,0:0:0:0:
256,192,210984,1,0,0:0:0:0:
256,192,211075,1,0,0:0:0:0:
256,192,211167,1,8,0:0:0:0:
256,192,211350,1,0,0:0:0:0:
256,192,211716,1,0,0:0:0:0:
256,192,211899,1,0,0:0:0:0:
256,192,212082,1,8,0:0:0:0:
256,192,212265,1,8,0:0:0:0:
256,192,212448,1,8,0:0:0:0:
256,192,212631,1,0,0:0:0:0:
256,192,212814,1,8,0:0:0:0:
256,192,212997,1,0,0:0:0:0:
256,196,213179,1,8,0:0:0:0:
256,192,213362,1,0,0:0:0:0:
256,192,213545,1,0,0:0:0:0:
112,192,213911,2,0,L|392:192,1,279.999992289543
256,192,215008,1,0,0:0:0:0:
256,192,215375,1,0,0:0:0:0:
256,192,215740,1,0,0:0:0:0:
256,192,216106,1,8,0:0:0:0:
256,192,216289,1,8,0:0:0:0:
256,192,216472,1,8,0:0:0:0:
256,192,216838,1,0,0:0:0:0:
256,192,217021,1,8,0:0:0:0:
256,192,217204,1,0,0:0:0:0:
256,192,217387,1,8,0:0:0:0:
256,192,217753,1,0,0:0:0:0:
256,192,217843,1,0,0:0:0:0:
256,192,217936,1,0,0:0:0:0:
256,192,218119,1,8,0:0:0:0:
256,192,218301,1,0,0:0:0:0:
256,192,218484,1,0,0:0:0:0:
256,192,218667,1,12,0:0:0:0:
256,192,219033,1,8,0:0:0:0:
256,192,219216,1,8,0:0:0:0:
256,192,219399,1,0,0:0:0:0:
256,192,219582,1,8,0:0:0:0:
256,192,219673,1,8,0:0:0:0:
256,192,219765,1,0,0:0:0:0:
256,192,219948,1,8,0:0:0:0:
256,192,220131,1,8,0:0:0:0:
256,192,220497,1,0,0:0:0:0:
256,192,220679,1,8,0:0:0:0:
256,192,220862,1,0,0:0:0:0:
256,192,221045,1,8,0:0:0:0:
256,192,221136,1,8,0:0:0:0:
256,192,221228,1,8,0:0:0:0:
256,192,221411,1,8,0:0:0:0:
256,192,221594,1,12,0:0:0:0:
256,192,221960,1,0,0:0:0:0:
256,192,222143,1,0,0:0:0:0:
256,192,222326,1,0,0:0:0:0:
256,192,222692,1,0,0:0:0:0:
256,192,222875,1,0,0:0:0:0:
256,192,223058,1,8,0:0:0:0:
256,192,223423,1,0,0:0:0:0:
256,192,223606,1,0,0:0:0:0:
256,192,223789,1,12,0:0:0:0:
256,192,223972,1,8,0:0:0:0:
256,192,224155,1,8,0:0:0:0:
256,192,224338,1,0,0:0:0:0:
256,192,224429,1,0,0:0:0:0:
256,192,224521,1,8,0:0:0:0:
256,192,224704,1,0,0:0:0:0:
256,192,224887,1,0,0:0:0:0:
256,192,225070,1,8,0:0:0:0:
256,192,225253,1,4,0:0:0:0:
256,192,225619,1,2,0:0:0:0:
256,192,225984,1,2,0:0:0:0:
256,192,226350,1,2,0:0:0:0:
256,192,226441,1,0,0:0:0:0:
256,192,226532,1,0,0:0:0:0:
256,192,226716,1,12,0:0:0:0:
256,192,227082,1,2,0:0:0:0:
256,192,227448,1,2,0:0:0:0:
256,192,227814,1,2,0:0:0:0:
256,192,227904,1,0,0:0:0:0:
256,192,227996,1,0,0:0:0:0:
256,192,228179,1,12,0:0:0:0:
256,192,228545,1,2,0:0:0:0:
256,192,228911,1,2,0:0:0:0:
256,192,229277,1,2,0:0:0:0:
256,192,229368,1,2,0:0:0:0:
256,192,229459,1,0,0:0:0:0:
256,192,229643,1,4,0:0:0:0:
256,192,230009,1,8,0:0:0:0:
256,192,230375,1,0,0:0:0:0:
256,192,230465,1,0,0:0:0:0:
256,192,230558,1,8,0:0:0:0:
256,192,230740,1,0,0:0:0:0:
256,192,230923,1,0,0:0:0:0:
256,192,231106,1,8,0:0:0:0:
256,192,231472,1,0,0:0:0:0:
256,192,231655,1,0,0:0:0:0:
256,192,231838,1,0,0:0:0:0:
256,192,232204,1,0,0:0:0:0:
256,192,232570,1,8,0:0:0:0:
256,192,232936,1,8,0:0:0:0:
256,192,233119,1,0,0:0:0:0:
256,192,233301,1,8,0:0:0:0:
256,192,233484,1,0,0:0:0:0:
256,192,233575,1,0,0:0:0:0:
256,192,233667,1,0,0:0:0:0:
256,192,233850,1,0,0:0:0:0:
256,192,234032,1,8,0:0:0:0:
256,192,234399,1,0,0:0:0:0:
256,192,234582,1,0,0:0:0:0:
256,192,234765,1,0,0:0:0:0:
256,192,235131,1,8,0:0:0:0:
256,192,235314,1,0,0:0:0:0:
256,192,235497,1,4,0:0:0:0:
256,192,235862,1,8,0:0:0:0:
256,192,236045,1,0,0:0:0:0:
256,192,236228,1,0,0:0:0:0:
256,192,236411,1,0,0:0:0:0:
256,192,236503,1,0,0:0:0:0:
256,192,236594,1,0,0:0:0:0:
256,192,236777,1,8,0:0:0:0:
256,192,236960,5,8,0:0:0:0:
256,192,237543,1,14,0:0:0:0:
256,192,238127,1,2,0:0:0:0:
256,192,238322,1,2,0:0:0:0:
256,192,238517,1,8,0:0:0:0:
256,192,238917,1,0,0:0:0:0:
256,192,239317,1,0,0:0:0:0:
256,192,240117,12,2,242241,0:0:0:0:
