osu file format v14

[General]
AudioFilename: Toyosaki Aki - Shun Pu.mp3
AudioLeadIn: 0
PreviewTime: 61350
Countdown: 0
SampleSet: Soft
StackLeniency: 0.7
Mode: 0
LetterboxInBreaks: 0
EpilepsyWarning: 1
WidescreenStoryboard: 1

[Editor]
DistanceSpacing: 1.5
BeatDivisor: 4
GridSize: 4
TimelineZoom: 1.3

[Metadata]
Title:Shun Puu
TitleUnicode:春風
Artist:Toyosaki Aki
ArtistUnicode:豊崎 愛生
Creator:eclipselotus
Version:Lotus
Source:春風 Shun Pu
Tags:Love your life love my life Spring Breeze Tsuji Ayano SMCL 232 234 April 13 2011 Mllst -nanoRIPE- ibacot Sky Trias mraihani
BeatmapID:633075
BeatmapSetID:275549

[Difficulty]
HPDrainRate:6
CircleSize:4
OverallDifficulty:5
ApproachRate:8
SliderMultiplier:2
SliderTickRate:2

[Events]
//Background and Video events
0,0,"Pixiv.Id.4656825.full.1866765.jpg",0,0
//Break Periods
2,13257,22551
2,93745,99014
2,177159,179136
//Storyboard Layer 0 (Background)
//Storyboard Layer 1 (Fail)
//Storyboard Layer 2 (Pass)
//Storyboard Layer 3 (Foreground)
Sprite,Foreground,Centre,"storyboard/black.png",320,240 F,0,13047,13779,0,0.5 F,0,25486,26218,0.5,0
Sprite,Foreground,TopRight,"storyboard/lyric01.png",400,240 S,0,26218,,0.5 F,0,26218,26583,0,1 M,0,26218,29144,600,400,596,400 F,0,28779,29144,1,0
Sprite,Foreground,TopRight,"storyboard/lyric02.png",320,240 S,0,26218,,0.5 F,0,29144,29510,0,1 M,0,29144,32071,600,400,596,400 F,0,31339,32071,1,0
Sprite,Foreground,TopRight,"storyboard/lyric03.png",400,240 S,0,26218,,0.5 F,0,32071,32437,0,1 M,0,32071,37925,600,400,596,400 F,0,37559,37925,1,0
Sprite,Foreground,TopRight,"storyboard/lyric04.png",320,240 S,0,26218,,0.5 F,0,37925,38291,0,1 M,0,37925,40852,600,400,596,400 F,0,40486,40852,1,0
Sprite,Foreground,TopRight,"storyboard/lyric05.png",400,240 S,0,26218,,0.5 F,0,40852,41218,0,1 M,0,40852,43779,600,400,596,400 F,0,43413,43779,1,0
Sprite,Foreground,TopRight,"storyboard/lyric06.png",320,240 S,0,26218,,0.5 F,0,43779,44145,0,1 M,0,43779,45974,600,400,596,400 F,0,45608,45974,1,0
Sprite,Foreground,TopRight,"storyboard/lyric06.png",320,240 S,0,26218,,0.5 F,0,43779,44145,0,1 M,0,43779,45974,470,400,466,400 F,0,45608,45974,1,0
Sprite,Foreground,TopRight,"storyboard/lyric07.png",400,240 S,0,26218,,0.5 F,0,45974,46340,0,1 M,0,45974,48900,600,400,596,400 F,0,48534,48900,1,0
Sprite,Foreground,TopLeft,"storyboard/lyric08.png",400,240 S,0,15,,0.5 F,0,49632,49998,0,1 M,0,49632,54754,40,400,44,400 F,0,54388,54754,1,0
Sprite,Foreground,TopLeft,"storyboard/lyric09.png",400,240 S,0,15,,0.5 F,0,49632,49998,0,1 M,0,49632,54754,200,400,204,400 F,0,54388,54754,1,0
Sprite,Foreground,TopLeft,"storyboard/lyric10.png",400,240 S,0,15,,0.5 F,0,55486,55852,0,1 M,0,55486,61340,40,400,44,400 F,0,60974,61340,1,0
Sprite,Foreground,TopLeft,"storyboard/lyric11.png",400,240 S,0,15,,0.5 F,0,55486,55852,0,1 M,0,55486,61340,160,400,164,400 F,0,60974,61340,1,0
Sprite,Foreground,TopRight,"storyboard/lyric12.png",400,240 S,0,15,,0.5 F,0,62071,62437,0,1 M,0,62071,67925,320,320,316,320 F,0,67559,67925,1,0
Sprite,Foreground,TopLeft,"storyboard/lyric13.png",400,240 S,0,15,,0.5 F,0,62071,62437,0,1 M,0,62071,67925,320,320,324,320 F,0,67559,67925,1,0
Sprite,Foreground,Centre,"storyboard/lyric14.png",400,240 S,0,15,,0.6 F,0,62071,62437,0,1 M,0,62071,67925,320,400 S,0,62071,67925,0.6,0.65 F,0,67559,67925,1,0
Sprite,Foreground,TopRight,"storyboard/lyric15.png",400,240 S,0,15,,0.5 F,0,67925,68291,0,1 M,0,67925,73413,320,320,316,320 F,0,72681,73413,1,0
Sprite,Foreground,TopLeft,"storyboard/lyric15.png",400,240 S,0,15,,0.5 F,0,67925,68291,0,1 M,0,67925,73413,320,320,324,320 F,0,72681,73413,1,0
Sprite,Foreground,Centre,"storyboard/lyric16.png",400,240 S,0,15,,0.6 F,0,67925,68291,0,1 M,0,67925,73413,320,400 S,0,67925,73413,0.6,0.65 F,0,72681,73413,1,0
Sprite,Foreground,TopRight,"storyboard/lyric17.png",400,240 S,0,15,,0.5 F,0,73779,74145,0,1 M,0,73779,79632,320,350,316,350 F,0,79266,79632,1,0
Sprite,Foreground,TopLeft,"storyboard/lyric18.png",400,240 S,0,15,,0.5 F,0,73779,74145,0,1 M,0,73779,79632,320,350,324,350 F,0,79266,79632,1,0
Sprite,Foreground,TopRight,"storyboard/lyric19.png",400,240 S,0,15,,0.5 F,0,73779,74145,0,1 M,0,73779,79632,320,400,316,400 F,0,79266,79632,1,0
Sprite,Foreground,TopLeft,"storyboard/lyric20.png",400,240 S,0,15,,0.5 F,0,73779,74145,0,1 M,0,73779,79632,320,400,324,400 F,0,79266,79632,1,0
Sprite,Foreground,TopRight,"storyboard/lyric21.png",400,240 S,0,15,,0.5 F,0,79632,79998,0,1 M,0,79632,85486,320,350,316,350 F,0,85120,85486,1,0
Sprite,Foreground,TopLeft,"storyboard/lyric22.png",400,240 S,0,15,,0.5 F,0,79632,79998,0,1 M,0,79632,85486,320,350,324,350 F,0,85120,85486,1,0
Sprite,Foreground,TopRight,"storyboard/lyric23.png",400,240 S,0,15,,0.5 F,0,79632,79998,0,1 M,0,79632,85486,320,400,316,400 F,0,85120,85486,1,0
Sprite,Foreground,TopLeft,"storyboard/lyric24.png",400,240 S,0,15,,0.5 F,0,79632,79998,0,1 M,0,79632,85486,320,400,324,400 F,0,85120,85486,1,0
Sprite,Foreground,TopRight,"storyboard/lyric25.png",400,240 S,0,15,,0.5 F,0,99388,99754,0,1 M,0,99388,102315,600,400,596,400 F,0,101949,102315,1,0
Sprite,Foreground,TopRight,"storyboard/lyric26.png",400,240 S,0,15,,0.5 F,0,102315,102681,0,1 M,0,102315,105242,600,400,596,400 F,0,104876,105242,1,0
Sprite,Foreground,TopRight,"storyboard/lyric27.png",400,240 S,0,15,,0.5 F,0,105242,105608,0,1 M,0,105242,111096,600,400,596,400 F,0,110730,111096,1,0
Sprite,Foreground,TopLeft,"storyboard/lyric28.png",400,240 S,0,26218,,0.5 F,0,111096,111462,0,1 M,0,111096,114022,40,400,44,400 F,0,113656,114022,1,0
Sprite,Foreground,TopLeft,"storyboard/lyric05.png",400,240 S,0,26218,,0.5 F,0,114022,114388,0,1 M,0,114022,116949,40,400,44,400 F,0,116583,116949,1,0
Sprite,Foreground,TopRight,"storyboard/lyric29.png",320,240 S,0,26218,,0.5 F,0,116949,117315,0,1 M,0,116949,122071,600,400,596,400 F,0,121705,122071,1,0
Sprite,Foreground,TopRight,"storyboard/lyric30.png",320,240 S,0,26218,,0.5 F,0,122437,122803,0,1 M,0,122437,128657,400,400,396,400 F,0,128291,128657,1,0
Sprite,Foreground,TopRight,"storyboard/lyric31.png",320,240 S,0,26218,,0.5 F,0,122437,122803,0,1 M,0,122437,128657,600,400,596,400 F,0,128291,128657,1,0
Sprite,Foreground,TopRight,"storyboard/lyric32.png",320,240 S,0,26218,,0.5 F,0,128657,129023,0,1 M,0,128657,134510,400,400,396,400 F,0,134144,134510,1,0
Sprite,Foreground,TopRight,"storyboard/lyric33.png",320,240 S,0,26218,,0.5 F,0,128657,129023,0,1 M,0,128657,134510,600,400,596,400 F,0,134144,134510,1,0
Sprite,Foreground,TopRight,"storyboard/lyric12.png",400,240 S,0,15,,0.5 F,0,134876,135242,0,1 M,0,134876,140730,320,320,316,320 F,0,140364,140730,1,0
Sprite,Foreground,TopLeft,"storyboard/lyric34.png",400,240 S,0,15,,0.5 F,0,134876,135242,0,1 M,0,134876,140730,320,320,324,320 F,0,140364,140730,1,0
Sprite,Foreground,Centre,"storyboard/lyric35.png",400,240 S,0,15,,0.6 F,0,134876,135242,0,1 M,0,134876,140730,320,400 S,0,134876,140730,0.6,0.65 F,0,140364,140730,1,0
Sprite,Foreground,TopRight,"storyboard/lyric15.png",400,240 S,0,15,,0.5 F,0,141096,141462,0,1 M,0,141096,146584,320,320,316,320 F,0,145852,146584,1,0
Sprite,Foreground,TopLeft,"storyboard/lyric15.png",400,240 S,0,15,,0.5 F,0,141096,141462,0,1 M,0,141096,146584,320,320,324,320 F,0,145852,146584,1,0
Sprite,Foreground,Centre,"storyboard/lyric16.png",400,240 S,0,15,,0.6 F,0,141096,141462,0,1 M,0,141096,146584,320,400 S,0,141096,146584,0.6,0.65 F,0,145852,146584,1,0
Sprite,Foreground,TopRight,"storyboard/lyric17.png",400,240 S,0,15,,0.5 F,0,146583,146949,0,1 M,0,146583,152436,320,350,316,350 F,0,152070,152436,1,0
Sprite,Foreground,TopLeft,"storyboard/lyric18.png",400,240 S,0,15,,0.5 F,0,146583,146949,0,1 M,0,146583,152436,320,350,324,350 F,0,152070,152436,1,0
Sprite,Foreground,TopRight,"storyboard/lyric19.png",400,240 S,0,15,,0.5 F,0,146583,146949,0,1 M,0,146583,152436,320,400,316,400 F,0,152070,152436,1,0
Sprite,Foreground,TopLeft,"storyboard/lyric20.png",400,240 S,0,15,,0.5 F,0,146583,146949,0,1 M,0,146583,152436,320,400,324,400 F,0,152070,152436,1,0
Sprite,Foreground,TopRight,"storyboard/lyric21.png",400,240 S,0,15,,0.5 F,0,152803,153169,0,1 M,0,152803,158657,320,350,316,350 F,0,158291,158657,1,0
Sprite,Foreground,TopLeft,"storyboard/lyric22.png",400,240 S,0,15,,0.5 F,0,152803,153169,0,1 M,0,152803,158657,320,350,324,350 F,0,158291,158657,1,0
Sprite,Foreground,TopRight,"storyboard/lyric23.png",400,240 S,0,15,,0.5 F,0,152803,153169,0,1 M,0,152803,158657,320,400,316,400 F,0,158291,158657,1,0
Sprite,Foreground,TopLeft,"storyboard/lyric24.png",400,240 S,0,15,,0.5 F,0,152803,153169,0,1 M,0,152803,158657,320,400,324,400 F,0,158291,158657,1,0
Sprite,Foreground,TopRight,"storyboard/lyric12.png",400,240 S,0,15,,0.5 F,0,184998,185364,0,1 M,0,184998,190852,320,320,316,320 F,0,190486,190852,1,0
Sprite,Foreground,TopLeft,"storyboard/lyric13.png",400,240 S,0,15,,0.5 F,0,184998,185364,0,1 M,0,184998,190852,320,320,324,320 F,0,190486,190852,1,0
Sprite,Foreground,Centre,"storyboard/lyric14.png",400,240 S,0,15,,0.6 F,0,184998,185364,0,1 M,0,184998,190852,320,400 S,0,184998,190852,0.6,0.65 F,0,190486,190852,1,0
Sprite,Foreground,TopRight,"storyboard/lyric15.png",400,240 S,0,15,,0.5 F,0,190852,191848,0,1 M,0,190852,196340,320,320,316,320 F,0,195608,196340,1,0
Sprite,Foreground,TopLeft,"storyboard/lyric15.png",400,240 S,0,15,,0.5 F,0,190852,191848,0,1 M,0,190852,196340,320,320,324,320 F,0,195608,196340,1,0
Sprite,Foreground,Centre,"storyboard/lyric16.png",400,240 S,0,15,,0.6 F,0,190852,191848,0,1 M,0,190852,196340,320,400 S,0,190852,196340,0.6,0.65 F,0,195608,196340,1,0
Sprite,Foreground,TopRight,"storyboard/lyric17.png",320,240 S,0,15,,0.5 F,0,196705,197071,0,1 M,0,196705,202559,320,350,316,350 F,0,202193,202559,1,0
Sprite,Foreground,TopLeft,"storyboard/lyric18.png",400,240 S,0,15,,0.5 F,0,196705,197071,0,1 M,0,196705,202559,320,350,324,350 F,0,202193,202559,1,0
Sprite,Foreground,TopRight,"storyboard/lyric19.png",400,240 S,0,15,,0.5 F,0,196705,197071,0,1 M,0,196705,202559,320,400,316,400 F,0,202193,202559,1,0
Sprite,Foreground,TopLeft,"storyboard/lyric20.png",400,240 S,0,15,,0.5 F,0,196705,197071,0,1 M,0,196705,202559,320,400,324,400 F,0,202193,202559,1,0
Sprite,Foreground,TopRight,"storyboard/lyric21.png",400,240 S,0,15,,0.5 F,0,202559,202925,0,1 M,0,202559,208413,320,350,316,350 F,0,208047,208413,1,0
Sprite,Foreground,TopLeft,"storyboard/lyric22.png",400,240 S,0,15,,0.5 F,0,202559,202925,0,1 M,0,202559,208413,320,350,324,350 F,0,208047,208413,1,0
Sprite,Foreground,TopRight,"storyboard/lyric23.png",400,240 S,0,15,,0.5 F,0,202559,202925,0,1 M,0,202559,208413,320,400,316,400 F,0,208047,208413,1,0
Sprite,Foreground,TopLeft,"storyboard/lyric24.png",400,240 S,0,15,,0.5 F,0,202559,202925,0,1 M,0,202559,208413,320,400,324,400 F,0,208047,208413,1,0
Sprite,Foreground,TopRight,"storyboard/lyric21.png",400,240 S,0,15,,0.5 F,0,208413,208779,0,1 M,0,208413,213900,320,350,316,350 F,0,213535,213900,1,0
Sprite,Foreground,TopLeft,"storyboard/lyric22.png",400,240 S,0,15,,0.5 F,0,208413,208779,0,1 M,0,208413,213900,320,350,324,350 F,0,213535,213900,1,0
Sprite,Foreground,TopRight,"storyboard/lyric23.png",400,240 S,0,15,,0.5 F,0,208413,208779,0,1 M,0,208413,213900,320,400,316,400 F,0,213535,213900,1,0
Sprite,Foreground,TopLeft,"storyboard/lyric24.png",400,240 S,0,15,,0.5 F,0,208413,208779,0,1 M,0,208413,213900,320,400,324,400 F,0,213535,213900,1,0
Sprite,Foreground,Centre,"storyboard/white.png",320,240 M,0,62803,,320,240 F,0,62803,63535,0.5,0
Sprite,Foreground,Centre,"storyboard/white.png",320,240 M,0,87681,,320,240 F,0,87681,88047,0.5,0
Sprite,Foreground,Centre,"storyboard/white.png",320,240 C,0,15,,163,118,221 M,0,14510,,320,240 S,0,14510,,0.1 F,0,14510,17437,0,1 V,0,14510,17437,0.01,0.005,1,0.005 F,0,24754,25486,1,0
//Storyboard Sound Samples

[TimingPoints]
1350,731.707317073171,4,2,1,50,1,0
13057,-100,4,2,1,60,0,0
58423,-100,4,2,1,70,0,0
61350,-62.5,4,2,1,70,0,0
62813,-62.5,4,2,1,75,0,1
87691,-71.4285714285714,4,2,1,55,0,0
89154,-100,4,2,1,55,0,0
93545,-71.4285714285714,4,2,1,55,0,0
99764,-100,4,2,1,60,0,0
112203,-90.9090909090909,4,2,1,60,0,0
116959,-100,4,2,1,60,0,0
131593,-62.5,4,2,1,70,0,0
135984,-62.5,4,2,1,80,0,1
138910,-100,4,2,1,80,0,1
141837,-62.5,4,2,1,80,0,1
159398,-100,4,2,1,70,0,0
161228,-71.4285714285714,4,2,1,70,0,0
162325,-100,4,2,1,70,0,0
185740,-62.5,4,3,1,60,0,0
195984,-62.5,4,2,1,60,0,0
197447,-62.5,4,2,1,75,0,1
200374,-71.4285714285714,4,2,1,75,0,1
212081,-90.9090909090909,4,2,1,75,0,1
213545,-100,4,2,1,60,0,0
236959,779.220779220779,4,2,1,50,1,0
238517,800,4,2,1,60,1,0
241317,821.917808219178,4,2,1,50,1,0
242241,-100,4,3,1,50,0,0

[Colours]
Combo1 : 236,70,129
Combo2 : 29,226,217
Combo3 : 176,249,187
Combo4 : 202,72,234
Combo5 : 182,236,19

[HitObjects]
392,120,618,5,0,0:0:0:0:
224,108,801,1,0,0:0:0:0:
348,216,984,1,0,0:0:0:0:
320,76,1167,1,0,0:0:0:0:
280,168,1350,6,0,P|268:228|288:268,1,100,2|0,0:0|0:0,0:0:0:0:
348,216,1898,1,0,0:0:0:0:
400,144,2081,2,0,P|344:132|284:160,1,100
348,216,2630,1,0,0:0:0:0:
424,264,2813,6,0,P|436:204|416:164,1,100,8|0,0:0|0:0,0:0:0:0:
348,216,3361,1,0,0:0:0:0:
304,292,3544,2,0,P|364:304|404:284,1,100
348,216,4093,1,0,0:0:0:0:
368,128,4276,2,0,P|304:132|224:304,1,250,2|0,0:0|0:0,0:0:0:0:
128,260,5374,2,0,L|92:224,1,50
152,348,5740,1,8,0:0:0:0:
152,256,6471,5,0,0:0:0:0:
296,276,6654,1,0,0:0:0:0:
160,168,6837,1,0,0:0:0:0:
212,308,7020,1,0,0:0:0:0:
232,216,7203,6,0,P|244:156|224:116,1,100,2|0,0:0|0:0,0:0:0:0:
164,168,7752,1,0,0:0:0:0:
112,240,7935,2,0,P|168:252|228:224,1,100
164,168,8483,1,0,0:0:0:0:
88,120,8666,6,0,P|76:180|96:220,1,100,8|0,0:0|0:0,0:0:0:0:
164,168,9215,1,0,0:0:0:0:
208,92,9398,2,0,P|148:80|108:100,1,100
164,168,9947,1,0,0:0:0:0:
164,260,10130,2,0,P|248:236|276:96,1,200,2|0,0:0|0:0,0:0:0:0:
320,49,11045,2,0,L|360:80,1,50
419,192,11410,2,0,L|376:168,1,50,0|8,0:0|0:0,0:0:0:0:
200,204,11959,5,0,0:0:0:0:
316,124,12142,1,0,0:0:0:0:
172,124,12325,1,2,0:0:0:0:
292,204,12508,1,0,0:0:0:0:
244,68,12691,1,2,0:0:0:0:
244,144,12874,1,0,0:0:0:0:
244,144,13057,5,4,0:0:0:0:
256,192,23301,12,0,26228,0:0:0:0:
212,32,26593,5,0,0:0:0:0:
320,68,26776,1,0,0:0:0:0:
220,144,26959,2,0,P|176:180|104:192,1,100,2|0,0:0|0:0,0:0:0:0:
308,292,27691,2,0,B|336:292|348:292|348:292|360:296|360:296|372:292|372:292|384:292|420:292,1,100
212,240,28423,2,0,B|184:240|172:240|172:240|160:236|160:236|148:240|148:240|136:240|100:240,1,100,8|0,0:0|0:0,0:0:0:0:
392,44,29154,6,0,B|420:72|392:148|392:168,1,100
376,180,29703,1,0,0:0:0:0:
348,212,29886,2,0,B|348:232|308:252|244:224,1,100,2|0,0:0|0:0,0:0:0:0:
148,124,30618,2,0,B|172:124|200:120|200:120|228:124|252:124,1,100
388,296,31350,2,0,B|368:296|336:300|336:300|304:296|280:296,1,100,8|0,0:0|0:0,0:0:0:0:
120,308,32081,1,0,0:0:0:0:
188,160,32447,5,0,0:0:0:0:
320,88,32630,1,0,0:0:0:0:
408,112,32813,2,0,P|376:160|324:172,1,100,2|0,0:0|0:0,0:0:0:0:
160,200,33545,2,0,P|192:152|244:140,1,100
408,112,34276,2,0,P|376:160|324:172,1,100,8|0,0:0|0:0,0:0:0:0:
292,176,34825,1,0,0:0:0:0:
248,180,35008,2,0,P|184:216|176:268,1,100
372,196,35740,2,0,P|356:128|320:104,1,100,2|0,0:0|0:0,0:0:0:0:
296,92,36288,1,0,0:0:0:0:
208,68,36471,5,0,0:0:0:0:
120,84,36654,5,0,0:0:0:0:
64,156,36837,5,0,0:0:0:0:
72,244,37020,5,0,0:0:0:0:
120,320,37203,5,8,0:0:0:0:
140,328,37386,1,0,0:0:0:0:
264,344,37569,2,0,P|332:320|348:264,1,100,0|2,0:0|0:0,0:0:0:0:
372,100,38301,6,0,B|355:100|355:100|335:100|335:100|311:120|311:120|279:120,1,100,0|8,0:0|0:0,0:0:0:0:
212,72,38849,1,0,0:0:0:0:
144,112,39032,2,0,P|136:180|196:200,1,100
244,328,39764,2,0,P|252:260|192:240,1,100,0|2,0:0|0:0,0:0:0:0:
88,312,40496,1,0,0:0:0:0:
156,104,40861,5,0,0:0:0:0:
72,160,41228,2,0,P|96:188|172:208,1,100,0|8,0:0|0:0,0:0:0:0:
256,208,41958,1,0,0:0:0:0:
441,169,42325,2,0,P|394:153|348:168,1,100
112,280,43057,1,2,0:0:0:0:
188,320,43240,1,0,0:0:0:0:
264,284,43422,1,0,0:0:0:0:
292,188,43788,6,0,P|284:120|304:80,1,100
380,36,44337,1,0,0:0:0:0:
460,96,44520,2,0,P|388:136|340:128,1,100,8|0,0:0|0:0,0:0:0:0:
139,136,45252,2,0,P|90:127|52:96,1,100
132,32,45801,1,0,0:0:0:0:
224,72,45984,1,2,0:0:0:0:
72,204,46350,1,0,0:0:0:0:
72,204,46715,6,0,B|88:256|152:252,1,100
300,276,47447,2,0,B|336:276|336:276|348:268|360:276|360:276|428:276,2,100,8|0|0,0:0|0:0|0:0,0:0:0:0:
172,332,48544,1,0,0:0:0:0:
332,176,48910,1,2,0:0:0:0:
192,192,49276,1,2,0:0:0:0:
372,100,49642,6,0,P|324:88|272:112,1,100,4|0,0:0|0:0,0:0:0:0:
192,192,50374,2,0,P|240:204|292:180,1,100,8|0,0:0|0:0,0:0:0:0:
152,120,51105,2,0,P|108:172|160:268,1,150
176,296,51837,2,0,L|236:332,2,50,8|0|0,0:0|0:0|0:0,0:0:0:0:
312,332,52569,6,0,P|376:316|392:244,1,100
424,216,53118,1,0,0:0:0:0:
464,140,53301,2,0,P|388:136|364:160,1,100,8|0,0:0|0:0,0:0:0:0:
276,220,54032,2,0,B|260:240|248:252|248:252|236:248|236:248|216:272|184:264,1,100
120,288,54581,2,0,L|60:312,1,50,0|8,0:0|0:0,0:0:0:0:
60,228,54947,2,0,L|20:188,1,50
28,32,55496,6,0,B|88:28|116:80,1,100,2|0,0:0|0:0,0:0:0:0:
200,208,56227,1,8,0:0:0:0:
264,260,56410,1,0,0:0:0:0:
340,284,56593,1,0,0:0:0:0:
484,212,56959,2,0,B|475:182|475:162|475:162|455:162|427:150,1,100
332,80,57691,2,0,B|268:104|216:40,1,100,8|0,0:0|0:0,0:0:0:0:
208,36,58239,1,0,0:0:0:0:
172,20,58422,6,0,P|120:16|44:36,2,100,0|0|8,0:0|0:0|0:0,0:0:0:0:
196,136,59520,2,0,L|236:180,1,50
304,208,59886,2,0,B|328:252|328:252|388:288,2,100,0|0|8,0:0|0:0|0:0,0:0:0:0:
144,208,60983,1,0,0:0:0:0:
224,196,61166,1,0,0:0:0:0:
260,124,61350,6,0,P|260:76|236:24,1,80
144,208,61715,2,0,P|152:276|176:300,1,80
304,236,62081,1,8,0:0:0:0:
260,124,62264,1,0,0:0:0:0:
144,208,62447,1,8,0:0:0:0:
124,92,62630,1,0,0:0:0:0:
256,36,62813,54,0,P|348:108|324:176,2,160,4|0|2,0:0|0:0|0:0,0:0:0:0:
88,132,63910,1,0,0:0:0:0:
144,208,64093,1,0,0:0:0:0:
212,276,64276,2,0,P|292:292|368:260,1,160,2|0,0:0|0:0,0:0:0:0:
472,104,65008,6,0,P|435:174|463:253,1,160,2|0,0:0|0:0,0:0:0:0:
420,336,65557,1,0,0:0:0:0:
228,200,65740,1,2,0:0:0:0:
380,192,65923,1,0,0:0:0:0:
212,276,66106,1,0,0:0:0:0:
304,160,66289,1,0,0:0:0:0:
228,200,66471,6,0,P|296:244|376:208,1,160,2|0,0:0|0:0,0:0:0:0:
424,144,67020,1,0,0:0:0:0:
488,72,67203,2,0,P|404:52|336:116,1,160,2|0,0:0|0:0,0:0:0:0:
169,103,67935,6,0,P|229:159|313:155,1,160,2|0,0:0|0:0,0:0:0:0:
336,68,68484,1,0,0:0:0:0:
392,148,68667,2,0,P|360:232|288:248,1,160,2|0,0:0|0:0,0:0:0:0:
232,180,69215,1,0,0:0:0:0:
156,252,69398,2,0,P|83:224|62:150,1,160,2|0,0:0|0:0,0:0:0:0:
24,60,69947,1,0,0:0:0:0:
120,76,70130,2,0,B|200:96|200:96|296:80,1,160,2|0,0:0|0:0,0:0:0:0:
364,128,70679,1,0,0:0:0:0:
276,172,70862,6,0,B|199:184|199:184|119:164,1,160,2|0,0:0|0:0,0:0:0:0:
44,224,71410,1,0,0:0:0:0:
104,300,71593,2,0,B|134:291|175:308|175:308|175:292|175:292|216:312|243:300,1,160,2|0,0:0|0:0,0:0:0:0:
308,228,72142,1,0,0:0:0:0:
456,144,72325,1,2,0:0:0:0:
408,228,72508,1,0,0:0:0:0:
264,144,72691,1,0,0:0:0:0:
360,148,72874,1,0,0:0:0:0:
312,72,73057,5,2,0:0:0:0:
180,172,73240,1,0,0:0:0:0:
360,300,73423,1,0,0:0:0:0:
240,264,73606,1,0,0:0:0:0:
264,144,73789,1,2,0:0:0:0:
264,144,74154,1,2,0:0:0:0:
204,68,74337,1,0,0:0:0:0:
108,64,74520,2,0,P|44:124|48:200,1,160,4|0,0:0|0:0,0:0:0:0:
204,68,75252,6,0,P|280:92|376:48,1,160,2|0,0:0|0:0,0:0:0:0:
436,120,75801,1,0,0:0:0:0:
480,204,75984,2,0,P|392:208|352:116,1,160,6|0,0:0|0:0,0:0:0:0:
288,224,76532,1,0,0:0:0:0:
148,128,76715,1,2,0:0:0:0:
176,224,76898,1,0,0:0:0:0:
236,76,77081,1,0,0:0:0:0:
328,136,77447,6,0,P|408:160|432:248,1,160,2|0,0:0|0:0,0:0:0:0:
404,316,77996,1,0,0:0:0:0:
356,232,78179,2,0,B|340:220|340:220|288:308|212:260,1,160,2|0,0:0|0:0,0:0:0:0:
160,196,78728,1,0,0:0:0:0:
80,248,78910,2,0,P|60:192|64:168,2,80,2|0|0,0:0|0:0|0:0,0:0:0:0:
124,332,79459,2,0,L|220:352,1,80,0|2,0:0|0:0,0:0:0:0:
309,348,79825,2,0,L|388:332,2,80
256,268,80374,6,0,B|237:245|208:232|208:232|217:174|208:124,1,160,4|0,0:0|0:0,0:0:0:0:
252,52,81106,2,0,B|270:74|300:88|300:88|290:145|300:196,1,160,2|0,0:0|0:0,0:0:0:0:
260,276,81654,1,0,0:0:0:0:
260,276,81746,1,0,0:0:0:0:
260,276,81837,2,0,L|172:256,1,80,2|0,0:0|0:0,0:0:0:0:
112,192,82203,2,0,L|216:140,1,80
276,132,82569,2,0,P|328:188|408:188,1,160,2|0,0:0|0:0,0:0:0:0:
216,200,83301,6,0,L|140:48,1,160,2|0,0:0|0:0,0:0:0:0:
52,28,83850,1,0,0:0:0:0:
111,143,84032,2,0,P|188:136|232:72,1,160,2|0,0:0|0:0,0:0:0:0:
324,44,84581,1,0,0:0:0:0:
324,140,84764,2,0,B|304:176|304:176|316:208|296:256,1,80,2|0,0:0|0:0,0:0:0:0:
296,252,85130,1,0,0:0:0:0:
216,200,85313,1,0,0:0:0:0:
324,140,85496,2,0,L|376:172,2,40,2|0|0,0:0|0:0|0:0,0:0:0:0:
252,52,85862,5,0,0:0:0:0:
152,100,86045,2,0,B|139:110|125:130|125:130|80:148,1,80
8,80,86410,1,0,0:0:0:0:
200,164,86593,1,0,0:0:0:0:
76,24,86776,1,0,0:0:0:0:
8,168,86959,1,8,0:0:0:0:
84,252,87142,1,0,0:0:0:0:
196,272,87325,1,8,0:0:0:0:
296,220,87508,1,0,0:0:0:0:
356,140,87691,1,4,0:0:0:0:
396,197,88057,6,0,L|340:117,1,69.9999978637696
268,289,88423,2,0,L|368:313,1,69.9999978637696,2|0,0:0|0:0,0:0:0:0:
248,129,88789,2,0,L|192:209,1,69.9999978637696
156,129,89154,2,0,P|204:113|252:133,1,100,8|0,0:0|0:0,0:0:0:0:
396,197,89886,2,0,P|348:213|300:193,1,100,2|0,0:0|0:0,0:0:0:0:
248,129,90618,2,0,P|202:112|156:129,1,100,8|0,0:0|0:0,0:0:0:0:
272,208,91350,2,0,P|328:124|272:52,1,200,2|8,0:0|0:0,0:0:0:0:
176,132,92813,5,8,0:0:0:0:
332,136,92996,1,0,0:0:0:0:
204,220,93179,1,8,0:0:0:0:
256,72,93362,1,0,0:0:0:0:
308,220,93545,1,4,0:0:0:0:
292,320,99764,5,0,0:0:0:0:
228,276,99947,1,0,0:0:0:0:
152,296,100130,2,0,B|140:232|208:192,1,100,2|0,0:0|0:0,0:0:0:0:
340,244,100862,2,0,B|368:244|380:244|380:244|392:248|392:248|404:244|404:244|416:244|444:244,1,100
300,164,101593,2,0,B|272:164|260:164|260:164|248:160|248:160|236:164|236:164|224:164|196:164,1,100,8|0,0:0|0:0,0:0:0:0:
56,96,102324,1,0,0:0:0:0:
32,256,102691,6,0,L|60:204,1,50
116,160,103056,1,2,0:0:0:0:
252,76,103423,2,0,P|304:88|364:64,1,100
460,40,104153,1,0,0:0:0:0:
392,140,104520,2,0,P|348:164|288:164,1,100,8|0,0:0|0:0,0:0:0:0:
200,232,105069,1,0,0:0:0:0:
236,116,105252,1,0,0:0:0:0:
220,248,105618,5,0,0:0:0:0:
256,132,105801,1,0,0:0:0:0:
280,56,105984,2,0,P|328:88|340:140,1,100,2|0,0:0|0:0,0:0:0:0:
428,240,106715,2,0,B|412:188|412:188|428:128,1,100
340,232,107447,2,0,B|356:284|356:284|340:344,1,100,8|0,0:0|0:0,0:0:0:0:
308,352,107996,1,0,0:0:0:0:
264,352,108179,6,0,L|168:296,1,100
140,276,108728,1,0,0:0:0:0:
104,248,108910,2,0,P|72:212|68:156,1,100,2|0,0:0|0:0,0:0:0:0:
80,120,109459,1,0,0:0:0:0:
168,104,109642,5,0,0:0:0:0:
256,120,109825,5,0,0:0:0:0:
312,192,110008,5,0,0:0:0:0:
304,280,110191,5,0,0:0:0:0:
256,356,110374,5,8,0:0:0:0:
160,332,110557,6,0,P|135:334|110:331,1,50,0|8,0:0|0:0,0:0:0:0:
196,240,110923,2,0,P|220:237|245:240,1,50,0|4,0:0|0:0,0:0:0:0:
380,328,111471,1,0,0:0:0:0:
380,328,111654,6,0,B|416:328|416:328|444:300,1,50,0|2,0:0|0:0,0:0:0:0:
460,144,112203,2,0,P|432:88|428:20,1,110.000003356934
340,68,112752,1,0,0:0:0:0:
376,148,112935,2,0,P|312:152|260:88,1,110.000003356934,0|8,0:0|0:0,0:0:0:0:
188,116,113484,1,0,0:0:0:0:
76,192,113667,1,0,0:0:0:0:
140,80,113850,1,0,0:0:0:0:
224,264,114032,1,0,0:0:0:0:
271,82,114398,5,0,0:0:0:0:
349,221,114581,1,0,0:0:0:0:
353,79,114764,2,0,B|355:82|350:113|350:113|334:141|334:141|366:140|366:140|393:161|388:160,1,110.000003356934,2|0,0:0|0:0,0:0:0:0:
272,332,115496,2,0,P|220:348|164:320,1,110.000003356934
144,244,116045,1,0,0:0:0:0:
80,304,116228,2,0,P|61:284|56:257,1,55.0000016784668,8|0,0:0|0:0,0:0:0:0:
72,172,116593,1,0,0:0:0:0:
152,132,116776,1,0,0:0:0:0:
232,140,116959,6,0,P|280:129|311:91,1,100
364,32,117508,1,0,0:0:0:0:
392,108,117691,2,0,B|404:156|404:156|380:224,1,100,2|0,0:0|0:0,0:0:0:0:
308,224,118240,1,0,0:0:0:0:
364,284,118423,2,0,P|316:308|248:272,1,100
196,272,118971,1,0,0:0:0:0:
132,224,119154,1,8,0:0:0:0:
116,148,119337,1,0,0:0:0:0:
140,72,119520,1,0,0:0:0:0:
300,88,119886,6,0,B|188:28,1,100
140,72,120435,1,0,0:0:0:0:
116,148,120618,2,0,L|68:184,1,50,2|0,0:0|0:0,0:0:0:0:
132,224,120984,2,0,L|112:280,1,50
196,272,121350,2,0,L|199:321,1,50
240,184,121715,2,0,L|236:134,1,50,2|0,0:0|0:0,0:0:0:0:
304,232,122081,2,0,L|320:184,1,50,2|0,0:0|0:0,0:0:0:0:
320,308,122447,2,0,L|364:284,1,50,2|0,0:0|0:0,0:0:0:0:
428,220,122813,6,0,P|436:168|404:108,1,100,4|0,0:0|0:0,0:0:0:0:
336,96,123362,1,0,0:0:0:0:
280,28,123545,2,0,P|236:40|172:28,1,100,8|0,0:0|0:0,0:0:0:0:
96,56,124093,1,0,0:0:0:0:
36,124,124276,2,0,P|96:152|172:104,1,150
235,176,125008,2,0,L|272:120,2,50,8|0|0,0:0|0:0|0:0,0:0:0:0:
188,352,125740,6,0,P|124:336|108:264,1,100
124,220,126289,1,0,0:0:0:0:
148,132,126471,2,0,L|220:40,1,100,8|0,0:0|0:0,0:0:0:0:
300,40,127020,1,0,0:0:0:0:
368,96,127203,2,0,P|396:148|384:200,1,100
304,156,127752,1,0,0:0:0:0:
240,216,127935,2,0,P|216:184|220:124,1,100,8|2,0:0|0:0,0:0:0:0:
232,308,128667,6,0,B|292:312|324:256,1,100,6|0,0:0|0:0,0:0:0:0:
380,200,129215,1,0,0:0:0:0:
392,112,129398,1,8,0:0:0:0:
332,44,129581,1,0,0:0:0:0:
244,64,129764,1,0,0:0:0:0:
424,64,130131,6,0,B|408:120|336:136,1,100
268,148,130680,1,0,0:0:0:0:
184,184,130863,1,8,0:0:0:0:
120,248,131046,1,0,0:0:0:0:
108,336,131229,1,0,0:0:0:0:
104,144,131593,6,0,L|100:64,2,80
284,328,132325,1,8,0:0:0:0:
368,232,132508,1,0,0:0:0:0:
268,148,132691,1,0,0:0:0:0:
92,336,133057,6,0,P|84:284|124:224,2,80
180,96,133789,1,8,0:0:0:0:
172,224,133971,1,0,0:0:0:0:
100,136,134154,1,0,0:0:0:0:
268,148,134337,1,0,0:0:0:0:
248,276,134520,2,0,P|284:328|304:336,1,80,8|0,0:0|0:0,0:0:0:0:
212,196,134886,2,0,P|176:144|156:136,1,80,0|0,0:0|0:0,0:0:0:0:
60,60,135251,5,8,0:0:0:0:
80,232,135434,1,0,0:0:0:0:
162,137,135617,1,8,0:0:0:0:
36,160,135800,1,0,0:0:0:0:
16,288,135984,2,0,P|68:316|164:256,1,160,4|0,0:0|0:0,0:0:0:0:
308,72,136715,5,2,0:0:0:0:
220,164,136898,1,0,0:0:0:0:
324,240,137080,1,0,0:0:0:0:
408,144,137263,1,0,0:0:0:0:
280,156,137447,2,0,P|228:112|244:12,2,160,2|0|2,0:0|0:0|0:0,0:0:0:0:
240,260,138361,1,0,0:0:0:0:
156,200,138544,1,0,0:0:0:0:
324,240,138727,1,0,0:0:0:0:
328,320,138910,6,0,P|396:252|380:224,1,100,2|0,0:0|0:0,0:0:0:0:
432,196,139459,1,0,0:0:0:0:
392,128,139643,2,0,L|324:52,1,100,2|0,0:0|0:0,0:0:0:0:
232,20,140190,1,0,0:0:0:0:
172,88,140374,2,0,P|228:112|296:80,1,100,2|0,0:0|0:0,0:0:0:0:
336,52,140922,1,0,0:0:0:0:
392,128,141107,1,2,0:0:0:0:
352,208,141290,1,0,0:0:0:0:
276,252,141471,1,0,0:0:0:0:
188,232,141654,1,0,0:0:0:0:
224,316,141837,6,0,P|272:340|360:276,1,160,2|0,0:0|0:0,0:0:0:0:
144,300,142385,1,0,0:0:0:0:
96,172,142570,1,2,0:0:0:0:
188,232,142753,1,0,0:0:0:0:
276,168,142936,1,0,0:0:0:0:
116,88,143118,1,0,0:0:0:0:
116,88,143301,2,0,P|24:124|8:176,1,160,2|0,0:0|0:0,0:0:0:0:
192,136,143850,1,0,0:0:0:0:
276,168,144032,2,0,P|340:120|344:36,1,160,2|0,0:0|0:0,0:0:0:0:
444,92,144580,1,0,0:0:0:0:
444,92,144764,6,0,B|448:120|460:144|460:144|420:224|460:264,1,160,2|0,0:0|0:0,0:0:0:0:
176,84,145312,1,0,0:0:0:0:
176,244,145495,1,2,0:0:0:0:
328,108,145680,1,0,0:0:0:0:
112,160,145863,1,0,0:0:0:0:
240,160,146046,1,0,0:0:0:0:
332,212,146227,5,2,0:0:0:0:
184,312,146410,1,0,0:0:0:0:
124,128,146593,1,0,0:0:0:0:
280,152,146776,1,0,0:0:0:0:
280,296,146959,1,2,0:0:0:0:
124,128,147143,1,0,0:0:0:0:
152,224,147326,1,2,0:0:0:0:
224,152,147509,1,0,0:0:0:0:
44,156,147691,6,0,P|64:68|200:84,1,240,4|0,0:0|0:0,0:0:0:0:
68,232,148423,2,0,P|64:280|36:328,2,80,2|0|2,0:0|0:0|0:0,0:0:0:0:
176,112,148971,1,0,0:0:0:0:
280,220,149154,1,6,0:0:0:0:
280,100,149337,1,0,0:0:0:0:
172,212,149520,1,0,0:0:0:0:
336,160,149702,1,0,0:0:0:0:
260,296,149885,1,2,0:0:0:0:
228,160,150068,1,0,0:0:0:0:
364,240,150251,1,0,0:0:0:0:
184,248,150434,1,0,0:0:0:0:
184,248,150618,6,0,P|108:228|88:152,1,160,2|0,0:0|0:0,0:0:0:0:
32,40,151167,1,0,0:0:0:0:
108,72,151349,2,0,B|152:92|152:92|200:44|276:72,1,160,2|0,0:0|0:0,0:0:0:0:
228,160,152081,1,2,0:0:0:0:
340,52,152264,1,0,0:0:0:0:
316,140,152447,1,0,0:0:0:0:
380,204,152630,1,0,0:0:0:0:
300,232,152813,6,0,L|220:268,1,80,2|0,0:0|0:0,0:0:0:0:
87,254,153179,2,0,L|160:220,1,80,2|0,0:0|0:0,0:0:0:0:
204,72,153544,2,0,B|240:48|240:48|288:104|348:48,1,160,4|0,0:0|0:0,0:0:0:0:
116,112,154276,2,0,P|56:128|-8:60,1,160,2|0,0:0|0:0,0:0:0:0:
76,44,154825,1,0,0:0:0:0:
76,44,155008,2,0,L|156:4,2,80,2|0|0,0:0|0:0|0:0,0:0:0:0:
0,204,155557,1,0,0:0:0:0:
40,284,155740,6,0,P|96:336|180:324,1,160,2|0,0:0|0:0,0:0:0:0:
264,292,156289,1,0,0:0:0:0:
264,292,156471,2,0,P|208:240|120:256,1,160,2|0,0:0|0:0,0:0:0:0:
129,249,157020,1,0,0:0:0:0:
180,332,157203,2,0,B|244:308|212:212|212:212|236:224,1,160,2|0,0:0|0:0,0:0:0:0:
324,236,157751,1,0,0:0:0:0:
272,156,157935,6,0,P|243:128|204:116,1,80,2|0,0:0|0:0,0:0:0:0:
205,116,158209,1,0,0:0:0:0:
205,116,158300,1,0,0:0:0:0:
184,208,158483,1,0,0:0:0:0:
92,176,158667,2,0,L|4:208,1,80,8|0,0:0|0:0,0:0:0:0:
172,188,159032,1,8,0:0:0:0:
99,122,159216,2,0,L|5:117,1,80,0|4,0:0|0:0,0:0:0:0:
152,220,159763,5,0,0:0:0:0:
328,176,159946,1,0,0:0:0:0:
216,316,160129,1,8,0:0:0:0:
216,316,160313,1,0,0:0:0:0:
328,176,160496,1,0,0:0:0:0:
248,116,160679,1,0,0:0:0:0:
148,116,160862,1,8,0:0:0:0:
88,224,161228,6,0,L|144:304,1,69.9999978637696
216,132,161593,2,0,L|116:108,1,69.9999978637696,8|0,0:0|0:0,0:0:0:0:
236,292,161959,2,0,L|292:212,1,69.9999978637696,8|0,0:0|0:0,0:0:0:0:
328,292,162325,2,0,P|280:308|232:288,1,100,8|0,0:0|0:0,0:0:0:0:
52,212,162874,1,0,0:0:0:0:
52,212,163057,2,0,P|100:196|148:216,1,100,8|0,0:0|0:0,0:0:0:0:
232,164,163606,1,0,0:0:0:0:
232,164,163789,2,0,P|268:132|276:60,1,100,8|0,0:0|0:0,0:0:0:0:
264,244,164520,2,0,B|192:264|152:200,1,100,8|8,0:0|0:0,0:0:0:0:
120,108,165069,1,0,0:0:0:0:
100,184,165252,1,12,0:0:0:0:
336,252,165618,1,0,0:0:0:0:
336,252,165984,5,8,0:0:0:0:
180,248,166167,1,0,0:0:0:0:
308,164,166350,1,0,0:0:0:0:
256,312,166532,1,0,0:0:0:0:
204,164,166715,1,8,0:0:0:0:
456,92,167081,1,0,0:0:0:0:
456,92,167447,5,8,0:0:0:0:
300,96,167630,1,0,0:0:0:0:
428,180,167813,1,8,0:0:0:0:
376,32,167996,1,0,0:0:0:0:
324,180,168179,1,8,0:0:0:0:
4,132,168545,1,0,0:0:0:0:
4,132,168910,5,8,0:0:0:0:
160,128,169093,1,0,0:0:0:0:
32,44,169276,1,0,0:0:0:0:
84,192,169459,1,0,0:0:0:0:
136,44,169642,1,8,0:0:0:0:
216,104,169825,5,0,0:0:0:0:
60,108,170008,1,0,0:0:0:0:
188,192,170191,1,0,0:0:0:0:
136,44,170374,1,8,0:0:0:0:
84,192,170557,1,0,0:0:0:0:
216,280,170740,5,8,0:0:0:0:
136,336,170923,1,0,0:0:0:0:
51,286,171106,2,0,L|87:182,1,100,12|0,0:0|0:0,0:0:0:0:
224,48,171837,1,2,0:0:0:0:
384,48,172203,1,0,0:0:0:0:
412,204,172569,6,0,P|488:172|500:144,1,100,8|0,0:0|0:0,0:0:0:0:
336,188,173301,1,2,0:0:0:0:
200,272,173667,1,0,0:0:0:0:
195,57,174032,6,0,L|180:156,1,100,8|0,0:0|0:0,0:0:0:0:
112,304,174764,1,2,0:0:0:0:
88,144,175130,1,0,0:0:0:0:
236,88,175496,6,0,B|276:104|312:76|348:100,1,100,8|0,0:0|0:0,0:0:0:0:
484,156,176228,1,2,0:0:0:0:
412,192,176410,1,0,0:0:0:0:
332,192,176593,1,2,0:0:0:0:
256,164,176776,1,0,0:0:0:0:
236,88,176959,1,4,0:0:0:0:
68,68,179886,6,0,P|176:88|276:72,1,200,2|2,0:0|0:0,0:0:0:0:
468,16,180801,1,0,0:0:0:0:
424,84,180984,1,0,0:0:0:0:
344,96,181167,1,0,0:0:0:0:
64,160,181350,6,0,P|172:180|272:164,1,200,2|2,0:0|0:0,0:0:0:0:
464,108,182265,1,0,0:0:0:0:
420,176,182448,1,0,0:0:0:0:
340,188,182631,1,0,0:0:0:0:
64,256,182813,6,0,P|172:276|272:260,1,200,2|2,0:0|0:0,0:0:0:0:
464,204,183728,1,0,0:0:0:0:
420,272,183911,1,0,0:0:0:0:
304,236,184093,22,0,L|264:276,1,50,0|2,0:0|0:0,0:0:0:0:
340,128,184459,2,0,L|340:76,1,50
384,232,184825,2,0,L|420:272,1,50,0|2,0:0|0:0,0:0:0:0:
272,164,185191,2,0,L|224:136|224:136,1,50,0|2,0:0|0:0,0:0:0:0:
408,160,185557,2,0,L|456:128,1,50,0|4,0:0|0:0,0:0:0:0:
208,188,186471,5,6,0:0:0:0:
180,64,186654,1,0,0:0:0:0:
124,144,186837,1,0,0:0:0:0:
144,252,187020,1,0,0:0:0:0:
236,312,187203,2,0,P|316:328|392:296,1,160
292,192,187935,5,2,0:0:0:0:
320,68,188118,1,0,0:0:0:0:
376,148,188301,1,0,0:0:0:0:
356,256,188484,1,0,0:0:0:0:
264,316,188667,2,0,P|184:332|108:300,1,160
56,180,189215,1,0,0:0:0:0:
188,272,189398,2,0,P|144:376|52:348,1,160,2|0,0:0|0:0,0:0:0:0:
20,248,189947,1,0,0:0:0:0:
116,120,190130,2,0,L|260:36,1,160
56,180,190679,1,0,0:0:0:0:
104,264,190862,6,0,L|196:312,1,80,6|0,0:0|0:0,0:0:0:0:
180,204,191228,2,0,L|292:264,1,80
252,336,191593,2,0,P|322:302|340:228,1,160
380,140,192142,1,0,0:0:0:0:
300,88,192325,5,2,0:0:0:0:
300,88,192508,1,0,0:0:0:0:
160,148,192691,1,0,0:0:0:0:
160,148,192874,1,0,0:0:0:0:
256,164,193057,2,0,L|384:260,1,160
196,216,193789,6,0,P|300:229|336:164,1,160,2|0,0:0|0:0,0:0:0:0:
344,100,194337,1,0,0:0:0:0:
440,80,194520,2,0,B|436:124|468:168|468:168|408:128|368:188,1,160
268,152,195069,1,0,0:0:0:0:
352,72,195252,1,0,0:0:0:0:
348,276,195618,5,0,0:0:0:0:
248,204,195801,1,0,0:0:0:0:
216,80,195984,1,2,0:0:0:0:
304,136,196167,1,0,0:0:0:0:
164,160,196350,1,0,0:0:0:0:
304,136,196532,1,2,0:0:0:0:
248,204,196715,5,0,0:0:0:0:
308,276,196898,1,0,0:0:0:0:
396,304,197081,1,2,0:0:0:0:
368,208,197264,1,0,0:0:0:0:
308,276,197447,2,0,P|232:296|168:252,1,160,6|0,0:0|0:0,0:0:0:0:
80,80,198179,5,2,0:0:0:0:
168,116,198362,1,0,0:0:0:0:
248,76,198545,1,0,0:0:0:0:
344,72,198728,1,0,0:0:0:0:
344,72,198910,2,0,P|424:56|504:88,1,160,2|0,0:0|0:0,0:0:0:0:
168,116,199642,5,2,0:0:0:0:
288,224,199825,1,0,0:0:0:0:
168,216,200008,1,0,0:0:0:0:
276,128,200191,1,0,0:0:0:0:
348,300,200374,2,0,P|384:232|356:156,1,139.999995727539,2|0,0:0|0:0,0:0:0:0:
296,0,200923,1,0,0:0:0:0:
296,0,201106,2,0,P|260:68|288:144,1,139.999995727539,2|0,0:0|0:0,0:0:0:0:
320,196,201654,1,0,0:0:0:0:
236,212,201837,6,0,P|200:180|200:104,2,69.9999978637696,2|0|0,0:0|0:0|0:0,0:0:0:0:
292,276,202386,1,0,0:0:0:0:
232,336,202569,2,0,P|276:358|372:316,1,139.999995727539,2|2,0:0|0:0,0:0:0:0:
236,212,203118,1,0,0:0:0:0:
164,252,203301,2,0,B|108:318|108:318|80:308|52:320,1,139.999995727539,6|0,0:0|0:0,0:0:0:0:
28,240,203850,1,0,0:0:0:0:
68,168,204032,2,0,P|88:80|60:24,1,139.999995727539,2|0,0:0|0:0,0:0:0:0:
8,96,204581,1,0,0:0:0:0:
176,100,204764,6,0,L|312:68,1,139.999995727539,2|0,0:0|0:0,0:0:0:0:
340,148,205313,1,0,0:0:0:0:
368,228,205496,2,0,P|324:288|288:296,1,69.9999978637696,2|0,0:0|0:0,0:0:0:0:
276,220,205862,2,0,P|206:246|171:233,1,69.9999978637696
172,320,206228,2,0,P|124:260|148:196,1,139.999995727539,2|0,0:0|0:0,0:0:0:0:
340,148,206776,1,0,0:0:0:0:
276,220,206959,1,2,0:0:0:0:
104,152,207142,5,0,0:0:0:0:
168,76,207325,1,0,0:0:0:0:
220,152,207508,1,0,0:0:0:0:
276,220,207691,1,2,0:0:0:0:
184,312,207874,1,0,0:0:0:0:
124,128,208057,1,0,0:0:0:0:
280,152,208240,1,0,0:0:0:0:
252,304,208423,1,2,0:0:0:0:
252,304,208789,5,2,0:0:0:0:
168,268,208971,1,0,0:0:0:0:
100,208,209154,6,0,L|144:60,1,139.999995727539,6|0,0:0|0:0,0:0:0:0:
376,292,209886,2,0,P|289:327|247:305,1,139.999995727539,2|0,0:0|0:0,0:0:0:0:
388,188,210618,2,0,P|474:152|516:174,1,139.999995727539,6|0,0:0|0:0,0:0:0:0:
340,100,211350,2,0,P|253:135|211:113,1,139.999995727539,2|0,0:0|0:0,0:0:0:0:
220,204,212081,6,0,P|144:164|144:80,1,165.000005035401,2|0,0:0|0:0,0:0:0:0:
92,16,212813,2,0,L|40:68,1,55.0000016784668,2|0,0:0|0:0,0:0:0:0:
1,182,213179,2,0,L|40:144,1,55.0000016784668,2|0,0:0|0:0,0:0:0:0:
138,92,213545,1,0,0:0:0:0:
324,20,213910,1,0,0:0:0:0:
360,112,214093,1,0,0:0:0:0:
280,168,214276,6,0,P|268:228|288:268,1,100
184,216,214825,1,0,0:0:0:0:
232,304,215008,2,0,P|176:292|116:320,1,100
184,216,215557,1,0,0:0:0:0:
76,272,215740,6,0,P|88:212|68:172,1,100
184,216,216289,1,0,0:0:0:0:
128,120,216471,2,0,P|188:132|228:112,1,100,2|0,0:0|0:0,0:0:0:0:
344,40,217020,1,0,0:0:0:0:
400,232,217386,5,0,0:0:0:0:
304,128,217569,1,0,0:0:0:0:
252,256,217752,1,0,0:0:0:0:
388,148,217935,1,2,0:0:0:0:
236,176,218118,1,0,0:0:0:0:
336,284,218301,1,0,0:0:0:0:
168,232,218484,1,0,0:0:0:0:
316,204,218667,5,8,0:0:0:0:
220,96,218850,1,0,0:0:0:0:
336,128,219032,1,8,0:0:0:0:
192,172,219215,1,0,0:0:0:0:
172,304,219398,1,6,0:0:0:0:
68,112,219764,6,0,P|80:172|60:212,1,100,0|8,0:0|0:0,0:0:0:0:
164,168,220313,1,0,0:0:0:0:
108,260,220496,2,0,P|164:248|224:276,1,100,0|2,0:0|0:0,0:0:0:0:
164,168,221045,1,0,0:0:0:0:
260,216,221228,6,0,P|248:156|268:116,1,100,0|8,0:0|0:0,0:0:0:0:
164,168,221776,1,0,0:0:0:0:
208,76,221959,2,0,P|148:88|108:68,1,100,0|2,0:0|0:0,0:0:0:0:
164,168,222508,1,0,0:0:0:0:
208,76,222691,1,0,0:0:0:0:
400,232,223057,5,8,0:0:0:0:
304,128,223240,1,0,0:0:0:0:
252,256,223423,1,0,0:0:0:0:
388,148,223606,1,0,0:0:0:0:
236,176,223789,1,2,0:0:0:0:
336,284,223971,1,0,0:0:0:0:
168,232,224154,1,0,0:0:0:0:
316,204,224337,1,0,0:0:0:0:
152,76,224520,6,0,L|88:124,1,50,8|0,0:0|0:0,0:0:0:0:
172,184,224886,2,0,L|244:184,1,50,8|0,0:0|0:0,0:0:0:0:
292,116,225252,2,0,L|220:40,1,100,6|0,0:0|0:0,0:0:0:0:
88,72,225801,1,0,0:0:0:0:
88,72,225984,2,0,P|84:228|288:112,1,500,8|0,0:0|0:0,0:0:0:0:
180,168,227996,1,0,0:0:0:0:
180,168,228179,6,0,P|272:24|424:232,1,500,2|0,0:0|0:0,0:0:0:0:
392,352,230374,1,8,0:0:0:0:
355,258,230557,1,0,0:0:0:0:
283,330,230740,1,8,0:0:0:0:
251,234,230923,1,0,0:0:0:0:
228,164,231106,6,0,P|216:312|40:164,1,500,6|0,0:0|0:0,0:0:0:0:
37,168,233301,1,8,0:0:0:0:
228,264,233667,1,0,0:0:0:0:
160,176,233850,1,0,0:0:0:0:
304,244,234032,6,0,P|276:324|224:332,1,100,2|0,0:0|0:0,0:0:0:0:
272,161,234581,1,0,0:0:0:0:
184,128,234764,6,0,P|280:172|284:180,1,100,8|0,0:0|0:0,0:0:0:0:
97,178,235313,1,0,0:0:0:0:
52,256,235496,6,0,P|116:176|136:180,1,100,2|0,0:0|0:0,0:0:0:0:
176,132,236228,5,2,0:0:0:0:
332,136,236410,1,2,0:0:0:0:
204,220,236593,1,2,0:0:0:0:
256,72,236776,1,0,0:0:0:0:
308,220,236959,1,0,0:0:0:0:
256,192,237153,12,4,242241,0:0:0:0:
