osu file format v9

[General]
AudioFilename: 02 - Shiawase Hiyori.mp3
AudioLeadIn: 0
PreviewTime: 35458
Countdown: 0
SampleSet: Soft
StackLeniency: 0.6
Mode: 0
LetterboxInBreaks: 1

[Editor]
DistanceSpacing: 1.1
BeatDivisor: 4
GridSize: 8

[Metadata]
Title:Shiawase Hiyori
Artist:Toyosaki Aki
Creator:indyinyou
Version:Hard
Source:K-ON!!
Tags:Hirasawa Yui

[Difficulty]
HPDrainRate:7
CircleSize:4
OverallDifficulty:7
ApproachRate:7
SliderMultiplier:1.6
SliderTickRate:1

[Events]
//Background and Video events
0,0,"Yui_BG.jpg"
//Break Periods
2,55916,57708
2,80495,89515
2,133989,142648
2,177362,179154
//Storyboard Layer 0 (Background)
//Storyboard Layer 1 (Fail)
//Storyboard Layer 2 (Pass)
//Storyboard Layer 3 (Foreground)
//Storyboard Sound Samples
//Background Colour Transformations
3,100,0,0,0

[TimingPoints]
777,361.44578313253,4,2,0,50,1,0
35278,-100,4,2,0,70,0,0
35475,-100,4,2,0,70,0,1
55716,-100,4,2,0,70,0,0
58410,-100,4,2,0,50,0,0
77296,-200,4,2,0,50,0,0
78290,-100,4,2,0,50,0,0
90217,-100,4,2,0,50,0,0
113350,-100,4,2,0,70,0,0
113548,-100,4,2,0,70,0,1
133789,-100,4,2,0,70,0,0
145157,-100,4,2,0,70,0,0
156921,-100,4,2,0,70,0,1
177162,-100,4,2,0,70,0,0
179856,-100,4,2,0,50,0,0
198741,-200,4,2,0,50,0,0
199735,-100,4,2,0,50,0,0

[Colours]
Combo1 : 90,191,224
Combo2 : 247,50,45
Combo3 : 166,102,74

[HitObjects]
256,194,6560,1,4
194,132,6740,2,0,B|222:85|281:77,1,80,0|8
343,82,7102,1,0
431,82,7283,2,0,B|487:82|508:148,1,80
496,120,7554,1,0
496,120,7644,1,8
433,182,7825,1,0
371,244,8005,6,0,B|468:244,2,80,4|0|8
308,306,8548,1,0
246,367,8728,2,0,B|135:367,2,80,0|0|8
246,278,9270,1,0
246,190,9451,5,4
308,127,9632,1,0
245,64,9813,2,0,B|142:64,1,80,8|0
102,126,10174,1,0
39,188,10355,2,0,B|7:229|35:278,1,80,0|8
90,325,10716,5,2
90,325,10897,1,4
178,325,11078,2,0,B|277:271,1,80,2|8
248,198,11439,2,0,B|347:144,1,80,2|0
318,71,11801,2,0,B|417:17,1,80,2|8
512,157,12343,5,4
424,157,12523,1,0
335,157,12704,2,0,B|266:224|343:294,1,160,8|0
405,231,13246,1,0
405,231,13337,1,0
405,231,13427,1,8
228,231,13789,2,0,B|317:266|254:362,1,160,2|8
192,298,14331,1,2
16,298,14692,1,2
140,173,15054,2,0,B|100:265|197:301,1,160,2|0
256,237,15596,5,8
431,237,15957,1,0
306,112,16319,1,8
244,173,16499,2,0,B|181:99|261:30,1,160,2|0
345,33,17042,1,8
169,33,17403,1,2
80,33,17584,1,0
80,76,17674,1,0
80,119,17764,1,8
80,207,17945,1,0
168,207,18126,6,0,B|273:207|273:81,1,160,4|8
183,108,18668,1,0
183,19,18849,2,0,B|74:19|74:141,1,160,0|8
200,238,19572,1,2
200,150,19752,2,0,B|94:150,2,80,0|8|0
376,150,20475,1,2
251,25,20837,2,0,B|339:60|283:155,1,160
282,155,21379,5,8
106,155,21740,1,0
230,279,22102,1,8
141,279,22283,1,2
316,279,22644,1,2
404,279,22825,1,8
257,132,23186,1,2
257,220,23367,1,0
257,263,23457,1,0
257,307,23548,1,8
318,368,23728,1,0
406,368,23909,6,0,B|503:368|503:259,1,160,4|8
440,203,24451,1,0
502,140,24632,2,0,B|502:45,1,80
413,60,24993,1,8
350,122,25174,1,0
287,59,25355,2,0,B|197:59|197:174,1,160,4|8
197,167,25897,1,2
197,342,26258,5,0
197,253,26439,1,8
285,253,26620,2,0,B|387:253|387:376,1,160,4|0
297,353,27162,5,8
234,290,27343,1,0
172,228,27523,2,0,B|115:187|80:270|0:193,2,160,0|8|4
234,165,28427,1,0
296,227,28608,1,8
384,227,28789,2,0,B|365:158|431:116|389:54,1,160
398,70,29240,1,0
398,70,29331,1,8
310,70,29511,1,0
233,114,29692,6,0,B|332:132|291:242,1,160,4|8
205,233,30234,1,0
142,170,30415,2,0,B|69:258|170:317,1,160,0|8
241,306,30957,1,0
314,257,31138,6,0,B|413:288|341:380,1,160,4|8
114,152,31861,2,0,B|74:57|179:34,1,160,4|8
256,192,32584,12,4,34030
257,194,35114,5,2
257,18,35475,1,4
194,80,35656,1,0
131,17,35837,2,0,B|76:17|20:62|20:136,1,160,8|0
104,145,36379,1,0
41,207,36560,2,0,B|5:274|43:341|116:341,1,160,8|2
149,274,37102,5,0
211,336,37283,1,8
272,274,37463,2,0,B|354:336,2,75
342,203,38005,2,0,B|266:154|192:205,1,160,8|4
317,80,38728,2,0,B|405:107|415:210,1,160,8|0
325,196,39270,1,0
262,258,39451,1,8
262,302,39542,1,0
292,332,39632,1,0
380,332,39813,1,4
380,156,40174,5,8
203,156,40536,2,0,B|102:156,1,75
61,222,40897,2,0,B|3:197|3:114|66:95,1,160,8|4
147,97,41439,1,0
147,185,41620,1,8
147,96,41801,2,0,B|147:6,2,80
235,96,42343,2,0,B|336:107|337:216,1,160,8|4
248,199,42885,1,0
248,287,43066,2,0,B|335:339|410:232,2,160,8|0|8
256,192,44150,12,2,45596
256,187,46319,6,0,B|256:241|305:276|347:239|347:176,2,160,2|8|4
256,98,47222,1,0
256,98,47403,2,0,B|177:54|86:106,1,160,8|0
102,185,47945,1,0
102,273,48126,2,0,B|3:272|3:134,1,160,8|4
67,105,48668,1,0
129,42,48849,2,0,B|229:42|229:153,1,160,8|0
228,229,49391,1,0
228,272,49481,1,0
228,316,49572,1,8
352,191,49933,6,0,B|433:251|361:336,1,160,4|8
190,328,50656,2,0,B|190:234,1,80
101,248,51017,1,8
12,248,51198,2,0,B|12:150,1,80,0|4
136,43,51740,1,8
260,167,52102,5,2
260,255,52283,1,0
303,255,52373,1,0
346,255,52463,2,0,B|449:255|449:144,1,160,8|4
386,95,53005,1,0
386,183,53186,2,0,B|286:183|286:52,1,160,8|0
162,204,53909,6,0,B|219:119|317:172,1,160,8|4
388,317,54632,2,0,B|481:299|467:197,1,160,8|0
379,199,55174,1,0
290,199,55355,1,8
259,168,55445,1,0
259,123,55536,1,0
259,35,55716,1,4
256,192,58608,5,4
193,129,58789,1,0
193,41,58969,2,0,B|106:32|56:128,1,160,8|0
62,204,59511,1,0
62,248,59602,1,0
92,278,59692,1,8
180,278,59873,1,0
242,215,60054,5,2
303,276,60234,2,0,B|398:265|426:171,1,160,2|2
297,58,60957,1,2
208,58,61138,2,0,B|208:120|248:144|256:224,1,160,8|4
430,210,61861,5,8
305,85,62222,2,0,B|214:119|225:245,1,160,0|8
349,87,62945,2,0,B|431:121|409:222,1,160,4|8
285,343,63668,2,0,B|229:263|301:178,1,160,0|8
376,194,64210,1,0
376,282,64391,5,4
464,282,64572,2,0,B|464:383,2,80,0|8|0
464,193,65114,2,0,B|458:101|376:67,1,160,0|8
290,68,65656,1,0
227,130,65837,1,4
139,130,66017,2,0,B|63:176|67:282,1,160,2|2
129,327,66560,1,0
190,265,66740,1,0
234,265,66831,1,0
277,265,66921,1,8
339,327,67102,1,0
401,264,67283,6,0,B|435:90,1,160,4|8
307,231,68005,2,0,B|171:91,1,160,0|8
195,292,68728,2,0,B|32:303,1,160,4|8
160,178,69451,2,0,B|19:106,1,160,0|8
17,105,69903,1,0
17,105,69993,1,0
79,42,70174,5,4
167,42,70355,1,0
229,104,70536,2,0,B|229:193,2,80,8|0|0
291,41,71078,1,0
352,102,71258,2,0,B|415:176|353:249,2,160,8|2|8
263,102,72162,1,2
87,102,72523,1,2
24,164,72704,1,8
96,214,72885,6,0,B|170:280|244:210,1,160,4|0
238,214,73427,1,8
238,125,73608,2,0,B|238:20,2,80
326,125,74150,1,8
388,62,74331,2,0,B|453:138|384:223,1,160,2|2
332,270,74873,2,0,B|233:270,1,80,8|0
163,270,75234,1,0
74,270,75415,1,0
74,270,75505,1,0
74,270,75596,1,8
29,194,75777,1,0
90,132,75957,6,0,B|172:101|235:182,1,160,4|8
168,239,76499,1,0
230,176,76680,2,0,B|258:279|345:278,1,160,0|8
399,215,77222,1,0
479,215,77403,6,0,B|479:55,1,160,4|4
302,55,78487,1,8
213,55,78668,1,2
256,192,78849,12,4,80295
255,194,90415,5,4
317,131,90596,1,0
378,192,90776,2,0,B|378:290,1,80,8|0
466,272,91138,2,0,B|467:370|342:369,1,160,0|8
274,368,91680,1,0
211,305,91861,5,4
148,242,92042,2,0,B|231:188,1,80,0|8
277,260,92403,1,0
339,197,92584,2,0,B|276:121,1,80
199,135,92945,2,0,B|237:39|328:40,2,160,8|2|8
287,135,93849,2,0,B|264:216|168:248,1,160
90,244,94391,1,8
178,244,94572,1,0
239,305,94752,5,4
327,305,94933,2,0,B|403:256,1,80,0|8
394,173,95295,2,0,B|501:173,1,80
474,84,95656,1,0
474,84,95746,1,0
474,84,95837,1,8
386,84,96017,1,0
323,146,96198,6,0,B|251:201|152:161,1,160,4|8
233,105,96740,1,0
170,42,96921,1,0
107,104,97102,2,0,B|7:162,2,80,0|8|0
169,166,97644,2,0,B|99:228|137:318,1,160,2|8
196,373,98186,1,2
372,373,98548,2,8,B|371:280,1,80,2|8
283,293,98909,2,0,B|294:182|392:168,1,160,2|2
433,234,99451,5,8
495,171,99632,2,0,B|464:88|376:72,1,160
378,72,100174,1,8
254,197,100536,2,8,B|344:225|401:144,1,160,4|8
333,89,101078,1,0
245,89,101258,1,0
156,89,101439,1,0
111,89,101530,1,0
80,119,101620,1,8
80,207,101801,1,0
141,268,101981,5,4
229,268,102162,2,0,B|299:338,2,80,0|8|0
166,205,102704,2,0,B|202:107|306:116,1,160,0|8
285,115,103156,1,0
285,115,103246,1,0
285,203,103427,2,0,B|443:262,1,160,4|8
434,347,103969,1,4
257,347,104331,5,2
257,259,104511,1,8
168,259,104692,2,0,B|-9:259,1,160,2|2
8,170,105234,1,8
8,81,105415,2,0,B|81:34|160:89,1,160
219,149,105957,1,8
281,86,106138,2,0,B|374:59,2,80,0|4|2
192,86,106680,6,0,B|111:128,1,80,8|0
120,211,107042,1,0
58,272,107222,1,0
58,272,107313,1,0
58,272,107403,1,8
120,334,107584,1,0
207,334,107764,5,4
269,271,107945,1,0
331,208,108126,2,0,B|427:232|425:332,2,160,8|0|8
242,208,109030,1,0
329,208,109210,6,0,B|349:304|255:345,1,160,4|8
140,215,109933,2,0,B|162:106|264:134,1,160,4|8
256,192,110656,12,4,112102
258,195,113186,5,2
133,70,113548,1,4
71,131,113728,1,0
133,193,113909,2,0,B|70:271,2,80,8|0|0
195,255,114451,1,0
257,192,114632,2,0,B|311:272|248:352,2,160,8|2|8
194,129,115536,5,0
132,67,115716,2,0,B|224:39,1,80
271,106,116078,1,8
332,167,116258,1,0
394,104,116439,2,0,B|468:173|397:259,1,160,2|8
344,309,116981,2,0,B|253:309,2,80
344,309,117433,1,0
344,309,117523,1,8
406,246,117704,1,0
406,157,117885,1,4
230,157,118246,5,8
105,281,118608,1,0
193,281,118789,2,0,B|280:281,2,80,0|8|0
104,281,119331,2,0,B|20:227|95:144,1,160,4|8
180,147,119873,1,0
242,84,120054,1,0
180,22,120234,1,0
180,22,120325,1,0
180,22,120415,1,8
180,147,120776,5,4
324,147,121138,1,8
89,249,121499,1,2
409,249,121861,1,8
256,192,122222,12,2,123668
257,189,124391,5,2
156,44,124752,1,8
93,106,124933,1,0
93,149,125023,1,0
93,193,125114,1,4
30,255,125295,1,0
91,316,125475,2,0,B|162:366|259:311,1,160,8|0
242,231,126017,1,0
304,293,126198,2,0,B|386:249|393:132,2,160,8|2|8
304,116,127283,1,0
216,116,127463,1,0
184,147,127554,1,0
184,190,127644,1,8
308,314,128005,5,4
466,155,128367,1,8
253,223,128728,1,2
377,98,129090,1,8
249,98,129451,1,4
124,222,129813,5,8
379,222,130174,1,0
258,222,130355,1,0
258,222,130445,1,0
258,222,130536,2,0,B|258:60,1,160,8|4
346,62,131078,1,0
407,123,131258,2,0,B|498:124,2,80,8|0|0
344,185,131801,1,0
282,123,131981,2,0,B|188:151|257:265,1,160,8|4
124,126,132704,5,8
248,250,133066,1,2
10,155,133427,1,8
225,370,133789,1,4
256,192,143548,12,2,144993
257,192,145355,6,0,B|336:149|423:200,1,160,4|8
347,255,145897,1,0
347,343,146078,2,0,B|445:343,1,80
427,254,146439,2,0,B|516:254,2,80,8|0|4
427,77,147162,5,8
251,77,147523,1,2
313,139,147704,1,2
375,76,147885,2,0,B|439:140|378:230,1,160,8|4
295,221,148427,6,0,B|242:318,1,80,0|8
193,228,148789,2,0,B|127:324,1,80
85,231,149150,2,0,B|32:302,1,80,0|8
99,357,149511,1,0
187,357,149692,2,0,B|281:356,2,80,4|0|8
187,268,150234,1,0
249,205,150415,1,0
311,267,150596,1,0
311,267,150686,1,0
311,267,150776,1,8
311,90,151138,6,0,B|391:138,1,75,4|0
441,194,151499,2,0,B|497:258,1,75,8|0
423,316,151861,2,0,B|321:294,1,80
256,299,152222,5,8
148,191,152403,1,0
255,83,152584,1,4
430,83,152945,5,8
305,207,153307,1,2
392,207,153487,2,0,B|413:311|286:344,1,160,2|2
231,332,154030,1,4
169,270,154210,1,0
106,332,154391,2,0,B|14:331,1,80,8|0
110,246,154752,2,0,B|220:246,1,80
104,160,155114,2,0,B|-2:160,1,80,8|0
108,75,155475,6,0,B|215:75,1,80,4|0
273,160,155837,1,8
357,75,156017,2,0,B|439:74,2,80,0|0|0
442,160,156560,5,8
357,244,156740,1,0
272,328,156921,1,4
147,203,157283,5,8
85,264,157463,1,0
85,352,157644,2,0,B|-12:336|10:222,1,160,0|8
7,146,158186,2,0,B|7:54,2,80,0|2|0
69,208,158728,1,8
131,145,158909,1,0
193,207,159090,2,0,B|270:137,1,80
314,215,159451,1,8
251,277,159632,1,0
162,277,159813,6,0,B|192:374|288:368,1,160,4|8
340,306,160355,1,0
428,306,160536,2,0,B|428:205,1,80
428,137,160897,1,8
428,137,160987,1,0
428,137,161078,1,0
428,49,161258,1,4
251,49,161620,5,8
188,111,161801,2,0,B|119:27,2,80,0|0|0
250,173,162343,2,0,B|338:207|326:333,1,160,8|4
265,363,162885,2,0,B|169:363,1,80,0|8
122,300,163246,2,0,B|205:232,1,80
121,186,163608,1,0
58,123,163789,2,0,B|58:19,2,80,8|0|4
120,185,164331,1,0
181,123,164511,2,0,B|240:208|176:288,2,160,8|2|8
256,192,165596,12,2,167042
256,192,167764,5,2
131,67,168126,1,8
100,97,168216,1,0
100,141,168307,1,0
100,228,168487,1,4
276,228,168849,2,0,B|336:280,1,80,8|0
398,342,169210,2,0,B|500:339|500:239,1,160,0|8
437,181,169752,1,0
437,92,169933,6,0,B|336:63|299:164,2,160,4|8|0
437,180,170837,1,0
375,241,171017,2,0,B|287:295,1,80,8|0
244,220,171379,1,4
155,220,171560,2,0,B|66:279,2,80,0|8|0
243,220,172102,1,0
243,131,172283,1,0
304,69,172463,1,8
348,69,172554,1,0
391,69,172644,1,0
453,131,172825,1,4
328,255,173186,5,8
151,255,173548,2,0,B|87:184|8:200,2,160,0|8|4
151,343,174451,1,0
239,343,174632,2,0,B|328:313|363:203,1,160,8|0
288,173,175174,1,0
350,110,175355,2,0,B|450:128|449:242,1,160,8|4
254,357,176078,5,8
0,192,176439,1,2
257,29,176801,1,8
511,194,177162,1,4
256,194,180054,5,4
194,132,180234,1,0
194,43,180415,2,0,B|102:43|66:131,1,160,8|0
68,213,180957,1,0
68,213,181048,1,0
68,213,181138,1,8
192,337,181499,5,4
254,274,181680,2,0,B|319:349,2,80,0|8|0
191,211,182222,2,0,B|114:237|99:347,2,160,0|8|4
367,211,183307,5,8
242,86,183668,1,0
65,86,184030,1,8
189,210,184391,1,2
64,334,184752,1,8
240,334,185114,1,0
328,334,185295,1,0
328,334,185385,1,0
328,334,185475,1,8
390,271,185656,1,0
452,208,185837,5,4
390,146,186017,2,0,B|298:192,1,80,0|8
255,119,186379,1,0
192,56,186560,2,0,B|122:146|201:215,1,160,0|8
362,200,187283,1,2
274,200,187463,1,2
398,75,187825,2,0,B|504:75|504:186,2,160,2|2|2
335,137,188728,5,4
397,199,188909,1,0
334,261,189090,1,8
209,136,189451,2,0,B|161:213|208:289,1,160,0|8
82,162,190174,2,0,B|91:64|206:39,1,160,2|8
178,222,190897,2,0,B|207:129|300:119,1,160,0|8
289,120,191349,1,0
289,120,191439,1,0
377,120,191620,5,4
377,208,191801,1,0
464,208,191981,2,0,B|464:303|331:312,2,160,8|0|8
440,122,192885,2,0,B|361:46,1,80,0|4
257,191,193427,2,0,B|187:272,1,80,8|4
28,251,193969,5,0
90,188,194150,1,8
27,125,194331,2,0,B|70:44|178:73,1,160,4|0
163,69,194873,1,8
287,193,195234,1,0
349,130,195415,1,0
372,45,195596,2,0,B|465:87|427:188,2,160,8|4|8
283,45,196499,5,0
158,169,196861,1,0
95,106,197042,2,0,B|31:166|63:258,1,160,8|2
149,252,197584,1,0
87,313,197764,2,0,B|146:379|239:353,1,160,8|0
232,178,198487,1,8
345,64,198849,6,0,B|507:65,1,160,4|4
504,241,199933,1,8
441,303,200114,1,0
378,240,200295,6,0,B|378:132,2,80,4|0|8
289,240,200837,2,0,B|240:337,1,80
164,311,201198,1,0
164,311,201289,1,0
164,311,201379,1,8
39,186,201740,2,0,B|131:230,1,80,4|0
173,157,202102,2,0,B|97:110,1,80,8|0
167,52,202463,2,0,B|249:103,2,80,0|0|8
167,228,203186,6,0,B|272:182,1,80,4|0
240,284,203548,1,8
327,284,203728,2,0,B|327:172,2,80
415,284,204270,1,8
415,195,204451,2,0,B|497:225,2,80,0|2|0
415,106,204993,2,0,B|311:119|327:242,1,160,8|0
449,340,205716,1,8
256,192,206078,12,4,207523
259,196,207704,5,0
196,133,207885,2,0,B|219:44|320:44,1,160,8|0
375,106,208427,1,0
312,168,208608,2,0,B|312:280,1,80,8|0
400,248,208969,2,0,B|400:358|269:358,1,160,4|8
230,308,209511,2,0,B|148:270,1,80,0|0
157,274,209873,2,0,B|104:192,1,80,0|8
257,206,210234,6,0,B|257:93,1,80,2|4
95,126,210596,2,0,B|95:23,1,80,2|8
95,206,210957,2,0,B|95:320,1,80,2|2
256,286,211319,2,0,B|256:380,1,80,0|8
256,205,211680,1,0
256,192,211861,12,4,214752
