osu file format v9

[General]
AudioFilename: 02 - Shiawase Hiyori.mp3
AudioLeadIn: 0
PreviewTime: 35458
Countdown: 0
SampleSet: Soft
StackLeniency: 0.6
Mode: 0
LetterboxInBreaks: 1

[Editor]
DistanceSpacing: 1.2
BeatDivisor: 4
GridSize: 8

[Metadata]
Title:Shiawase Hiyori
Artist:Toyosaki Aki
Creator:indyinyou
Version:Easy
Source:K-ON!!
Tags:Hirasawa Yui

[Difficulty]
HPDrainRate:1
CircleSize:3
OverallDifficulty:1
ApproachRate:1
SliderMultiplier:0.8
SliderTickRate:1

[Events]
//Background and Video events
0,0,"Yui_BG.jpg"
//Break Periods
2,55916,56928
2,80495,88735
2,133988,143675
2,177361,178374
//Storyboard Layer 0 (Background)
//Storyboard Layer 1 (Fail)
//Storyboard Layer 2 (Pass)
//Storyboard Layer 3 (Foreground)
//Storyboard Sound Samples
//Background Colour Transformations
3,100,0,0,0

[TimingPoints]
777,361.44578313253,4,2,0,50,1,0
35278,-100,4,2,0,70,0,0
35475,-100,4,2,0,70,0,1
55716,-100,4,2,0,70,0,0
58410,-100,4,2,0,50,0,0
90217,-100,4,2,0,50,0,0
113350,-100,4,2,0,70,0,0
113548,-100,4,2,0,70,0,1
133789,-100,4,2,0,70,0,0
145157,-100,4,2,0,70,0,0
156921,-100,4,2,0,70,0,1
177162,-100,4,2,0,70,0,0
179856,-100,4,2,0,50,0,0

[Colours]
Combo1 : 90,191,224
Combo2 : 247,50,45
Combo3 : 166,102,74

[HitObjects]
256,192,6560,1,4
160,192,6921,1,8
24,56,7644,1,8
216,56,8367,1,8
408,56,9090,1,8
475,123,9451,5,2
407,190,9813,1,8
214,190,10536,1,8
214,285,10897,2,0,B|214:370,3,80,4|8|0|8
310,365,12343,5,4
405,365,12704,2,0,B|461:339|461:262|403:231,1,160,8|8
341,166,13789,2,0,B|409:99,2,80,2|8|0
273,98,14873,2,0,B|227:59|158:89|158:158,1,160,8|8
158,344,16319,5,8
158,248,16680,1,4
158,151,17042,1,8
293,286,17764,5,8
293,189,18126,1,4
293,93,18487,2,0,B|383:82|421:173,1,160,8|8
419,265,19572,2,0,B|506:265,2,80,2|8|0
323,265,20656,2,0,B|252:265|251:328|167:329,1,160,8|8
0,328,22102,5,8
67,260,22463,1,4
134,192,22825,1,8
326,192,23548,5,8
230,192,23909,1,4
134,192,24270,2,0,B|75:124,1,80,8|0
149,63,24993,2,0,B|246:62,1,80,8|2
325,62,25716,2,0,B|381:62,1,40,8|2
432,129,26258,2,0,B|488:129,2,40,0|8|4
432,273,27162,6,0,B|342:298|276:214,1,160,8|8
355,159,28246,2,0,B|326:114|277:114,2,80,4|8|0
286,227,29331,1,8
218,159,29692,5,4
121,159,30054,2,0,B|121:64,2,80,8|0|8
121,255,31138,1,4
313,255,31861,1,4
256,192,32584,12,4,34030
258,192,35114,5,2
190,124,35475,1,4
256,57,35837,2,0,B|353:61|353:165,1,160,8|8
256,159,36921,1,2
159,159,37283,2,8,B|142:264|246:281,1,160
330,278,38367,5,4
395,212,38728,2,0,B|478:212,2,80,8|0|8
326,143,39813,1,4
133,143,40536,6,0,B|41:142,2,80,2|8|4
200,75,41620,2,0,B|264:146|200:226,1,160,8|8
136,288,42704,1,4
203,355,43066,2,0,B|297:353|327:265,1,160,8|8
256,192,44150,12,2,45596
258,193,46319,6,0,B|349:192,2,80,2|8|4
161,193,47403,2,0,B|190:96|281:103,1,160,8|8
372,102,48487,1,2
442,172,48849,6,0,B|508:248|439:320,1,160,8|8
375,247,49933,1,4
278,247,50295,2,0,B|191:247,3,80,8|0|8|4
198,54,52102,6,0,B|291:55,2,80,2|8|4
101,54,53186,2,0,B|5:77|24:184,1,160,8|8
118,173,54270,1,4
185,240,54632,2,0,B|185:326,3,80,8|0|8|4
257,189,58608,5,4
189,121,58969,2,0,B|109:168,2,80,8|0|8
257,52,60054,2,0,B|314:52,1,40,2|2
364,119,60596,1,2
431,186,60957,2,0,B|431:277,1,80,2|2
286,266,61861,5,8
150,130,62584,1,8
14,265,63307,1,8
149,129,64030,1,8
216,196,64391,6,0,B|216:286,2,80,4|8|0
119,196,65475,2,0,B|14:197|14:84,1,160,8|8
111,100,66560,2,0,B|111:10,2,80,0|8|2
207,100,67644,5,8
399,100,68367,1,8
399,292,69090,1,8
206,292,69813,1,8
301,292,70174,6,0,B|301:383,2,80,4|8|0
301,195,71258,2,0,B|224:136,1,80,8|4
141,146,71981,2,0,B|85:146,1,40,2|2
101,242,72523,2,0,B|58:242,2,40,0|8|4
245,242,73427,5,8
312,174,73789,1,0
244,106,74150,2,0,B|244:15,2,80,8|4|8
176,173,75234,2,0,B|95:173,1,80,0|8
28,240,75957,5,4
95,307,76319,2,0,B|169:349|264:309,1,160,8|8
249,218,77403,1,4
249,25,78126,1,4
249,120,78487,1,8
256,192,78668,12,4,80295
256,184,90415,5,4
188,116,90776,2,0,B|94:71|36:164,1,160,8|8
46,245,91861,2,0,B|46:328,2,80,2|8|0
142,245,92945,2,0,B|213:245|212:314|291:314,1,160,8|8
281,121,94391,5,8
416,256,95114,1,8
416,63,95837,1,8
416,158,96198,6,0,B|507:157,2,80,4|8|0
347,226,97283,1,8
279,158,97644,1,2
346,90,98005,2,0,B|272:27|186:103,1,160,8|8
132,159,99090,2,0,B|196:223,1,80,4|8
380,215,100174,5,8
244,350,100897,1,8
108,214,101620,1,8
108,118,101981,5,4
175,50,102343,2,0,B|270:89|239:181,1,160,8|8
172,244,103427,1,4
104,311,103789,2,0,B|168:371,1,80,8|0
258,365,104511,2,0,B|355:365,1,80,8|4
405,297,105234,6,0,B|488:296,2,80,8|0|8
405,200,106319,1,4
405,104,106680,2,0,B|491:104,2,80,8|0|8
337,171,107764,5,4
269,103,108126,2,0,B|198:169|269:242,1,160,8|8
172,241,109210,1,4
364,241,109933,1,4
256,192,110656,12,4,112102
256,194,113186,5,2
188,261,113548,1,4
255,328,113909,2,0,B|335:371|416:321,1,160,8|8
475,257,114993,1,2
407,189,115355,2,0,B|331:147|244:190,1,160,8|8
185,117,116439,5,4
117,49,116801,2,0,B|43:94,1,80,8|0
48,186,117523,2,0,B|48:269,1,80,8|4
240,266,118608,5,2
335,266,118969,2,0,B|424:266,1,80,8|4
482,198,119692,2,0,B|479:98|376:72,1,160,8|8
326,145,120776,1,4
258,213,121138,2,0,B|258:292,2,80,8|0|8
256,192,122222,12,2,123668
256,193,124391,6,0,B|257:114,2,80,2|8|4
188,260,125475,2,0,B|257:331|333:259,1,160,8|8
328,166,126560,2,0,B|424:166,1,80,2|8
475,233,127283,2,0,B|411:307,1,80,0|8
326,293,128005,5,4
229,293,128367,2,0,B|121:293|121:181,1,160,8|8
121,199,129451,1,4
257,63,130174,5,2
257,159,130536,2,0,B|257:251,1,80,8|4
161,239,131258,1,8
64,239,131620,2,0,B|24:160,1,80,0|8
95,99,132343,2,0,B|190:100,1,80,4|8
242,167,133066,2,0,B|296:240,2,80,0|8|4
257,194,145355,5,4
189,126,145716,2,0,B|109:90|34:127,1,160,8|8
34,223,146801,1,4
101,290,147162,1,8
196,290,147523,1,2
196,290,147704,1,2
292,290,148066,6,0,B|319:213|280:163,1,120,2|8
191,174,148969,2,0,B|191:81,1,80,0|8
287,94,149692,2,0,B|384:94,3,80,4|8|0|8
434,161,151138,5,4
501,228,151499,2,0,B|467:312|358:312,1,160,8|8
279,311,152584,1,4
279,215,152945,1,8
279,118,153307,1,2
279,118,153487,1,2
211,50,153849,6,0,B|151:71|131:144,1,120,2|8
201,203,154752,2,0,B|128:259,5,80,0|8|2|8|0|8
69,183,156921,6,0,B|69:93,1,80,4|8
136,35,157644,2,0,B|216:75,1,80,0|8
275,138,158367,2,0,B|363:106,2,80,2|8|0
207,205,159451,1,8
139,272,159813,2,0,B|58:310,4,80,4|8|0|8|4
139,79,161981,5,2
235,79,162343,2,0,B|305:138,1,80,8|4
376,183,163066,2,0,B|376:275,1,80,8|0
294,313,163789,2,0,B|227:374,1,80,8|4
167,299,164511,1,8
234,231,164873,1,0
166,163,165234,1,8
256,192,165596,12,2,167042
256,192,167764,6,0,B|320:144,2,80,2|8|4
187,123,168849,2,0,B|94:132|87:246,1,160,8|8
156,298,169933,1,4
223,365,170295,2,0,B|319:350|326:239,1,160,8|8
324,161,171379,5,4
256,93,171740,2,0,B|176:133,1,80,8|0
88,128,172463,2,0,B|72:208,1,80,8|4
264,206,173548,6,0,B|264:287,1,80,2|8
331,353,174270,1,4
398,285,174632,1,8
398,189,174993,2,0,B|486:221,2,80,0|8|4
329,120,176078,1,8
261,187,176439,2,0,B|179:224,2,80,0|8|4
257,195,180054,5,4
324,127,180415,2,0,B|389:127|389:197|468:197,1,160,8|8
394,264,181499,1,2
326,331,181861,2,0,B|161:332,1,160,8|8
98,263,182945,6,0,B|154:199,1,80,4|8
342,202,184030,1,8
206,66,184752,1,8
70,201,185475,1,8
166,201,185837,6,0,B|166:287,1,80,4|8
233,348,186560,1,0
300,280,186921,2,0,B|384:280,1,80,8|4
447,212,187644,2,0,B|447:106|343:106,1,160,8|8
285,174,188728,6,0,B|194:174,1,80,4|8
12,174,189813,1,8
147,309,190536,1,8
282,173,191258,1,8
214,105,191620,6,0,B|126:105,1,80,4|8
134,201,192343,1,0
134,296,192704,2,0,B|52:296,1,80,8|4
54,199,193427,2,0,B|54:146,1,40,2|2
121,91,193969,2,0,B|121:41,2,40,0|8|4
265,91,194873,6,0,B|342:163|270:227,1,160,8|8
173,227,195957,1,4
76,227,196319,2,0,B|7:300|80:377,1,160,8|8
169,369,197403,6,0,B|259:369,1,80,4|8
345,369,198126,2,0,B|417:321,1,80,0|8
411,228,198849,1,4
252,119,199572,2,0,B|252:208,2,80,2|8|4
155,119,200656,6,0,B|73:119|33:212,1,160,8|8
102,276,201740,1,2
169,343,202102,2,0,B|261:329|280:240,1,160,8|8
279,146,203186,1,2
211,78,203548,2,0,B|126:78,2,80,8|0|8
278,145,204632,1,4
345,212,204993,2,0,B|438:213,2,80,8|0|8
256,192,206078,12,4,207523
258,194,208608,5,8
190,126,208969,2,0,B|110:126,1,80,4|8
42,193,209692,2,0,B|26:289,1,80,0|8
124,271,210415,2,0,B|196:319,3,80,4|8|0|8
256,192,211861,12,4,214752
