osu file format v14

[General]
AudioFilename: Happy! Sorry!!.mp3
AudioLeadIn: 0
PreviewTime: 55024
Countdown: 0
SampleSet: Normal
StackLeniency: 0.7
Mode: 1
LetterboxInBreaks: 0
WidescreenStoryboard: 0

[Editor]
DistanceSpacing: 0.6
BeatDivisor: 4
GridSize: 32
TimelineZoom: 1.9

[Metadata]
Title:Happy!? Sorry!!
TitleUnicode:Happy!? Sorry!!
Artist:Toyosaki Aki
ArtistUnicode:豊崎愛生
Creator:OzzyOzrock
Version:TaiK-ON!!
Source:けいおん!
Tags:k-on! anime happy sorry hirasawa yui akiyama mio tanaka ritsu tsumugi hisaka yoko satou satomi kotobuki minako k-on keion LTL Lost The Lights
BeatmapID:788065
BeatmapSetID:358397

[Difficulty]
HPDrainRate:6
CircleSize:5
OverallDifficulty:6
ApproachRate:6
SliderMultiplier:1.4
SliderTickRate:1

[Events]
//Background and Video events
0,0,"happysorry.jpg",0,40
//Break Periods
//Storyboard Layer 0 (Background)
//Storyboard Layer 1 (Fail)
//Storyboard Layer 2 (Pass)
//Storyboard Layer 3 (Foreground)
//Storyboard Sound Samples

[TimingPoints]
358,333.333333333333,4,1,0,90,1,0
55024,-100,4,1,0,90,0,1
77691,-100,4,1,0,90,0,0
85691,-66.6666666666667,4,1,0,90,0,0

[HitObjects]
256,192,1024,12,0,1524,0:0:0:0:
126,297,1691,5,0,0:0:0:0:
126,297,1857,1,0,0:0:0:0:
126,297,1941,1,0,0:0:0:0:
352,269,2024,1,8,0:0:0:0:
171,296,2191,1,0,0:0:0:0:
320,272,2357,1,8,0:0:0:0:
320,272,2441,1,8,0:0:0:0:
147,284,2524,1,0,0:0:0:0:
147,284,2691,1,0,0:0:0:0:
329,274,2857,1,8,0:0:0:0:
329,274,2941,1,8,0:0:0:0:
168,284,3024,1,0,0:0:0:0:
289,267,3191,1,8,0:0:0:0:
289,267,3274,1,8,0:0:0:0:
289,267,3357,1,8,0:0:0:0:
137,289,3524,1,0,0:0:0:0:
289,267,3691,1,8,0:0:0:0:
289,267,3774,1,8,0:0:0:0:
155,284,3857,1,0,0:0:0:0:
152,285,3941,1,0,0:0:0:0:
319,267,4024,1,8,0:0:0:0:
329,274,4191,1,8,0:0:0:0:
126,297,4357,5,0,0:0:0:0:
126,297,4523,1,0,0:0:0:0:
126,297,4607,1,0,0:0:0:0:
352,269,4690,1,8,0:0:0:0:
171,296,4857,1,0,0:0:0:0:
320,272,5023,1,8,0:0:0:0:
320,272,5107,1,8,0:0:0:0:
147,284,5190,1,0,0:0:0:0:
147,284,5357,1,0,0:0:0:0:
329,274,5523,1,8,0:0:0:0:
329,274,5607,1,8,0:0:0:0:
168,284,5690,1,0,0:0:0:0:
289,267,5857,1,8,0:0:0:0:
289,267,5940,1,8,0:0:0:0:
289,267,6023,1,8,0:0:0:0:
137,289,6190,1,0,0:0:0:0:
407,267,6357,1,8,0:0:0:0:
81,298,6440,1,0,0:0:0:0:
129,260,6524,1,0,0:0:0:0:
121,284,6607,1,0,0:0:0:0:
407,267,6691,1,8,0:0:0:0:
102,286,6774,1,0,0:0:0:0:
347,260,6857,1,8,0:0:0:0:
347,260,6941,1,8,0:0:0:0:
126,297,7024,5,0,0:0:0:0:
126,297,7190,1,0,0:0:0:0:
126,297,7274,1,0,0:0:0:0:
352,269,7357,1,8,0:0:0:0:
171,296,7524,1,0,0:0:0:0:
320,272,7690,1,8,0:0:0:0:
320,272,7774,1,8,0:0:0:0:
147,284,7857,1,0,0:0:0:0:
147,284,8024,1,0,0:0:0:0:
329,274,8190,1,8,0:0:0:0:
329,274,8274,1,8,0:0:0:0:
168,284,8357,1,0,0:0:0:0:
289,267,8524,1,8,0:0:0:0:
289,267,8607,1,8,0:0:0:0:
289,267,8690,1,8,0:0:0:0:
137,289,8857,1,0,0:0:0:0:
289,267,9024,1,8,0:0:0:0:
289,267,9107,1,8,0:0:0:0:
155,284,9190,1,0,0:0:0:0:
152,285,9274,1,0,0:0:0:0:
319,267,9357,1,8,0:0:0:0:
329,274,9524,1,8,0:0:0:0:
126,297,9690,5,0,0:0:0:0:
126,297,9856,1,0,0:0:0:0:
126,297,9940,1,0,0:0:0:0:
352,269,10023,1,8,0:0:0:0:
171,296,10190,1,0,0:0:0:0:
320,272,10356,1,8,0:0:0:0:
320,272,10440,1,8,0:0:0:0:
147,284,10523,1,0,0:0:0:0:
147,284,10690,1,0,0:0:0:0:
329,274,10856,1,8,0:0:0:0:
329,274,10940,1,8,0:0:0:0:
168,284,11023,1,0,0:0:0:0:
289,267,11190,1,8,0:0:0:0:
289,267,11273,1,8,0:0:0:0:
289,267,11356,1,8,0:0:0:0:
137,289,11523,1,0,0:0:0:0:
319,293,11691,1,8,0:0:0:0:
191,292,11774,1,0,0:0:0:0:
191,292,11857,1,0,0:0:0:0:
191,292,11941,1,0,0:0:0:0:
323,292,12024,1,8,0:0:0:0:
323,292,12107,1,8,0:0:0:0:
323,292,12191,1,8,0:0:0:0:
323,292,12274,1,8,0:0:0:0:
167,292,12357,1,0,0:0:0:0:
192,288,12524,1,0,0:0:0:0:
192,288,12607,1,0,0:0:0:0:
384,256,12691,1,8,0:0:0:0:
160,288,12857,1,0,0:0:0:0:
160,288,13191,1,0,0:0:0:0:
352,288,13357,1,8,0:0:0:0:
352,288,13441,1,8,0:0:0:0:
352,288,13524,1,8,0:0:0:0:
160,288,13691,1,0,0:0:0:0:
160,288,13857,1,0,0:0:0:0:
160,288,13941,1,0,0:0:0:0:
448,288,14024,1,8,0:0:0:0:
192,320,14191,1,0,0:0:0:0:
160,288,14524,1,0,0:0:0:0:
384,288,14691,1,8,0:0:0:0:
384,288,14774,1,8,0:0:0:0:
384,288,14857,1,8,0:0:0:0:
160,320,15024,1,0,0:0:0:0:
160,320,15191,1,0,0:0:0:0:
160,320,15274,1,0,0:0:0:0:
288,288,15357,1,8,0:0:0:0:
160,288,15524,1,0,0:0:0:0:
416,288,15691,1,8,0:0:0:0:
416,288,15774,1,8,0:0:0:0:
448,288,15857,1,8,0:0:0:0:
192,288,16024,1,0,0:0:0:0:
384,320,16191,1,8,0:0:0:0:
384,288,16274,1,8,0:0:0:0:
192,320,16357,1,0,0:0:0:0:
192,320,16524,1,0,0:0:0:0:
128,320,16607,1,0,0:0:0:0:
352,320,16691,1,8,0:0:0:0:
352,320,16857,1,8,0:0:0:0:
416,288,16941,1,8,0:0:0:0:
416,288,17024,1,8,0:0:0:0:
96,320,17191,1,0,0:0:0:0:
416,320,17357,1,8,0:0:0:0:
416,320,17441,1,8,0:0:0:0:
416,320,17524,1,8,0:0:0:0:
416,320,17607,1,8,0:0:0:0:
32,320,17691,1,0,0:0:0:0:
64,288,17857,1,0,0:0:0:0:
64,288,17941,1,0,0:0:0:0:
352,288,18024,1,8,0:0:0:0:
192,288,18191,1,0,0:0:0:0:
128,288,18524,1,0,0:0:0:0:
320,288,18691,1,8,0:0:0:0:
320,288,18774,1,8,0:0:0:0:
320,288,18857,1,8,0:0:0:0:
192,288,19024,1,0,0:0:0:0:
192,288,19191,1,0,0:0:0:0:
192,288,19274,1,0,0:0:0:0:
416,256,19357,1,8,0:0:0:0:
128,320,19524,1,0,0:0:0:0:
128,288,19857,1,0,0:0:0:0:
352,288,20024,1,8,0:0:0:0:
352,288,20107,1,8,0:0:0:0:
352,288,20191,1,8,0:0:0:0:
160,320,20357,1,0,0:0:0:0:
160,320,20524,1,0,0:0:0:0:
160,320,20607,1,0,0:0:0:0:
288,288,20690,1,8,0:0:0:0:
160,288,20857,1,0,0:0:0:0:
416,288,21024,1,8,0:0:0:0:
416,288,21107,1,8,0:0:0:0:
448,288,21190,1,8,0:0:0:0:
192,288,21357,1,0,0:0:0:0:
384,320,21524,1,8,0:0:0:0:
384,288,21607,1,8,0:0:0:0:
192,320,21690,1,0,0:0:0:0:
192,320,21857,1,0,0:0:0:0:
128,320,21940,1,0,0:0:0:0:
352,320,22024,1,8,0:0:0:0:
352,320,22190,1,8,0:0:0:0:
416,288,22274,1,8,0:0:0:0:
416,288,22357,1,8,0:0:0:0:
96,320,22524,1,0,0:0:0:0:
416,320,22690,1,8,0:0:0:0:
416,320,22774,1,8,0:0:0:0:
416,320,22857,1,8,0:0:0:0:
416,320,22940,1,8,0:0:0:0:
32,320,23024,1,0,0:0:0:0:
416,320,23191,1,8,0:0:0:0:
416,320,23274,1,8,0:0:0:0:
64,288,23357,1,0,0:0:0:0:
96,288,23524,1,0,0:0:0:0:
128,288,23607,1,0,0:0:0:0:
384,288,23691,1,8,0:0:0:0:
416,320,23857,1,8,0:0:0:0:
352,320,23941,1,8,0:0:0:0:
384,288,24024,1,8,0:0:0:0:
128,320,24191,1,0,0:0:0:0:
384,288,24357,1,8,0:0:0:0:
416,288,24691,1,8,0:0:0:0:
160,288,24857,1,0,0:0:0:0:
160,288,24941,1,0,0:0:0:0:
320,256,25024,1,8,0:0:0:0:
192,288,25191,1,0,0:0:0:0:
160,288,25274,1,0,0:0:0:0:
160,288,25357,1,0,0:0:0:0:
352,288,25524,1,8,0:0:0:0:
160,320,25691,1,0,0:0:0:0:
160,320,25858,1,0,0:0:0:0:
160,320,25941,1,0,0:0:0:0:
288,288,26024,1,8,0:0:0:0:
384,320,26107,1,8,0:0:0:0:
160,288,26191,1,0,0:0:0:0:
416,288,26358,1,8,0:0:0:0:
416,288,26441,1,8,0:0:0:0:
448,288,26524,1,8,0:0:0:0:
192,288,26691,1,0,0:0:0:0:
384,320,26858,1,8,0:0:0:0:
384,288,26941,1,8,0:0:0:0:
192,320,27024,1,0,0:0:0:0:
192,320,27191,1,0,0:0:0:0:
128,320,27274,1,0,0:0:0:0:
352,320,27358,1,8,0:0:0:0:
352,320,27524,1,8,0:0:0:0:
416,288,27608,1,8,0:0:0:0:
416,288,27691,1,8,0:0:0:0:
96,320,27858,1,0,0:0:0:0:
416,320,28024,1,8,0:0:0:0:
416,320,28108,1,8,0:0:0:0:
416,320,28191,1,8,0:0:0:0:
416,320,28274,1,8,0:0:0:0:
128,320,28357,1,0,0:0:0:0:
128,320,28524,1,0,0:0:0:0:
128,320,28607,1,0,0:0:0:0:
352,320,28691,1,8,0:0:0:0:
128,320,28857,1,0,0:0:0:0:
352,320,29024,1,8,0:0:0:0:
352,320,29107,1,8,0:0:0:0:
352,320,29191,1,8,0:0:0:0:
416,320,29357,1,8,0:0:0:0:
416,320,29441,1,8,0:0:0:0:
128,320,29524,1,0,0:0:0:0:
128,320,29607,1,0,0:0:0:0:
448,320,29691,1,8,0:0:0:0:
128,320,29857,1,0,0:0:0:0:
128,320,29941,1,0,0:0:0:0:
416,320,30024,1,8,0:0:0:0:
160,288,30191,1,0,0:0:0:0:
384,288,30357,1,8,0:0:0:0:
384,288,30441,1,8,0:0:0:0:
128,288,30524,1,0,0:0:0:0:
416,288,30691,1,8,0:0:0:0:
128,320,30774,1,0,0:0:0:0:
416,288,30857,1,8,0:0:0:0:
416,288,30941,1,8,0:0:0:0:
160,320,31024,1,0,0:0:0:0:
160,320,31191,1,0,0:0:0:0:
160,320,31274,1,0,0:0:0:0:
288,288,31357,1,8,0:0:0:0:
416,288,31441,1,8,0:0:0:0:
160,288,31524,1,0,0:0:0:0:
416,288,31691,1,8,0:0:0:0:
416,288,31774,1,8,0:0:0:0:
448,288,31857,1,8,0:0:0:0:
192,288,32024,1,0,0:0:0:0:
384,320,32191,1,8,0:0:0:0:
384,288,32274,1,8,0:0:0:0:
192,320,32357,1,0,0:0:0:0:
416,288,32524,1,8,0:0:0:0:
416,288,32607,1,8,0:0:0:0:
352,320,32691,1,8,0:0:0:0:
160,288,32774,1,0,0:0:0:0:
160,288,32857,1,0,0:0:0:0:
160,288,32941,1,0,0:0:0:0:
352,288,33024,1,8,0:0:0:0:
160,288,33191,1,0,0:0:0:0:
352,288,33357,1,8,0:0:0:0:
352,288,33441,1,8,0:0:0:0:
160,320,33524,1,0,0:0:0:0:
160,320,33691,1,0,0:0:0:0:
160,320,33857,1,0,0:0:0:0:
160,320,33941,1,0,0:0:0:0:
384,320,34024,1,8,0:0:0:0:
160,288,34191,1,0,0:0:0:0:
160,288,34274,1,0,0:0:0:0:
160,288,34357,1,0,0:0:0:0:
160,288,34441,1,0,0:0:0:0:
160,288,34524,1,0,0:0:0:0:
352,320,34691,1,8,0:0:0:0:
128,288,34857,1,0,0:0:0:0:
128,288,34941,1,0,0:0:0:0:
128,288,35024,1,0,0:0:0:0:
128,288,35191,1,0,0:0:0:0:
352,320,35357,1,8,0:0:0:0:
160,256,35524,1,0,0:0:0:0:
160,256,35607,1,0,0:0:0:0:
160,256,35691,1,0,0:0:0:0:
160,256,35774,1,0,0:0:0:0:
160,256,35857,1,0,0:0:0:0:
352,288,36024,1,8,0:0:0:0:
160,288,36191,1,0,0:0:0:0:
160,288,36357,1,0,0:0:0:0:
160,288,36524,1,0,0:0:0:0:
160,288,36607,1,0,0:0:0:0:
320,288,36691,1,8,0:0:0:0:
128,256,36857,1,0,0:0:0:0:
128,256,36941,1,0,0:0:0:0:
128,256,37024,1,0,0:0:0:0:
128,256,37107,1,0,0:0:0:0:
128,256,37191,1,0,0:0:0:0:
352,288,37357,1,8,0:0:0:0:
96,288,37524,1,0,0:0:0:0:
64,160,37691,1,4,0:0:0:0:
64,160,38024,1,4,0:0:0:0:
352,128,38191,1,12,0:0:0:0:
96,128,38524,1,4,0:0:0:0:
96,128,38691,1,4,0:0:0:0:
352,128,38857,1,12,0:0:0:0:
160,320,39024,1,0,0:0:0:0:
160,320,39190,1,0,0:0:0:0:
160,320,39274,1,0,0:0:0:0:
384,320,39357,1,8,0:0:0:0:
160,288,39524,1,0,0:0:0:0:
160,288,39607,1,0,0:0:0:0:
160,288,39690,1,0,0:0:0:0:
160,288,39774,1,0,0:0:0:0:
160,288,39857,1,0,0:0:0:0:
352,320,40024,1,8,0:0:0:0:
128,288,40190,1,0,0:0:0:0:
128,288,40274,1,0,0:0:0:0:
128,288,40357,1,0,0:0:0:0:
128,288,40524,1,0,0:0:0:0:
352,320,40690,1,8,0:0:0:0:
160,256,40857,1,0,0:0:0:0:
160,256,40940,1,0,0:0:0:0:
160,256,41024,1,0,0:0:0:0:
160,256,41107,1,0,0:0:0:0:
160,256,41190,1,0,0:0:0:0:
352,288,41357,1,8,0:0:0:0:
160,288,41524,1,0,0:0:0:0:
448,288,41691,1,8,0:0:0:0:
448,288,41774,1,8,0:0:0:0:
128,288,41857,1,0,0:0:0:0:
384,288,42024,1,8,0:0:0:0:
160,288,42191,1,0,0:0:0:0:
160,288,42274,1,0,0:0:0:0:
384,256,42357,1,8,0:0:0:0:
384,288,42441,1,8,0:0:0:0:
160,256,42524,1,0,0:0:0:0:
320,256,42691,1,8,0:0:0:0:
384,256,42774,1,8,0:0:0:0:
160,288,42857,1,0,0:0:0:0:
128,256,42941,1,0,0:0:0:0:
352,288,43024,1,8,0:0:0:0:
160,288,43191,1,0,0:0:0:0:
352,256,43357,1,8,0:0:0:0:
96,288,43441,1,0,0:0:0:0:
416,256,43524,1,8,0:0:0:0:
128,288,43607,1,0,0:0:0:0:
352,288,43691,1,8,0:0:0:0:
160,288,43857,1,0,0:0:0:0:
384,256,44024,1,8,0:0:0:0:
384,288,44107,1,8,0:0:0:0:
384,288,44191,1,8,0:0:0:0:
384,288,44274,1,8,0:0:0:0:
192,320,44357,1,0,0:0:0:0:
192,320,44524,1,0,0:0:0:0:
192,320,44607,1,0,0:0:0:0:
416,288,44691,1,8,0:0:0:0:
160,288,44857,1,0,0:0:0:0:
384,288,45024,1,8,0:0:0:0:
384,288,45107,1,8,0:0:0:0:
192,320,45191,1,0,0:0:0:0:
192,320,45357,1,0,0:0:0:0:
352,288,45524,1,8,0:0:0:0:
192,320,45691,1,0,0:0:0:0:
192,320,45857,1,0,0:0:0:0:
192,320,45941,1,0,0:0:0:0:
320,288,46024,1,8,0:0:0:0:
320,288,46107,1,8,0:0:0:0:
320,288,46191,1,8,0:0:0:0:
128,288,46357,1,0,0:0:0:0:
352,256,46524,1,8,0:0:0:0:
352,256,46607,1,8,0:0:0:0:
192,288,46691,1,0,0:0:0:0:
192,288,46774,1,0,0:0:0:0:
352,288,46857,1,8,0:0:0:0:
160,288,47024,1,0,0:0:0:0:
320,288,47191,1,8,0:0:0:0:
320,288,47274,1,8,0:0:0:0:
320,288,47357,1,8,0:0:0:0:
160,288,47524,1,0,0:0:0:0:
352,288,47691,1,8,0:0:0:0:
352,288,47774,1,8,0:0:0:0:
192,288,47857,1,0,0:0:0:0:
160,288,48024,1,0,0:0:0:0:
320,288,48191,1,8,0:0:0:0:
192,288,48357,1,0,0:0:0:0:
160,288,48524,1,0,0:0:0:0:
160,288,48607,1,0,0:0:0:0:
352,288,48691,1,8,0:0:0:0:
160,288,48774,1,0,0:0:0:0:
320,288,48857,1,8,0:0:0:0:
320,288,48941,1,8,0:0:0:0:
320,288,49024,1,8,0:0:0:0:
160,288,49191,1,0,0:0:0:0:
160,288,49274,1,0,0:0:0:0:
320,288,49357,1,8,0:0:0:0:
320,288,49441,1,8,0:0:0:0:
320,288,49524,1,8,0:0:0:0:
320,288,49607,1,8,0:0:0:0:
192,320,49691,1,0,0:0:0:0:
192,320,49858,1,0,0:0:0:0:
192,320,49941,1,0,0:0:0:0:
416,288,50025,1,8,0:0:0:0:
160,288,50191,1,0,0:0:0:0:
384,288,50358,1,8,0:0:0:0:
384,288,50441,1,8,0:0:0:0:
192,320,50525,1,0,0:0:0:0:
128,288,50607,1,0,0:0:0:0:
192,320,50691,1,0,0:0:0:0:
352,288,50858,1,8,0:0:0:0:
192,320,51025,1,0,0:0:0:0:
192,320,51191,1,0,0:0:0:0:
192,320,51275,1,0,0:0:0:0:
320,288,51358,1,8,0:0:0:0:
320,288,51441,1,8,0:0:0:0:
320,288,51525,1,8,0:0:0:0:
128,288,51691,1,0,0:0:0:0:
352,256,51858,1,8,0:0:0:0:
352,256,51941,1,8,0:0:0:0:
192,288,52025,1,0,0:0:0:0:
192,288,52108,1,0,0:0:0:0:
352,288,52191,1,8,0:0:0:0:
160,288,52358,1,0,0:0:0:0:
320,288,52525,1,8,0:0:0:0:
320,288,52608,1,8,0:0:0:0:
320,288,52691,1,8,0:0:0:0:
160,288,52858,1,0,0:0:0:0:
320,288,52941,1,8,0:0:0:0:
160,288,53024,1,0,0:0:0:0:
160,288,53107,1,0,0:0:0:0:
320,256,53191,1,8,0:0:0:0:
160,288,53358,1,0,0:0:0:0:
320,288,53525,1,8,0:0:0:0:
128,288,53691,1,0,0:0:0:0:
128,288,53774,1,0,0:0:0:0:
448,288,53857,1,8,0:0:0:0:
448,288,53941,1,8,0:0:0:0:
192,288,54024,1,0,0:0:0:0:
352,256,54107,1,8,0:0:0:0:
160,288,54191,1,0,0:0:0:0:
160,288,54274,1,0,0:0:0:0:
384,256,54357,1,8,0:0:0:0:
384,256,54441,1,8,0:0:0:0:
128,288,54524,1,0,0:0:0:0:
160,256,54607,1,0,0:0:0:0:
416,256,54691,1,8,0:0:0:0:
416,256,54774,1,8,0:0:0:0:
416,256,54857,1,8,0:0:0:0:
416,256,54941,1,8,0:0:0:0:
128,288,55024,1,0,0:0:0:0:
96,256,55191,1,0,0:0:0:0:
96,256,55274,1,0,0:0:0:0:
416,256,55357,1,8,0:0:0:0:
384,256,55524,1,8,0:0:0:0:
384,256,55607,1,8,0:0:0:0:
192,288,55691,1,0,0:0:0:0:
192,288,55774,1,0,0:0:0:0:
192,288,55857,1,0,0:0:0:0:
192,288,55941,1,0,0:0:0:0:
384,288,56024,1,8,0:0:0:0:
128,128,56191,1,4,0:0:0:0:
128,128,56524,1,4,0:0:0:0:
384,288,56691,1,8,0:0:0:0:
384,288,56857,1,8,0:0:0:0:
384,288,56941,1,8,0:0:0:0:
160,288,57024,1,0,0:0:0:0:
416,256,57107,1,8,0:0:0:0:
192,288,57191,1,0,0:0:0:0:
192,288,57274,1,0,0:0:0:0:
384,288,57357,1,8,0:0:0:0:
320,288,57524,1,8,0:0:0:0:
128,288,57691,1,0,0:0:0:0:
128,288,57774,1,0,0:0:0:0:
128,288,57857,1,0,0:0:0:0:
352,256,58024,1,8,0:0:0:0:
128,288,58191,1,0,0:0:0:0:
352,256,58357,1,8,0:0:0:0:
352,256,58441,1,8,0:0:0:0:
160,320,58524,1,0,0:0:0:0:
352,256,58691,1,8,0:0:0:0:
352,256,58857,1,8,0:0:0:0:
352,256,58941,1,8,0:0:0:0:
352,256,59024,1,8,0:0:0:0:
128,288,59191,1,0,0:0:0:0:
128,288,59274,1,0,0:0:0:0:
352,256,59357,1,8,0:0:0:0:
96,320,59524,1,0,0:0:0:0:
96,320,59607,1,0,0:0:0:0:
352,256,59691,1,8,0:0:0:0:
96,288,59857,1,0,0:0:0:0:
96,288,59941,1,0,0:0:0:0:
384,256,60024,1,8,0:0:0:0:
384,256,60107,1,8,0:0:0:0:
384,256,60191,1,8,0:0:0:0:
384,256,60274,1,8,0:0:0:0:
128,256,60357,1,0,0:0:0:0:
128,256,60523,1,0,0:0:0:0:
128,256,60607,1,0,0:0:0:0:
352,256,60690,1,8,0:0:0:0:
160,288,60857,1,0,0:0:0:0:
352,288,60940,1,8,0:0:0:0:
384,288,61023,1,8,0:0:0:0:
192,288,61107,1,0,0:0:0:0:
192,288,61190,1,0,0:0:0:0:
192,288,61273,1,0,0:0:0:0:
416,288,61357,1,8,0:0:0:0:
160,96,61524,1,4,0:0:0:0:
160,96,61857,1,4,0:0:0:0:
416,256,62024,1,8,0:0:0:0:
160,288,62191,1,0,0:0:0:0:
384,256,62274,1,8,0:0:0:0:
352,256,62357,1,8,0:0:0:0:
352,256,62441,1,8,0:0:0:0:
160,256,62524,1,0,0:0:0:0:
160,288,62607,1,0,0:0:0:0:
384,288,62691,1,8,0:0:0:0:
160,288,62857,1,0,0:0:0:0:
160,256,63024,1,0,0:0:0:0:
192,288,63107,1,0,0:0:0:0:
192,288,63191,1,0,0:0:0:0:
384,288,63357,1,8,0:0:0:0:
160,288,63524,1,0,0:0:0:0:
384,256,63691,1,8,0:0:0:0:
384,256,63774,1,8,0:0:0:0:
160,256,63941,1,0,0:0:0:0:
384,256,64024,1,8,0:0:0:0:
160,256,64191,1,0,0:0:0:0:
384,256,64357,1,8,0:0:0:0:
160,256,64441,1,0,0:0:0:0:
160,256,64524,1,0,0:0:0:0:
160,256,64607,1,0,0:0:0:0:
384,256,64691,1,8,0:0:0:0:
160,288,64857,1,0,0:0:0:0:
352,256,65024,1,8,0:0:0:0:
224,288,65191,1,0,0:0:0:0:
384,256,65274,1,8,0:0:0:0:
224,288,65357,1,0,0:0:0:0:
320,256,65524,1,8,0:0:0:0:
192,288,65691,1,0,0:0:0:0:
320,96,66024,1,12,0:0:0:0:
128,128,66191,1,4,0:0:0:0:
320,96,66357,1,12,0:0:0:0:
128,128,66524,1,4,0:0:0:0:
320,96,66857,1,12,0:0:0:0:
320,96,67191,1,12,0:0:0:0:
128,256,67357,1,0,0:0:0:0:
288,256,67524,1,8,0:0:0:0:
320,288,67607,1,8,0:0:0:0:
160,288,67691,1,0,0:0:0:0:
160,288,67774,1,0,0:0:0:0:
160,288,67857,1,0,0:0:0:0:
160,288,67941,1,0,0:0:0:0:
352,288,68024,1,8,0:0:0:0:
192,288,68191,1,0,0:0:0:0:
352,288,68357,1,8,0:0:0:0:
160,288,68524,1,0,0:0:0:0:
160,288,68607,1,0,0:0:0:0:
384,320,68691,1,8,0:0:0:0:
160,288,68857,1,0,0:0:0:0:
384,288,69024,1,8,0:0:0:0:
384,320,69107,1,8,0:0:0:0:
160,288,69191,1,0,0:0:0:0:
480,288,69357,1,8,0:0:0:0:
160,288,69524,1,0,0:0:0:0:
480,288,69691,1,8,0:0:0:0:
160,288,69857,1,0,0:0:0:0:
160,288,69941,1,0,0:0:0:0:
416,320,70024,1,8,0:0:0:0:
160,288,70191,1,0,0:0:0:0:
160,288,70274,1,0,0:0:0:0:
448,288,70357,1,8,0:0:0:0:
192,320,70524,1,0,0:0:0:0:
192,320,70607,1,0,0:0:0:0:
448,288,70691,1,8,0:0:0:0:
448,288,70774,1,8,0:0:0:0:
448,288,70857,1,8,0:0:0:0:
448,288,70941,1,8,0:0:0:0:
192,288,71024,1,0,0:0:0:0:
160,288,71191,1,0,0:0:0:0:
416,96,71357,1,12,0:0:0:0:
160,128,71524,1,4,0:0:0:0:
384,96,71691,1,12,0:0:0:0:
160,256,71857,1,4,0:0:0:0:
352,96,72191,1,12,0:0:0:0:
352,96,72524,1,12,0:0:0:0:
160,288,72691,1,0,0:0:0:0:
384,256,72857,1,8,0:0:0:0:
224,256,72941,1,0,0:0:0:0:
352,256,73024,1,8,0:0:0:0:
352,288,73107,1,8,0:0:0:0:
192,288,73191,1,0,0:0:0:0:
192,288,73274,1,0,0:0:0:0:
352,256,73357,1,8,0:0:0:0:
192,288,73524,1,0,0:0:0:0:
352,288,73691,1,8,0:0:0:0:
384,256,73774,1,8,0:0:0:0:
192,288,73857,1,0,0:0:0:0:
192,288,73941,1,0,0:0:0:0:
320,288,74024,1,8,0:0:0:0:
192,288,74191,1,0,0:0:0:0:
352,256,74357,1,8,0:0:0:0:
160,256,74441,1,0,0:0:0:0:
192,256,74524,1,0,0:0:0:0:
160,280,74607,1,0,0:0:0:0:
384,256,74691,1,8,0:0:0:0:
160,256,74857,1,0,0:0:0:0:
384,256,75024,1,8,0:0:0:0:
384,256,75107,1,8,0:0:0:0:
352,256,75191,1,8,0:0:0:0:
192,288,75274,1,0,0:0:0:0:
384,256,75357,1,8,0:0:0:0:
384,256,75441,1,8,0:0:0:0:
224,288,75524,1,0,0:0:0:0:
384,256,75607,1,8,0:0:0:0:
224,256,75691,1,0,0:0:0:0:
224,256,75774,1,0,0:0:0:0:
384,256,75857,1,8,0:0:0:0:
192,288,75941,1,0,0:0:0:0:
352,256,76024,1,8,0:0:0:0:
192,288,76107,1,0,0:0:0:0:
192,288,76191,1,0,0:0:0:0:
352,256,76274,1,8,0:0:0:0:
192,288,76357,1,0,0:0:0:0:
192,288,76441,1,0,0:0:0:0:
352,256,76524,1,8,0:0:0:0:
352,256,76607,1,8,0:0:0:0:
224,288,76691,1,0,0:0:0:0:
384,256,76774,1,8,0:0:0:0:
352,256,76857,1,8,0:0:0:0:
352,256,76941,1,8,0:0:0:0:
224,288,77024,1,0,0:0:0:0:
384,256,77107,1,8,0:0:0:0:
384,256,77191,1,8,0:0:0:0:
160,288,77274,1,0,0:0:0:0:
384,256,77357,1,8,0:0:0:0:
384,256,77441,1,8,0:0:0:0:
384,256,77524,1,8,0:0:0:0:
384,256,77607,1,8,0:0:0:0:
192,288,77691,1,0,0:0:0:0:
160,256,77857,1,0,0:0:0:0:
160,256,77941,1,0,0:0:0:0:
416,256,78024,1,8,0:0:0:0:
416,256,78191,1,8,0:0:0:0:
192,288,78357,1,0,0:0:0:0:
192,288,78524,1,0,0:0:0:0:
192,288,78607,1,0,0:0:0:0:
384,256,78691,1,8,0:0:0:0:
384,256,78857,1,8,0:0:0:0:
192,256,79024,1,0,0:0:0:0:
192,256,79191,1,0,0:0:0:0:
192,256,79274,1,0,0:0:0:0:
352,256,79357,1,8,0:0:0:0:
352,256,79524,1,8,0:0:0:0:
160,288,79857,1,0,0:0:0:0:
160,288,80024,1,0,0:0:0:0:
416,256,80191,1,8,0:0:0:0:
192,288,80357,1,0,0:0:0:0:
160,256,80523,1,0,0:0:0:0:
160,256,80607,1,0,0:0:0:0:
416,256,80690,1,8,0:0:0:0:
416,256,80857,1,8,0:0:0:0:
192,288,81023,1,0,0:0:0:0:
192,288,81190,1,0,0:0:0:0:
192,288,81273,1,0,0:0:0:0:
384,256,81357,1,8,0:0:0:0:
384,256,81523,1,8,0:0:0:0:
192,256,81690,1,0,0:0:0:0:
192,256,81857,1,0,0:0:0:0:
192,256,81940,1,0,0:0:0:0:
352,256,82023,1,8,0:0:0:0:
352,256,82190,1,8,0:0:0:0:
384,256,82357,1,8,0:0:0:0:
160,256,82524,1,0,0:0:0:0:
320,256,82857,1,8,0:0:0:0:
128,288,83024,1,0,0:0:0:0:
352,288,83191,1,8,0:0:0:0:
352,288,83274,1,8,0:0:0:0:
352,288,83357,1,8,0:0:0:0:
352,288,83524,1,8,0:0:0:0:
160,288,83691,1,0,0:0:0:0:
352,256,83857,1,8,0:0:0:0:
352,256,83941,1,8,0:0:0:0:
352,256,84024,1,8,0:0:0:0:
384,288,84191,1,8,0:0:0:0:
128,256,84357,1,0,0:0:0:0:
320,256,84523,1,8,0:0:0:0:
320,256,84607,1,8,0:0:0:0:
320,256,84690,1,8,0:0:0:0:
320,256,84857,1,8,0:0:0:0:
128,288,85024,1,0,0:0:0:0:
128,288,85191,1,0,0:0:0:0:
288,256,85357,1,8,0:0:0:0:
128,288,85524,1,0,0:0:0:0:
128,160,85691,1,4,0:0:0:0:
480,128,85857,1,12,0:0:0:0:
480,128,86024,1,12,0:0:0:0:
480,128,86191,1,12,0:0:0:0:
160,128,86357,1,4,0:0:0:0:
416,128,86524,1,12,0:0:0:0:
416,128,86691,1,12,0:0:0:0:
416,128,86857,1,12,0:0:0:0:
160,128,87024,1,4,0:0:0:0:
384,96,87191,1,12,0:0:0:0:
384,96,87357,1,12,0:0:0:0:
384,96,87524,1,12,0:0:0:0:
