osu file format v5

[General]
AudioFilename: Happy! Sorry!!.mp3
AudioLeadIn: 0
PreviewTime: 12343
Countdown: 0
SampleSet: Normal
StackLeniency: 0.2
Mode: 0
LetterboxInBreaks: 1
EditorBookmarks: 12321,17655,22989,28323,33657,38990,44324,49658,54992,60326,65660,70994,77661,82995
EditorDistanceSpacing: 0.600000023841858

[Metadata]
Title:Happy!? Sorry!!
Artist:Toyosaki Aki
Creator:DJPop
Version:Normal
Source:K-ON!
Tags:anime happy sorry toyosaki aki hirasawa yui k-on keion

[Difficulty]
HPDrainRate:3
CircleSize:4
OverallDifficulty:3
SliderMultiplier:1.28
SliderTickRate:2

[Events]
//Background and Video events
0,0,"Happy! Sorry!!.png"
1,-1442,"Happy! Sorry!!.avi"
//Break Periods
//Storyboard Layer 0 (Background)
//Storyboard Layer 1 (Failing)
//Storyboard Layer 2 (Passing)
//Storyboard Layer 3 (Foreground)
//Storyboard Sound Samples
5,53992,0,"normal-hitclap.wav"
5,54326,0,"normal-hitclap.wav"
5,54492,0,"normal-hitclap.wav"
5,54659,0,"normal-hitclap.wav"
5,54826,0,"normal-hitclap.wav"
//Background Colour Transformations
3,100,255,255,0

[TimingPoints]
320,333.370374486054,4,1,0,80,1,0
54992,-100,4,1,0,80,0,1
60325,-100,4,1,0,80,0,0
60326,-100,4,1,0,80,0,1
65659,-100,4,1,0,80,0,0
65660,-100,4,1,0,80,0,1
70993,-100,4,1,0,80,0,0
70994,-100,4,1,0,80,0,1
77661,-100,4,1,0,80,0,0
86996,-100,4,1,0,80,0,1
87161,-100,4,1,0,80,0,0
87162,-100,4,1,0,80,0,1
87328,-100,4,1,0,80,0,0
87329,-100,4,1,0,80,0,1
87495,-100,4,1,0,80,0,0
87496,-100,4,1,0,80,0,1

[Colours]
Combo1 : 230,210,170
Combo2 : 70,80,80
Combo3 : 145,110,75
Combo4 : 160,130,80

[HitObjects]
256,32,12321,5,4
256,96,12654,1,8
128,160,13321,1,8
192,288,13988,1,8
192,288,14154,1,8
320,224,14654,1,8
384,352,15321,5,10
384,352,15488,1,10
448,224,15988,1,10
384,96,16655,2,0,C|432:53,2,64,10|10|10
320,96,17321,1,10
256,96,17655,5,4
256,32,17988,1,8
128,96,18655,1,8
64,224,19322,1,8
64,224,19488,1,8
128,352,19988,1,8
256,288,20655,5,10
256,288,20822,1,10
320,160,21322,1,10
384,288,21989,2,0,C|339:334,2,64,10|10|10
448,288,22655,1,10
448,224,22989,5,4
448,160,23322,1,8
320,96,23989,1,8
192,32,24656,1,8
192,32,24822,1,8
256,160,25322,1,8
320,288,25989,5,10
320,288,26156,1,10
192,352,26656,1,10
64,288,27323,2,0,C|64:352,2,64,10|10|10
64,224,27989,1,10
64,160,28323,5,4
128,160,28656,1,8
256,96,29323,1,8
384,160,29989,1,8
384,160,30156,1,8
320,32,30656,1,8
192,96,31323,5,10
192,96,31490,1,10
128,224,31990,1,10
256,288,32656,2,0,C|192:288,2,64,10|10|10
320,288,33323,1,10
320,352,33657,5,4
384,352,33990,1,8
448,352,34323,1,8
448,288,34657,1,8
448,224,34990,5,8
448,160,35323,1,8
384,160,35657,1,8
320,160,35990,1,8
320,96,36324,5,8
320,32,36657,1,8
256,32,36990,1,8
192,32,37324,1,8
192,96,37657,5,8
192,160,37990,1,8
128,160,38324,1,10
64,160,38657,1,10
64,224,38990,5,4
64,288,39324,1,8
128,288,39657,1,8
128,352,39991,1,8
192,352,40324,5,8
256,352,40657,1,8
256,288,40991,1,8
256,224,41324,1,8
320,224,41657,5,8
320,160,41991,1,8
320,96,42324,1,8
384,96,42658,1,8
448,96,42991,5,8
448,160,43324,1,8
448,224,43658,2,0,C|448:352,1,128,10|10
384,352,44324,5,4
320,352,44658,2,0,C|64:352,2,256,8|8|8
320,352,46158,1,8
320,224,46658,1,8
256,96,47325,6,0,B|272:40|304:24|351:16|400:24|432:40|448:96,1,256,8|8
384,224,48658,2,0,C|384:288,2,64,8|8|10
384,160,49325,1,10
320,160,49658,5,4
256,160,49992,2,0,B|160:160|125:225|160:288|256:288,1,256,8|8
128,352,51325,1,8
128,352,51492,2,0,B|31:320|64:192,1,192,8|8
128,64,52659,2,0,C|384:64,1,256,8|8
256,192,53492,12,4,54992
256,352,55326,5,8
256,288,55659,2,0,C|256:160,1,128,0|8
256,96,56326,1,0
256,32,56659,1,8
320,32,56992,2,0,C|448:32,1,128,0|8
448,96,57659,6,0,C|448:224,3,128,0|8|0|8
448,288,58993,2,0,C|320:288,3,128,0|8|2|10
256,288,60326,6,0,C|256:160,1,128,4|8
256,96,60993,1,0
256,32,61326,1,8
192,32,61660,2,0,C|64:32,1,128,0|8
64,96,62326,1,0
64,160,62660,1,8
64,224,62993,6,0,C|192:224,3,128,0|8|0|8
256,224,64327,2,0,C|384:224,3,128,0|8|2|10
448,224,65660,5,4
448,160,65993,2,0,C|448:32,1,128,8|0
384,32,66660,1,8
320,32,66994,1,0
320,96,67327,2,0,C|192:96,1,128,8|0
192,160,67994,1,8
128,160,68327,6,0,C|128:288,1,128,0|8
128,352,68994,2,0,C|256:352,1,128,0|8
320,352,69661,2,0,C|320:224,1,128,0|8
320,160,70327,2,0,C|192:160,1,128,2|10
192,96,70994,5,4
256,96,71327,2,0,C|384:96,2,128,8|0|8
256,32,72328,1,0
192,32,72661,2,0,C|32:32,2,128,8|0|8
192,96,73661,5,0
128,96,73994,1,8
128,160,74328,1,0
64,160,74661,6,0,C|64:288,1,128,8|0
128,288,75328,5,8
128,352,75661,1,8
192,352,75995,1,8
256,352,76328,6,0,C|256:224,2,128,0|8|8
320,352,77328,5,8
320,352,77495,1,8
320,352,77661,5,4
384,352,77995,1,8
448,224,78662,1,8
384,96,79328,1,8
384,96,79495,1,8
320,96,79828,2,0,C|320:32,3,64,2|10|2|0
256,32,80662,5,8
128,96,81329,1,8
64,224,81995,1,8
64,224,82162,1,8
64,288,82495,2,0,C|128:288,3,64,10|8|2|4
128,352,83329,5,8
256,288,83995,1,8
384,352,84662,1,8
384,352,84829,1,8
448,352,85162,2,0,C|448:288,3,64,2|10|2|0
448,224,85996,5,8
320,160,86662,1,8
256,160,86996,5,2
256,160,87162,1,10
256,160,87329,1,10
256,160,87496,1,10
