osu file format v5

[General]
AudioFilename: Happy! Sorry!!.mp3
AudioLeadIn: 0
PreviewTime: 12343
Countdown: 0
SampleSet: Normal
StackLeniency: 0.2
Mode: 0
LetterboxInBreaks: 1
EditorBookmarks: 12321,17655,22989,28323,33657,38990,44324,49658,54992,60326,65660,70994,77661,82995
EditorDistanceSpacing: 0.600000023841858

[Metadata]
Title:Happy!? Sorry!!
Artist:Toyosaki Aki
Creator:DJPop
Version:Easy
Source:K-ON!
Tags:anime happy sorry toyosaki aki hirasawa yui k-on keion

[Difficulty]
HPDrainRate:2
CircleSize:3
OverallDifficulty:1
SliderMultiplier:1
SliderTickRate:2

[Events]
//Background and Video events
0,0,"Happy! Sorry!!.png"
1,-1442,"Happy! Sorry!!.avi"
//Break Periods
//Storyboard Layer 0 (Background)
//Storyboard Layer 1 (Failing)
//Storyboard Layer 2 (Passing)
//Storyboard Layer 3 (Foreground)
//Storyboard Sound Samples
//Background Colour Transformations
3,100,255,255,0

[TimingPoints]
320,333.370374486054,4,1,0,80,1,0
54992,-100,4,1,0,80,0,1
60325,-100,4,1,0,80,0,0
60326,-100,4,1,0,80,0,1
65659,-100,4,1,0,80,0,0
65660,-100,4,1,0,80,0,1
70993,-100,4,1,0,80,0,0
70994,-100,4,1,0,80,0,1
77661,-100,4,1,0,80,0,0
86996,-100,4,1,0,80,0,1
87161,-100,4,1,0,80,0,0
87162,-100,4,1,0,80,0,1
87328,-100,4,1,0,80,0,0
87329,-100,4,1,0,80,0,1
87495,-100,4,1,0,80,0,0
87496,-100,4,1,0,80,0,1

[Colours]
Combo1 : 230,210,170
Combo2 : 70,80,80
Combo3 : 145,110,75
Combo4 : 160,130,80

[HitObjects]
256,352,12321,5,4
128,288,12988,1,0
64,160,13654,1,0
128,32,14321,1,0
256,96,14988,6,2,B|288:48|336:16|384:48|416:96,3,200
480,224,17655,5,4
352,288,18322,1,0
224,352,18988,1,0
160,224,19655,1,0
32,160,20322,6,2,B|24:96|64:39|128:64|160:96,3,200
288,32,22989,5,4
416,96,23655,1,0
352,224,24322,1,0
480,288,24989,1,0
352,352,25656,6,2,B|256:298|160:352,3,200
32,288,28323,5,4
96,160,28989,1,0
32,32,29656,1,0
160,96,30323,1,0
224,224,30990,6,2,B|288:232|345:192|320:128|288:96,3,200
416,32,33657,5,4
480,160,34323,1,8
416,288,34990,1,8
288,352,35657,1,8
160,288,36324,5,8
32,352,36990,1,8
96,224,37657,1,8
224,288,38324,1,10
352,224,38990,5,4
416,96,39657,1,8
288,160,40324,1,8
160,224,40991,1,8
32,160,41657,5,8
96,32,42324,1,8
160,160,42991,2,2,B|169:40|288:32,1,200,10|10
416,96,44324,6,0,B|527:289|288:352,1,350
160,224,46325,1,2
32,224,46825,6,0,B|32:4|320:32,1,400,0|0
448,160,48992,1,2
384,288,49658,6,0,B|320:352|192:360|128:288|128:192,1,350
256,64,51659,1,2
256,192,52325,12,4,53492
256,320,54992,5,4
128,256,55659,2,0,B|32:256|7:194|32:128|128:128,1,250,0|0
256,128,56992,1,2
384,64,57659,6,2,B|432:80|452:144|432:208|384:224,3,200,2|2|2|2
448,352,60326,5,4
320,288,60993,2,0,B|288:320|256:336|208:353|160:336|128:320|96:288,1,250,0|0
96,160,62326,1,2
224,96,62993,6,2,B|256:194|384:192,3,200,2|2|2|2
448,320,65660,6,0,B|402:347|352:320,2,100,4|0|0
448,192,66827,2,0,B|475:144|448:96,1,100,2|2
320,96,67660,1,2
192,32,68327,6,2,B|64:31|32:128,1,200
96,256,69661,2,2,B|128:354|256:352,1,200
320,224,70994,6,0,B|224:192,2,100,4|0|0
320,96,72161,2,0,B|416:64,1,100,2|2
416,192,72994,1,2
480,320,73661,6,2,B|402:374|288:320,1,200
224,192,74994,2,2,B|235:80|128:32,1,200
64,160,76328,6,0,B|32:64,4,100,0|8|8|8|4
128,288,78328,5,0
256,352,78995,1,0
384,288,79662,2,2,B|480:320,2,100,2|2|0
448,160,80995,5,0
384,32,81662,1,0
256,96,82329,2,2,C|256:196,2,100,2|2|4
128,32,83662,5,0
64,160,84329,1,0
128,288,84996,2,2,B|32:320,2,100,2|2|0
256,352,86329,5,0
256,160,86996,2,0,C|256:110,3,50,2|10|10|10
