osu file format v8

[General]
AudioFilename: Guitar ni Kubittake (Full ver.).mp3
AudioLeadIn: 0
PreviewTime: 47236
Countdown: 0
SampleSet: Normal
StackLeniency: 0.5
Mode: 0
LetterboxInBreaks: 1

[Editor]
Bookmarks: 12162,22540,32919,40865,47189,57567,67946,78324,88702,96486,102973,113351,123729,134108,147081,158756,169135,180811,191189,201567
DistanceSpacing: 0.7
BeatDivisor: 4
GridSize: 8

[Metadata]
Title:Guitar ni Kubittake (Full ver.)
Artist:Toyosaki Aki
Creator:DJPop
Version:Insane
Source:K-ON!
Tags:hirasawa yui k-on keion Leorda Muya kanpakyin

[Difficulty]
HPDrainRate:6
CircleSize:4
OverallDifficulty:6
ApproachRate:8
SliderMultiplier:1.92
SliderTickRate:2

[Events]
//Background and Video events
0,0,"Guitar ni Kubittake (Full ver.).png"
//Break Periods
2,68146,77574
2,123929,133358
2,147281,157358
//Storyboard Layer 0 (Background)
//Storyboard Layer 1 (Fail)
//Storyboard Layer 2 (Pass)
//Storyboard Layer 3 (Foreground)
//Storyboard Sound Samples
//Background Colour Transformations
3,100,255,0,0

[TimingPoints]
1784,324.324324324324,4,1,1,80,1,0
32838,-200,4,1,1,80,0,0
40783,-100,4,1,1,80,0,0
45973,-200,4,1,1,80,0,0
47027,-100,4,1,1,80,0,0
47189,-100,4,1,1,80,0,1
67946,-100,4,1,1,80,0,0
88621,-200,4,1,1,80,0,0
96567,-100,4,1,1,80,0,0
102973,-100,4,1,1,80,0,1
123729,-100,4,1,1,80,0,0
134108,-100,4,1,1,80,0,1
147081,-100,4,1,1,80,0,0
158270,-100,4,1,1,60,0,0
158432,-100,4,1,1,70,0,0
158594,-100,4,1,1,80,0,0
158838,-100,4,2,1,60,0,0
163783,-100,4,1,1,80,0,0
164108,-100,4,2,1,60,0,0
166297,-100,4,1,1,80,0,0
169135,-100,4,1,1,80,0,1
180811,-100,4,1,1,80,0,0
201648,-100,4,2,2,80,0,0

[Colours]
Combo1 : 59,169,216
Combo2 : 220,38,52
Combo3 : 241,202,0
Combo4 : 75,175,63

[HitObjects]
256,192,11838,5,2
256,32,12162,5,4
192,48,12324,2,0,B|96:64,2,96,0|8|0
208,112,12811,1,0
144,128,12973,2,0,B|48:144,1,96,0|8
64,208,13297,2,0,B|160:192,1,96
176,256,13621,2,0,B|80:272,1,96,0|8
96,336,13946,1,0
160,328,14108,2,0,B|246:381|344:352,1,192,0|8
392,304,14594,1,0
400,296,14675,1,0
408,288,14756,5,0
384,224,14919,2,0,B|480:224,2,96,0|8|0
328,184,15405,1,0
384,144,15567,2,0,B|456:80,1,96,0|8
408,32,15891,2,0,B|336:96,1,96
288,48,16215,2,0,B|192:48,1,96,0|8
128,32,16540,1,0
64,48,16702,1,0
32,104,16865,2,0,B|36:152|64:192,1,96,0|8
112,240,17189,1,0
120,248,17270,1,0
128,256,17351,5,4
176,208,17513,2,0,B|240:136,2,96,0|8|0
224,256,18000,1,0
272,208,18162,2,0,B|336:136,1,96,0|8
384,176,18486,2,0,B|320:248,1,96
368,296,18810,2,0,B|432:224,1,96,0|8
480,272,19135,1,0
432,320,19297,2,0,B|400:368|352:375|304:368|272:320,1,192,0|8
224,272,19783,1,0
216,264,19864,1,0
208,256,19945,5,0
144,272,20108,2,0,B|48:288,2,96,0|8|0
128,208,20594,1,0
192,192,20756,2,0,B|288:176,1,96,0|8
272,112,21080,2,0,B|176:128,1,96
160,64,21404,2,0,B|256:48,1,96,0|8
320,32,21729,1,0
384,48,21891,1,0
436,90,22054,2,0,B|470:128|460:178,1,96,0|8
432,240,22378,1,0
423,249,22459,1,0
413,256,22540,5,4
352,288,22702,2,0,C|280:352,2,96,0|8|0
320,224,23189,2,0,C|248:288,1,96
216,223,23513,2,0,C|288:160,1,96,8|0
144,32,24000,1,0
80,64,24162,1,8
112,128,24324,1,0
48,160,24486,2,0,B|28:256|48:350,1,192,0|8
128,352,24973,5,0
128,352,25054,1,0
128,352,25135,1,2
384,352,25621,5,0
384,352,25702,1,0
384,352,25783,1,2
256,224,26108,5,8
256,224,26270,1,4
256,32,26594,5,0
192,64,26756,2,0,B|192:112|256:154|320:112|320:64,1,192,8|0
384,32,27243,2,0,B|435:46|464:80,1,96,8|0
480,152,27567,1,8
448,216,27729,5,4
400,272,27892,2,0,C|344:352,2,96,0|8|0
336,248,28378,2,0,C|256:192,1,96
217,248,28702,2,0,B|296:304,1,96,8|0
112,352,29189,1,0
48,336,29351,1,8
32,272,29513,1,0
48,208,29675,2,0,B|112:132|112:32,1,192,0|8
40,32,30162,5,0
40,32,30243,1,0
40,32,30324,1,2
472,32,30811,5,0
472,32,30892,1,0
472,32,30973,1,2
256,32,31297,5,8
256,32,31459,1,4
256,224,31783,5,0
320,192,31945,2,0,B|320:144|256:102|192:144|192:192,1,192,8|0
256,224,32432,2,0,B|256:320,1,96,8|0
320,352,32756,1,8
384,320,32919,5,4
384,320,33081,1,0
384,320,33243,1,0
480,192,33567,1,0
480,192,33729,1,0
384,64,34054,6,0,B|352:32|320:34|288:32|256:64,1,144
208,112,34702,1,0
160,64,34865,2,0,B|128:100,1,47.5
96,40,35189,2,0,B|61:73,1,47.5
32,128,35513,5,4
112,304,35838,1,0
48,288,36000,1,0
64,224,36162,2,0,B|92:175|144:192,1,96
160,256,36648,1,0
480,128,37135,5,2
304,192,37459,1,2
480,256,37783,1,2
464,320,37946,2,0,B|496:352,2,24,0|0|4
400,336,38270,5,0
336,352,38432,1,0
320,288,38594,1,0
256,304,38756,1,0
240,240,38919,1,0
229,48,39243,6,0,B|187:54|160:72|144:88|128:136,1,144
96,192,39892,1,0
64,136,40054,2,0,C|32:40,2,96,0|0|4
96,192,40865,5,0
64,248,41027,2,0,C|96:344,1,96,8|0
128,248,41351,2,0,C|160:344,1,96
192,248,41675,2,0,C|224:344,1,96,8|0
448,248,42162,6,0,C|416:344,1,96,0|8
384,248,42486,2,0,C|352:344,1,96
320,248,42811,2,0,C|288:344,1,96,0|8
256,144,43297,5,4
192,144,43459,1,0
136,112,43621,2,0,B|160:64|216:80,1,96,8|0
256,32,43946,1,0
320,32,44108,1,0
376,64,44270,2,0,B|352:112|296:96,1,96,8|0
256,288,44756,5,0
256,224,44919,1,12
104,352,45243,2,0,C|56:352,4,48,0|0|0|0|8
184,344,45729,1,0
184,344,45811,1,0
184,344,45892,1,0
256,336,46054,6,0,C|256:288,1,48,2|2
256,48,46540,2,0,C|256:96,1,48,2|2
400,352,47189,5,4
400,160,47513,2,0,B|400:352,1,192,8|0
464,352,48000,1,0
480,288,48162,1,8
464,224,48324,1,0
480,160,48486,1,0
464,96,48648,1,0
480,32,48811,2,0,B|288:32,1,192,8|0
224,32,49297,1,0
160,32,49459,1,8
32,176,49783,6,0,B|32:96|80:94|128:96|128:176,1,192,0|8
128,240,50270,2,0,B|128:320|176:322|224:320|224:240,1,192
224,176,50756,1,8
272,128,50919,1,0
320,80,51081,2,0,B|352:32|400:25|448:32|480:80,1,192,4|2
400,112,51567,1,0
320,144,51729,2,0,B|352:192|400:199|448:192|480:144,1,192,4|2
400,112,52216,1,0
400,112,52378,1,4
480,272,52702,6,0,B|304:352,1,192,8|0
256,304,53189,1,0
192,280,53351,1,8
128,304,53513,1,0
80,352,53675,1,0
32,304,53837,1,0
80,256,54000,2,0,B|112:240|112:208|99:192|80:176|62:160|48:144|48:112|80:96,1,192,8|0
80,32,54486,1,0
80,32,54648,1,8
288,32,54973,6,0,C|448:136,1,192,4|0
472,208,55459,1,0
400,200,55621,2,0,C|240:96,1,192
168,92,56108,1,0
192,160,56270,2,0,C|352:264,1,192,4|0
304,328,56756,2,0,C|143:223,1,192
96,168,57243,1,0
96,168,57324,1,0
96,168,57405,1,0
96,168,57486,1,0
96,168,57567,6,0,C|32:240,1,96,4|8
88,272,57892,2,0,B|32:352,2,96,0|8|0
144,304,58378,1,8
208,280,58540,1,0
256,328,58702,1,8
320,296,58865,1,0
368,344,59027,1,8
408,288,59189,2,0,B|480:352,2,96,0|8|0
360,240,59675,1,8
408,192,59838,2,0,B|472:120,1,96,0|8
480,56,60162,6,0,C|384:32,1,96,0|8
352,96,60486,1,0
280,80,60648,2,0,C|184:56,1,96,8|0
120,32,60973,1,8
50,51,61135,1,0
32,120,61297,1,8
32,192,61459,5,4
296,192,61783,1,2
256,248,61946,1,0
216,192,62108,1,4
480,192,62432,1,2
480,192,62594,1,0
480,264,62756,6,0,C|440:352,1,96,4|8
376,336,63081,2,0,B|416:248,2,96,0|8|0
312,312,63567,1,8
248,288,63729,1,0
224,352,63891,1,8
176,304,64054,1,0
128,352,64216,1,8
96,288,64378,2,0,B|47:302|32:352,2,96,0|8|0
144,240,64864,1,8
96,192,65027,2,0,B|47:178|32:128,1,96,0|8
32,48,65351,5,4
223,48,65675,1,0
160,72,65838,1,0
96,96,66000,1,4
288,96,66324,1,0
224,120,66486,1,0
160,144,66648,1,4
352,144,66973,5,8
416,144,67135,2,0,B|496:144|498:192|496:240|416:240,1,192,0|4
352,240,67621,1,8
304,192,67783,1,0
280,192,67865,1,0
256,192,67946,1,4
32,32,78324,5,4
96,56,78486,1,0
160,32,78649,1,8
224,56,78811,1,0
288,32,78973,1,0
352,56,79135,1,0
416,32,79297,1,8
480,56,79459,1,0
388,192,79784,5,0
388,192,79946,1,8
316,192,80108,1,0
316,192,80270,2,0,B|120:192,1,192,0|8
32,352,80919,5,2
480,352,81567,1,2
256,352,82054,1,4
256,160,82378,5,0
312,120,82540,2,0,B|312:80|296:56|256:36|216:56|200:80|200:120,1,192,8|0
192,192,83027,2,0,B|192:249|256:240,1,96,8|0
320,192,83351,2,0,B|320:249|256:240,1,96,8|4
192,304,83676,5,0
128,336,83838,1,8
64,304,84000,1,0
32,240,84162,1,0
40,168,84324,1,0
56,96,84486,1,8
96,32,84648,1,0
288,32,84973,5,0
360,40,85135,1,8
424,72,85297,1,0
464,136,85459,2,0,B|504:199|496:264|480:320,1,192,0|8
416,352,85946,5,0
416,352,86027,1,0
416,352,86108,1,2
256,240,86432,5,0
256,312,86595,1,0
256,320,86676,1,0
256,328,86757,1,2
96,352,87081,5,8
32,321,87243,2,0,B|16:264|8:199|48:136,1,192,4|0
88,72,87729,1,8
256,144,88054,2,0,C|256:48,3,96,0|8|0|8
320,48,88703,5,4
320,48,88865,2,0,C|416:48,1,96
480,48,89351,1,0
480,48,89513,1,0
480,240,89838,6,0,B|440:328,1,96
376,352,90324,1,0
312,328,90486,1,0
288,264,90649,2,0,B|312:224,1,48
248,192,90973,2,0,B|224:232,1,48
224,304,91297,5,4
32,352,91622,1,0
72,296,91784,1,0
112,240,91946,2,0,C|136:200,1,48
176,144,92270,1,0
216,88,92432,1,0
480,32,92919,5,2
288,32,93243,1,2
96,32,93567,1,2
32,64,93730,1,0
32,72,93811,1,0
32,80,93892,1,4
96,112,94054,5,0
96,184,94216,1,0
32,216,94378,1,0
32,288,94540,1,0
96,320,94703,1,0
160,352,94865,1,0
232,352,95027,6,0,B|277:349|320:320,1,96
384,288,95513,1,0
440,240,95676,1,0
456,168,95838,2,0,C|480:176,3,24
456,168,96162,2,0,C|432:160,3,24
456,168,96486,5,4
480,96,96649,1,0
448,32,96811,1,8
400,84,96973,1,0
352,32,97135,1,0
304,84,97297,1,0
256,32,97459,1,8
224,96,97622,2,0,C|184:184,1,96
112,200,97946,5,0
96,264,98108,1,8
160,248,98270,1,0
144,312,98432,1,0
208,296,98595,1,0
192,360,98757,1,8
32,280,99081,5,4
32,208,99243,1,0
48,136,99405,1,8
96,80,99567,1,0
160,48,99730,1,0
232,40,99892,1,0
304,32,100054,1,8
376,40,100216,6,0,B|464:80,1,96
480,152,100540,1,0
432,208,100702,2,0,B|408:248|359:277|312:248|272:208,1,192,12|0
264,200,101108,1,0
256,192,101189,1,0
256,120,101351,1,8
256,328,101676,5,0
256,332,101838,1,2
256,336,102000,1,2
256,340,102162,1,2
256,344,102324,1,2
256,348,102486,1,2
256,352,102649,1,2
256,32,102973,5,4
64,32,103297,2,0,B|16:64|9:111|16:160|64:192,1,192,8|0
112,240,103784,1,0
48,264,103946,1,8
48,332,104108,1,0
112,356,104270,1,0
176,332,104432,1,0
176,264,104595,2,0,B|200:224|256:200|312:224|336:264,1,192,8|0
376,320,105081,1,0
416,264,105243,2,0,B|480:192,1,96,8|0
480,120,105567,6,0,B|480:80|464:48|428:35|392:48|376:80|376:120,1,192,0|8
376,192,106054,1,0
224,80,106378,1,0
160,48,106540,1,8
96,80,106703,1,0
64,144,106865,2,0,B|16:176|9:224|16:272|64:304,1,192,4|2
96,224,107351,1,0
128,144,107513,2,0,B|176:176|183:224|176:272|128:304,1,192,4|2
96,224,108000,1,0
96,224,108162,1,4
256,352,108486,6,0,B|256:160,1,192,8|0
272,96,108973,1,0
320,48,109135,1,8
384,32,109297,1,0
448,48,109459,1,0
480,108,109621,1,0
448,168,109784,2,0,B|400:192|416:304|368:336,1,192,8|0
304,352,110270,1,0
240,336,110432,2,0,B|201:309|152:304,1,96,8|0
80,304,110757,6,0,B|64:304|16:304|-21:250|16:192|64:192|80:192,1,192,4|0
152,192,111243,1,0
152,120,111405,2,0,B|152:104|152:56|206:19|264:56|264:104|264:120,1,192
264,192,111892,1,0
336,192,112054,2,0,C|480:64,1,192,4|0
480,144,112540,2,0,C|336:272,1,192
336,352,113027,2,0,C|480:224,1,192,0|4
384,32,113676,6,0,B|480:32,2,95,4|8|0
312,32,114162,1,8
280,96,114324,1,0
216,64,114486,1,8
184,128,114649,1,0
120,96,114811,1,8
88,160,114973,2,0,B|42:137|32:88,2,96,0|8|0
120,224,115459,1,8
88,288,115621,2,0,B|32:295|32:352,1,96,0|8
104,352,115946,6,0,B|160:345|160:288,1,96,0|8
216,240,116270,1,0
272,288,116432,2,0,B|272:345|328:352,1,96,8|0
400,344,116757,1,8
456,296,116919,1,0
480,224,117081,1,8
480,224,117162,1,0
480,224,117243,5,4
304,144,117567,1,2
256,192,117730,1,0
208,240,117892,1,4
32,160,118216,1,2
56,88,118378,1,0
112,40,118540,6,0,C|208:40,1,96,4|8
256,96,118865,2,0,B|256:192,2,95,0|8|0
304,40,119351,1,8
376,40,119513,1,0
344,104,119675,1,8
416,104,119838,1,0
376,168,120000,1,8
448,168,120162,2,0,B|496:256,2,96,0|8|0
376,168,120648,1,8
304,168,120811,2,0,B|264:256,1,96,0|8
256,328,121135,1,4
480,352,121459,5,0
432,296,121622,1,0
384,352,121784,1,0
144,352,122108,5,0
88,304,122270,1,0
32,352,122432,1,4
160,160,122756,5,8
96,160,122918,2,0,B|16:160|14:112|16:64|96:64,1,192,0|4
160,64,123404,1,8
208,112,123566,1,0
232,112,123648,1,0
256,112,123729,1,4
480,96,134108,6,0,B|408:32,2,96,4|8|0
448,160,134594,2,0,B|408:248,2,96,8|0|8
392,112,135081,2,0,B|320:48,2,96,0|8|0
360,176,135567,2,0,B|320:264,2,96,8|0|8
304,128,136054,2,0,B|232:64,2,96,0|8|0
272,192,136540,2,0,B|232:280,1,96,8|0
200,344,136865,5,8
128,344,137027,1,0
96,280,137189,2,0,B|40:160|32:96,2,192,8|8|8
168,280,138000,1,4
224,240,138162,2,0,B|296:176,2,96
168,192,138648,2,0,B|112:112,2,96,12|0|0
224,144,139135,1,0
224,72,139297,1,4
280,32,139459,5,8
288,34,139540,1,0
296,36,139621,1,0
304,38,139702,1,0
312,40,139783,1,8
312,112,139946,5,0
320,114,140027,1,0
328,116,140108,1,8
336,118,140189,1,0
344,120,140270,1,0
344,192,140432,5,8
352,194,140513,1,0
360,196,140594,1,0
368,198,140675,1,0
376,200,140756,1,8
376,272,140919,5,0
384,274,141000,1,0
392,276,141081,1,8
400,278,141162,1,0
408,280,141243,1,0
392,352,141405,5,8
384,352,141486,1,0
376,352,141567,1,0
368,352,141648,1,0
360,352,141729,1,8
352,352,141811,1,0
344,352,141892,6,0,B|296:352,3,48,4|0|0|0
312,320,142216,2,0,B|264:320,3,48,8|0|0|0
272,288,142540,2,0,B|224:288,3,48
240,256,142865,2,0,B|192:256,3,48,8|0|0|0
208,224,143189,6,0,B|232:184,3,48,4|0|0|0
200,184,143513,2,0,B|224:144,3,48,12|0|0|0
192,144,143838,2,0,B|216:104,3,48,0|0|4|0
184,104,144162,2,0,B|208:64,3,48,8|0|0|0
176,64,144486,6,0,B|136:40,5,48,4|0|0|0|8|0
128,72,144973,2,0,B|88:48,5,48
80,80,145459,2,0,B|16:119|16:208|48:248,2,192,8|4|12
116,136,146270,2,0,B|184:160|208:232|196:292,1,192,4|12
164,352,146756,2,0,B|117:349|83:308,1,96,4|12
32,352,147081,1,4
256,32,158108,6,0,C|256:96,8,48,0|0|0|0|0|0|0|0|4
64,32,159081,5,2
448,32,159729,5,2
256,352,160378,5,2
256,32,161027,5,2
64,352,161675,5,2
448,352,162324,5,2
64,192,162973,5,2
448,192,163621,5,2
448,192,163946,1,4
448,192,164270,1,2
64,192,164919,5,2
256,28,165567,5,2
256,96,165729,1,0
256,164,165892,2,0,C|256:356,1,192,0|2
256,356,166540,1,4
416,240,166865,5,0
384,176,167027,1,0
352,112,167189,1,0
160,112,167513,5,0
128,176,167675,1,0
96,240,167838,2,0,B|80:272|96:320|152:328|189:315|216:272,1,192,4|0
295,271,168324,2,0,B|323:315|360:328|416:320|432:272|416:240,1,192,0|4
360,192,168811,1,0
352,192,168892,1,0
344,192,168973,1,0
336,192,169054,1,0
328,192,169135,1,4
152,192,169459,6,0,B|248:192,1,95,12|0
280,128,169783,1,8
216,88,169945,1,0
216,80,170026,1,0
216,72,170107,1,8
280,32,170269,1,0
352,40,170432,1,8
416,80,170594,1,0
464,136,170756,2,0,B|480:232,1,96,8|0
472,304,171080,1,8
416,352,171242,1,0
408,352,171323,1,0
400,352,171405,2,0,B|351:342|336:288,1,95,8|0
272,256,171729,6,0,B|176:224|208:352|112:320,1,190,8|8
56,272,172215,1,0
32,200,172378,1,8
48,128,172540,1,0
56,120,172621,1,0
64,112,172702,1,8
112,56,172864,1,0
40,32,173026,1,4
216,104,173350,5,2
256,40,173513,1,0
296,104,173675,1,4
216,280,173999,5,2
256,344,174161,1,0
296,280,174323,1,4
472,352,174648,6,0,B|472:256,1,95,12|0
408,216,174972,1,8
472,176,175134,1,0
472,168,175215,1,0
472,160,175296,1,8
408,120,175458,1,0
464,72,175621,1,8
408,24,175783,1,0
352,72,175945,2,0,C|256:72,1,96,8|0
200,24,176269,1,8
144,72,176431,1,0
136,72,176512,1,0
128,72,176594,2,0,B|32:72,1,96,8|0
32,72,176919,1,4
32,272,177242,5,0
96,312,177405,1,0
160,352,177567,1,0
352,352,177891,5,0
416,312,178053,1,0
480,272,178216,1,4
304,176,178540,5,8
304,112,178702,2,0,B|304:32|256:30|208:32|208:112,1,192,0|4
208,176,179188,1,8
256,224,179350,1,0
256,248,179432,1,0
256,272,179513,1,0
416,352,179837,5,0
344,352,179999,1,0
272,352,180161,1,0
200,352,180323,1,0
128,352,180486,1,0
120,352,180567,1,0
112,352,180648,1,0
104,352,180729,1,0
96,352,180811,1,4
32,160,181135,6,0,C|176:32,1,192,8|0
224,80,181621,2,0,C|168:160,1,96,0|8
128,216,181945,2,0,B|220:240,1,96
291,240,182270,2,0,B|384:216,1,96,0|8
343,158,182594,2,0,C|288:80,1,96
336,32,182919,1,0
336,32,183081,2,0,C|480:160,1,192,8|4
480,352,183729,6,0,B|388:306|296:352,1,192,12|0
224,352,184215,1,0
208,280,184378,1,8
136,280,184540,1,0
120,352,184702,1,0
48,352,184864,1,0
32,280,185026,2,0,B|64:240|75:192|64:144|32:104,1,192,8|0
48,32,185513,1,0
120,32,185675,1,8
416,32,186000,5,4
480,224,186324,2,0,C|336:352,1,192,8|0
288,304,186810,2,0,C|344:224,1,96,0|8
384,168,187134,2,0,B|292:144,1,96
220,143,187459,2,0,B|128:168,1,96,0|8
168,225,187783,2,0,C|224:304,1,96
175,351,188108,1,0
175,351,188270,2,0,C|32:224,1,192,8|4
32,32,188919,6,0,B|124:78|216:32,1,192,12|0
288,32,189405,1,0
304,104,189568,1,8
376,104,189730,1,0
392,32,189892,1,0
464,32,190054,1,0
480,104,190216,2,0,B|448:144|437:192|448:240|480:280,1,192,8|0
464,352,190703,1,0
392,352,190865,1,8
176,352,191189,6,0,B|248:288,1,96,4|0
248,216,191513,2,0,C|176:152,1,96,8|0
104,152,191837,1,0
104,152,191999,2,0,C|32:216,1,96,0|8
104,152,192323,2,0,B|32:88,1,96
104,152,192648,2,0,C|176:216,1,96,0|8
104,152,192972,2,0,B|176:88,1,96
232,40,193296,1,0
232,40,193458,2,0,B|328:40,1,95,8|0
384,88,193783,6,0,B|456:152,1,96,4|0
408,208,194107,2,0,B|480:272,2,96,12|0|0
352,160,194593,1,0
296,112,194756,1,8
240,160,194918,1,0
184,208,195080,1,0
128,160,195242,1,0
56,160,195404,2,0,B|32:64,2,96,8|0|0
56,232,195891,1,0
56,232,196053,2,0,B|32:328,1,96,8|0
104,352,196378,6,0,B|192:312,1,96,4|0
264,312,196702,2,0,C|352:352,1,96,8|0
384,288,197026,1,0
416,224,197188,2,0,C|488:288,1,96,0|8
416,224,197512,2,0,B|488:160,1,96
416,224,197837,2,0,C|344:288,1,96,0|8
416,224,198161,2,0,B|344:160,1,96
312,224,198485,1,0
312,224,198647,2,0,B|216:224,1,95,8|0
128,264,198972,6,0,B|216:224,1,96,4|0
128,264,199296,2,0,B|40:224,2,96,12|0|0
128,192,199782,1,0
128,120,199945,1,8
160,56,200107,1,0
228,32,200269,1,0
296,56,200431,1,0
360,88,200593,2,0,B|456:80,2,96,8|0|0
388,156,201080,1,0
416,224,201242,2,0,B|320:232,1,96,12|0
256,192,201567,5,4
256,192,201648,12,0,208053
