osu file format v5

[General]
AudioFilename: Guitar ni Kubittake.mp3
AudioLeadIn: 0
PreviewTime: 22046
Countdown: 0
SampleSet: Normal
StackLeniency: 0.2
Mode: 0
LetterboxInBreaks: 1
EditorBookmarks: 11678,22056,32435,40218,46705,57083,68759,79137,89516
EditorDistanceSpacing: 0.800000011920929

[Metadata]
Title:Guitar ni Kubittake
Artist:Toyosaki Aki
Creator:DJPop
Version:Easy
Source:K-ON!
Tags:anime toyosaki aki hirasawa yui k-on keion character song series

[Difficulty]
HPDrainRate:2
CircleSize:4
OverallDifficulty:3
SliderMultiplier:1.28
SliderTickRate:1

[Events]
//Background and Video events
0,0,"Guitar ni Kubittake.png"
//Break Periods
//Storyboard Layer 0 (Background)
//Storyboard Layer 1 (Failing)
//Storyboard Layer 2 (Passing)
//Storyboard Layer 3 (Foreground)
//Storyboard Sound Samples
//Background Colour Transformations
3,100,0,0,0

[TimingPoints]
1300,324.324324324324,4,1,1,80,1,0
32435,-200,4,1,1,80,0,0
40218,-100,4,1,1,80,0,0
46705,-100,4,1,1,80,0,1
50596,-100,4,1,1,80,0,0
50597,-100,4,1,1,80,0,1
51244,-100,4,1,1,80,0,0
51245,-100,4,1,1,80,0,1
51893,-100,4,1,1,80,0,0
51894,-100,4,1,1,80,0,1
57082,-100,4,1,1,80,0,0
57083,-100,4,1,1,80,0,1
60974,-100,4,1,1,80,0,0
60975,-100,4,1,1,80,0,1
61623,-100,4,1,1,80,0,0
61624,-100,4,1,1,80,0,1
62271,-100,4,1,1,80,0,0
62272,-100,4,1,1,80,0,1
67299,-100,4,1,1,0,0,0
68597,-100,4,1,1,80,0,0
89597,-100,4,1,0,0,0,0

[Colours]
Combo1 : 59,169,216
Combo2 : 220,38,52
Combo3 : 241,202,0
Combo4 : 75,175,63

[HitObjects]
256,192,11678,5,4
256,64,12327,1,0
160,64,12813,2,0,C|32:64,2,128
160,160,13948,1,0
96,160,14272,5,0
96,288,14921,1,0
192,288,15408,2,0,C|320:288,3,128
416,288,16867,5,4
416,160,17516,1,0
320,160,18002,2,0,C|320:32,2,128
224,160,19137,1,0
224,96,19461,5,0
96,96,20110,1,0
96,192,20597,2,0,C|96:320,3,128
192,320,22056,5,4
320,320,22705,1,0
320,224,23191,1,0
224,224,23678,2,0,B|228:64|384:64,1,256,0|0
448,64,24651,5,2
448,192,25299,1,2
448,288,25786,1,4
352,288,26272,2,0,C|224:288,1,128,0|0
96,288,27245,5,4
96,160,27894,1,0
96,64,28381,1,0
192,64,28867,2,0,B|352:68|352:224,1,256,0|0
352,320,29840,5,2
224,320,30489,1,2
224,224,30975,1,4
128,224,31462,2,0,C|128:96,1,128,0|0
256,96,32435,6,0,C|480:96,1,224,4|0
480,192,34056,2,0,C|480:256,2,64
416,192,35029,6,0,B|390:320|256:320,1,224,4|0
160,320,36651,1,2
160,320,36975,1,2
160,320,37299,1,2
96,320,37624,6,0,B|-11:223|96:128,1,224,4|0
192,128,39245,2,0,C|192:64,2,64
192,192,40218,5,4
320,192,40867,1,0
320,96,41354,1,0
416,96,41840,2,0,B|480:128|496:160|497:192|496:224|480:256|416:288,1,256
416,352,42813,5,4
288,352,43462,1,0
192,352,43948,1,0
192,256,44435,1,4
64,256,45083,1,0
256,32,46705,5,4
256,96,47029,2,0,L|256:160|128:160|128:96,1,256,8|8
128,32,48002,1,0
64,32,48327,2,0,L|64:288,1,256,8|8
64,352,49299,6,0,C|192:352,3,128,0|8|0|8
256,352,50597,1,4
256,192,51245,1,4
256,32,51894,5,4
320,32,52218,2,0,L|384:32|384:160|320:160,1,256,8|8
320,224,53191,1,0
384,224,53516,2,0,L|448:224|448:352|384:352,1,256,8|8
320,352,54489,5,4
192,352,55137,1,0
64,352,55786,1,4
64,256,56272,1,0
64,160,56759,1,0
64,96,57083,5,4
128,64,57408,1,8
192,96,57732,1,8
256,64,58056,1,8
320,96,58381,1,8
384,64,58705,1,8
448,96,59029,1,8
480,160,59354,1,8
448,224,59678,6,0,L|448:288|384:288,1,128,8|8
352,224,60327,2,0,L|288:224|288:288,1,128,8|8
256,352,60975,1,4
224,192,61624,1,4
256,32,62272,5,4
192,64,62597,1,8
128,32,62921,1,8
64,64,63245,1,8
32,128,63570,1,8
64,192,63894,1,8
32,256,64218,1,8
96,288,64543,1,8
64,352,64867,5,4
192,352,65516,1,4
320,352,66164,1,4
320,256,66651,2,0,C|448:256,1,128,0|4
448,160,67462,6,0,C|64:160,1,384
64,96,68759,5,4
128,64,69083,1,0
192,32,69408,1,0
288,32,69894,2,0,C|416:32,2,128
288,128,71029,1,0
320,192,71354,6,0,C|448:192,1,128,4|4
448,288,72164,2,0,C|448:352,2,64
288,288,73218,1,0
128,288,73948,5,4
96,352,74272,1,0
64,288,74597,1,0
64,192,75083,2,0,C|64:64,2,128
160,192,76218,1,0
224,160,76543,6,0,C|224:32,1,128,4|4
320,32,77353,1,0
320,32,77516,1,0
320,32,77678,2,0,B|448:64|507:192|448:320|320:352,1,448
256,352,79137,5,4
192,320,79462,2,0,L|192:256|128:256,1,128
32,256,80272,2,0,L|32:192|96:192,1,128
96,128,80921,2,0,L|192:128|192:32,1,192
256,32,81732,6,0,L|384:32,1,128,4|4
480,32,82543,1,0
480,32,82705,1,0
480,32,82867,1,0
480,192,83597,1,0
480,352,84327,5,4
416,320,84652,2,0,L|352:320|352:256,1,128
256,256,85462,2,0,L|192:256|192:320,1,128
128,320,86111,2,0,L|64:320|64:256|128:256,1,192
128,192,86921,6,0,L|64:192|64:128,1,128,4|4
160,128,87732,1,0
160,128,87894,1,0
160,128,88056,1,0
256,128,88543,2,0,L|320:128|320:64,2,128
256,192,89516,5,4
256,192,89678,12,4,96002
