osu file format v5

[General]
AudioFilename: Guitar ni Kubittake.mp3
AudioLeadIn: 0
PreviewTime: 22046
Countdown: 0
SampleSet: Normal
StackLeniency: 0.2
Mode: 0
LetterboxInBreaks: 1
EditorBookmarks: 11678,22056,32435,40218,46705,57083,68759,79137,89516
EditorDistanceSpacing: 0.800000011920929

[Metadata]
Title:Guitar ni Kubittake
Artist:Toyosaki Aki
Creator:DJPop
Version:Beginner
Source:K-ON!
Tags:anime toyosaki aki hirasawa yui k-on keion character song series

[Difficulty]
HPDrainRate:1
CircleSize:3
OverallDifficulty:2
SliderMultiplier:0.96
SliderTickRate:1

[Events]
//Background and Video events
0,0,"Guitar ni Kubittake.png"
//Break Periods
//Storyboard Layer 0 (Background)
//Storyboard Layer 1 (Failing)
//Storyboard Layer 2 (Passing)
//Storyboard Layer 3 (Foreground)
//Storyboard Sound Samples
//Background Colour Transformations
3,100,0,0,0

[TimingPoints]
1300,324.324324324324,4,1,1,80,1,0
32435,-200,4,1,1,80,0,0
40218,-100,4,1,1,80,0,0
46705,-100,4,1,1,80,0,1
50596,-100,4,1,1,80,0,0
50597,-100,4,1,1,80,0,1
51244,-100,4,1,1,80,0,0
51245,-100,4,1,1,80,0,1
51893,-100,4,1,1,80,0,0
51894,-100,4,1,1,80,0,1
57082,-100,4,1,1,80,0,0
57083,-100,4,1,1,80,0,1
60974,-100,4,1,1,80,0,0
60975,-100,4,1,1,80,0,1
61623,-100,4,1,1,80,0,0
61624,-100,4,1,1,80,0,1
62271,-100,4,1,1,80,0,0
62272,-100,4,1,1,80,0,1
67462,-100,4,1,1,80,0,0
89191,-100,4,1,0,0,0,0

[Colours]
Combo1 : 59,169,216
Combo2 : 220,38,52
Combo3 : 241,202,0
Combo4 : 75,175,63

[HitObjects]
256,192,11678,5,4
256,32,12975,1,0
96,32,14272,1,0
96,192,15570,1,0
96,352,16867,5,4
256,352,18164,1,0
416,352,19462,1,0
416,192,20759,1,0
416,32,22056,5,4
256,32,23354,1,0
256,192,24651,1,2
256,192,25786,1,4
256,352,27245,5,4
96,352,28543,1,0
96,192,29840,1,2
96,192,30975,1,4
256,192,32435,6,0,C|424:192,1,168,4|0
256,112,35029,2,0,C|88:112,1,168,4|0
256,32,37624,2,0,C|424:32,1,168,4|0
256,192,40218,5,4
256,352,41516,1,0
416,352,42813,1,4
416,192,44110,1,0
32,32,46705,5,4
96,224,48002,1,0
288,288,49299,1,0
352,96,50597,1,4
384,192,51245,1,4
416,288,51894,5,4
224,352,53191,1,0
32,288,54489,1,4
96,96,55786,1,4
288,32,57083,5,4
224,224,58381,1,0
416,288,59678,1,0
352,96,60975,1,4
256,64,61624,1,4
160,96,62272,5,4
96,288,63570,1,0
288,224,64867,1,4
224,32,66164,1,4
416,352,68759,5,4
416,192,70056,1,0
256,192,71354,1,4
256,352,72651,1,0
96,352,73948,5,4
96,192,75245,1,0
96,32,76543,1,4
256,32,77840,1,0
256,192,79137,5,4
416,192,80434,1,0
416,32,81732,1,4
256,32,83029,1,0
96,32,84327,5,4
96,192,85624,1,0
96,352,86922,1,4
256,352,88219,1,0
256,192,89516,12,4,96002
