osu file format v9

[General]
AudioFilename: Gohan.mp3
AudioLeadIn: 0
PreviewTime: 29423
Countdown: 0
SampleSet: Soft
StackLeniency: 0.7
Mode: 0
LetterboxInBreaks: 1

[Editor]
Bookmarks: 97711,116177,120441,140344,141763,143184,179500,180450
DistanceSpacing: 2
BeatDivisor: 4
GridSize: 4

[Metadata]
Title:Gohan wa Okazu
Artist:Toyosaki Aki
Creator:Lalarun
Version:ktgw
Source:K-ON!!
Tags:Hirasawa Yui HTT HO-KAGO TEA TIME

[Difficulty]
HPDrainRate:5
CircleSize:4
OverallDifficulty:7
ApproachRate:8
SliderMultiplier:1.9
SliderTickRate:1

[Events]
//Background and Video events
0,0,"kon.jpg"
//Break Periods
2,87807,96963
2,116071,119700
//Storyboard Layer 0 (Background)
//Storyboard Layer 1 (Fail)
//Storyboard Layer 2 (Pass)
//Storyboard Layer 3 (Foreground)
//Storyboard Sound Samples
//Background Colour Transformations
3,100,163,162,255

[TimingPoints]
450,315.789473684211,4,2,1,70,1,0
27055,-100,4,2,1,0,0,0
27213,-200,4,2,1,70,0,0
29421,-100,4,2,1,60,0,0
29737,-100,4,2,1,65,0,0
30053,-100,4,2,1,70,0,0
30369,-100,4,2,1,75,0,0
30765,-100,4,2,1,80,0,1
42923,-100,4,2,1,70,0,0
45842,-100,4,2,1,70,0,0
72528,-100,4,2,1,0,0,0
72686,-133.333333333333,4,2,1,70,0,0
74895,-100,4,2,1,60,0,0
75211,-100,4,2,1,65,0,0
75526,-100,4,2,1,70,0,0
75842,-100,4,2,1,75,0,0
76239,-100,4,2,1,80,0,1
85555,-100,4,2,1,70,0,0
97632,-100,4,2,2,70,0,0
107763,-100,4,2,2,100,0,0
107895,-100,4,2,2,70,0,0
110290,-100,4,2,2,100,0,0
110421,-100,4,2,2,70,0,0
111211,-100,4,2,2,100,0,0
111369,-100,4,2,2,70,0,0
112869,-100,4,2,2,100,0,0
113026,-100,4,2,2,70,0,0
113737,-100,4,2,2,100,0,0
113895,-100,4,2,2,70,0,0
115792,-100,4,2,2,0,0,0
116026,-100,4,2,1,0,0,0
116658,-100,4,2,1,60,0,0
125421,-100,4,2,1,70,0,0
136950,-100,4,2,1,0,0,0
137107,-100,4,2,1,70,0,0
139316,-100,4,2,1,50,0,0
139316,-100,4,2,1,70,0,0
139632,-100,4,2,1,55,0,0
139948,-100,4,2,1,60,0,0
140263,-100,4,2,1,65,0,0
140579,-100,4,2,1,70,0,0
140895,-100,4,2,1,75,0,0
141211,-100,4,2,1,80,0,0
141526,-100,4,2,1,75,0,0
141842,-100,4,2,1,70,0,0
142158,-100,4,2,1,75,0,0
142474,-100,4,2,1,80,0,0
142790,-100,4,2,1,85,0,0
143186,-100,4,2,1,80,0,1
155105,-100,4,2,1,0,0,1
155186,-100,4,2,1,0,0,0
155265,-100,4,2,1,70,0,0
158263,-100,4,2,1,70,0,0
186132,-100,4,2,1,0,0,0

[Colours]
Combo1 : 134,255,165
Combo2 : 255,143,32
Combo3 : 100,169,253
Combo4 : 255,255,128
Combo5 : 255,196,196

[HitObjects]
68,260,5186,1,0
92,236,5265,1,0
120,220,5344,1,0
152,208,5423,1,0
184,196,5502,2,0,B|232:180|264:116,1,95,0|0
304,64,5818,1,8
388,48,5976,1,0
456,100,6134,2,0,B|456:156|424:188,1,95,0|0
340,200,6450,1,8
256,212,6607,5,0
228,228,6686,1,0
204,252,6765,2,0,B|172:292|164:340,1,95,0|8
80,352,7081,1,0
64,268,7239,1,0
116,200,7397,1,0
184,148,7555,1,8
200,64,7713,1,8
200,64,7871,1,0
284,52,8028,6,0,B|284:100|312:144,1,95,0|0
389,250,8344,2,0,B|376:208|389:154,1,95,8|0
440,32,8660,2,8,B|488:120|472:224,1,190,0|8
432,292,9134,1,0
432,292,9450,5,0
356,332,9607,1,8
272,320,9765,1,0
204,268,9923,1,0
176,252,10002,1,0
144,244,10081,1,8
112,248,10160,1,0
80,256,10239,1,8
232,36,10555,6,0,B|212:80|205:134,1,95
244,204,10871,1,2
304,144,11028,2,0,B|372:84|484:88,1,190
412,36,11502,1,8
328,52,11660,5,0
312,80,11739,1,0
304,112,11818,2,0,B|288:208|196:260,1,190,0|2
168,128,12292,2,0,B|328:248,1,190
404,228,12765,1,8
444,152,12923,1,0
392,84,13081,6,0,B|340:80|292:96,1,95
248,164,13397,1,8
176,276,13555,1,0
108,328,13713,2,0,B|48:256|56:148,1,190,0|8
104,80,14186,1,0
180,120,14344,5,0
216,248,14502,1,8
328,176,14660,1,8
216,248,14818,1,8
316,336,14976,2,0,B|304:388,2,47.5
444,296,15292,5,10
436,264,15371,1,0
432,232,15450,1,0
432,200,15528,1,0
428,168,15607,2,0,B|428:116|412:68,1,95
332,48,15923,1,2
264,100,16081,2,0,B|252:144|248:196,1,95
192,260,16397,2,0,B|164:300|116:316,1,95,0|8
52,188,16713,5,0
60,156,16792,1,0
64,124,16871,2,0,B|68:72|88:28,1,95
168,8,17186,1,2
220,76,17344,2,0,B|188:168|196:264,1,190
272,304,17818,1,8
356,288,17976,1,0
408,220,18134,6,0,B|408:172|392:124,2,95,0|0|8
356,288,18607,1,0
272,304,18765,2,0,B|216:220|116:200,1,190,0|8
136,116,19239,1,0
220,132,19397,5,0
124,224,19555,1,8
236,296,19713,1,8
328,200,19871,1,8
408,228,20028,6,0,B|416:180,2,47.5
376,308,20344,2,0,B|352:304|324:288,2,47.5,10|0|0
420,308,20581,1,0
460,324,20660,6,2,B|516:244|508:140,1,190,2|2
456,76,21134,1,0
372,92,21292,1,2
372,92,21607,5,2
296,52,21765,1,2
212,68,21923,1,8
128,52,22081,1,0
60,104,22239,2,8,B|44:152|52:200,1,95
180,160,22555,2,8,B|200:256|172:352,1,190
44,320,23028,5,0
56,288,23107,1,0
76,260,23186,2,2,B|128:176|236:157,1,190
300,208,23660,1,0
368,156,23818,2,0,B|384:112|384:60,1,95,2|0
468,80,24134,2,0,B|488:128|484:180,1,95,2|0
464,256,24450,1,8
464,256,24765,5,8
412,324,24923,1,8
328,340,25081,1,8
328,340,25397,5,8
244,332,25555,1,0
220,308,25634,1,0
204,280,25713,2,0,B|176:192|184:92,1,190
316,112,26186,2,0,B|304:168|264:204,1,95
144,160,26502,1,8
152,128,26581,1,0
176,104,26660,2,8,B|212:76|260:64,1,95
376,132,26976,2,0,B|340:160|292:172,1,95,0|0
176,104,27292,6,0,B|148:140|136:188,2,95
256,192,28239,12,0,29186
56,192,29502,5,8
56,192,29660,1,0
188,192,29818,1,8
188,192,29976,1,0
320,192,30134,1,8
320,192,30292,1,0
452,192,30450,1,8
452,192,30607,1,0
404,68,30765,6,0,B|372:108|316:108,1,95,0|0
252,56,31081,1,8
168,40,31239,1,0
92,80,31397,2,0,B|76:128|100:176,1,95,0|0
140,300,31713,2,0,B|180:276|200:228,1,95,8|0
184,144,32028,2,8,B|280:128|368:176,1,190,0|8
384,260,32502,1,0
344,336,32660,1,0
468,288,32818,5,10
452,204,32976,1,10
468,120,33134,1,0
416,52,33292,2,0,B|372:28|316:32,1,95,0|0
268,96,33607,1,8
200,148,33765,2,0,B|144:136|112:96,1,95,0|0
40,140,34081,2,0,B|-8:124,2,47.5,0|0|8
60,224,34397,1,0
136,264,34555,1,0
176,340,34713,1,0
196,208,34871,5,8
276,236,35028,2,0,B|336:160|444:148,1,190,0|2
408,68,35502,1,10
380,52,35581,1,0
348,44,35660,1,2
316,48,35739,1,0
284,56,35818,2,8,B|196:96|92:72,1,190,0|8
28,124,36292,5,0
64,252,36450,2,0,B|116:260|172:228,1,95,0|0
196,160,36765,1,8
280,144,36923,1,0
288,176,37002,1,0
304,204,37081,2,0,B|348:288|452:312,1,190,0|8
500,240,37555,1,0
400,152,37713,5,0
416,68,37871,2,0,B|476:56,2,47.5,10|0|10
340,28,38186,1,0
308,24,38265,1,0
276,28,38344,2,0,B|228:36|192:68,1,95
172,152,38660,1,8
88,168,38818,1,0
72,252,38976,6,0,B|64:300|96:356,1,95,0|0
152,284,39292,2,0,B|176:244|224:220,1,95,8|0
304,244,39607,1,0
288,328,39765,1,2
468,132,40081,1,2
204,172,40397,5,2
152,104,40555,1,2
76,144,40713,1,0
60,228,40871,2,2,B|60:276|36:324,1,95
116,356,41186,1,0
184,304,41344,6,0,B|208:260|264:240,1,95,2|0
380,292,41660,1,0
396,264,41739,1,0
404,232,41818,2,0,B|416:188|412:136,1,95,2|0
316,44,42134,2,2,B|272:136|180:176,1,190
104,68,42607,2,0,B|36:136|20:240,1,190
72,304,43081,1,0
256,192,43397,12,0,44976
56,96,45292,5,0
56,96,45450,1,0
112,216,45607,1,0
140,200,45686,1,0
164,176,45765,1,0
180,148,45844,1,0
188,116,45923,6,0,B|228:88|280:88,1,95
345,141,46239,1,8
420,100,46397,1,0
352,48,46555,1,0
276,88,46713,2,0,B|248:128|200:144,1,95,0|8
316,212,47028,5,0
288,228,47107,1,0
265,252,47186,2,0,B|233:292|233:340,1,95,0|8
364,312,47502,2,0,B|396:272|396:224,1,95,0|0
331,167,47818,1,0
248,188,47976,1,8
180,240,48134,5,0
156,264,48213,1,0
140,292,48292,1,0
116,316,48371,1,0
92,340,48450,2,0,B|68:364|48:372,2,47.5,2|0|0
40,272,48765,2,0,B|52:224|44:168,1,95,10|0
96,108,49081,1,2
124,88,49160,1,0
156,80,49239,1,0
240,96,49397,5,8
292,164,49555,2,0,B|280:260|204:332,1,190
336,300,50028,2,0,B|356:348|396:376,1,95,8|0
460,320,50344,1,0
456,288,50423,1,0
448,256,50502,1,10
432,228,50581,1,0
416,200,50660,1,10
284,184,50818,1,0
172,256,50976,6,0,B|124:244|96:204,1,95
95,69,51292,2,0,B|143:81|171:121,1,95,8|0
256,108,51607,1,0
308,40,51765,1,0
392,56,51923,1,8
432,132,52081,5,0
416,160,52160,1,0
408,192,52239,2,0,B|392:240|408:288,1,95,0|8
288,347,52555,2,0,B|304:299|288:251,1,95,0|0
216,208,52871,1,0
152,264,53028,1,8
68,248,53186,5,8
60,216,53265,1,0
56,184,53344,1,0
60,152,53423,1,0
68,120,53502,2,0,B|72:88|88:40,2,47.5,2|0|0
152,140,53818,1,10
184,132,53897,1,0
212,116,53976,1,0
288,156,54134,2,0,B|280:204|288:252,1,95,2|0
352,308,54450,5,8
432,280,54607,2,0,B|456:240|456:188,1,95
368,88,54923,1,0
292,128,55081,2,0,B|268:168|264:220,1,95,8|0
328,276,55397,1,0
356,260,55476,1,0
388,252,55555,1,10
420,248,55634,1,0
452,248,55713,1,10
280,45,56028,5,0
201,79,56186,1,0
152,149,56344,1,2
137,233,56502,2,0,B|125:289|93:317,1,95
45,245,56818,2,0,B|57:189|89:161,1,95,0|8
212,112,57134,5,0
240,128,57213,1,0
264,152,57292,2,0,B|312:232|308:336,1,190,0|2
388,228,57765,2,0,B|400:172|432:144,1,95
474,219,58081,2,0,B|462:275|430:303,1,95,0|8
345,295,58397,1,0
424,188,58555,5,0
408,104,58713,1,0
332,64,58871,1,8
257,105,59028,1,0
236,188,59186,2,0,B|224:240|192:272,1,95
99,175,59502,2,0,B|111:123|143:91,1,95,8|0
228,84,59818,5,0
280,152,59976,1,8
356,112,60134,1,8
432,152,60292,2,0,B|452:244|432:340,1,190,8|0
431,340,60686,1,0
431,340,60765,1,10
355,302,60923,1,0
270,291,61081,6,0,B|218:283|170:299,1,95
92,316,61397,1,0
52,240,61555,2,0,B|104:160|208:140,1,190
291,156,62028,1,8
356,272,62186,5,0
384,256,62265,1,0
400,228,62344,2,0,B|424:188|428:136,1,95
364,80,62660,1,2
280,96,62818,1,0
280,96,63134,5,0
204,56,63292,1,8
120,72,63450,1,0
60,132,63607,2,0,B|56:184|72:224,1,95
159,327,63923,2,0,B|191:295|199:239,1,95,8|0
268,192,64239,1,0
344,232,64397,1,0
428,216,64555,1,8
468,140,64713,1,0
428,64,64871,5,0
316,36,65028,1,8
200,36,65186,1,8
88,64,65344,1,8
108,148,65502,6,0,B|52:176,2,47.5
192,168,65818,2,0,B|180:220,2,47.5,10|0|0
220,136,66055,1,0
260,124,66134,2,2,B|360:144|416:236,1,190
392,312,66607,1,0
308,296,66765,2,0,B|260:288|208:300,1,95,2|0
124,332,67081,5,2
36,276,67239,1,0
32,172,67397,1,8
108,100,67555,1,0
212,108,67713,6,8,B|256:96|292:52,1,95
293,140,68028,2,8,B|389:172|485:124,1,190
360,64,68502,1,0
336,88,68581,1,0
320,116,68660,2,2,B|280:212|280:316,1,190
208,348,69134,1,0
124,332,69292,1,2
108,248,69450,1,0
164,184,69607,5,2
296,168,69765,2,0,B|320:120,2,47.5,2|0|8
356,288,70081,1,0
468,216,70239,6,8,B|484:168|476:112,1,95
344,136,70555,2,8,B|308:228|308:324,1,190
216,225,71028,5,0
188,241,71107,1,0
164,265,71186,2,2,B|132:301|120:353,1,95,2|0
254,334,71502,2,2,B|286:298|298:246,1,95,2|0
248,180,71818,1,0
164,196,71976,1,8
148,168,72055,1,0
140,136,72134,1,8
156,52,72292,1,8
288,36,72450,2,0,B|324:72|336:124,1,95
236,132,72765,6,0,B|208:196|208:272,2,142.499995753169
256,192,73713,12,0,74660
456,192,74976,5,8
456,192,75134,1,0
324,192,75292,1,8
324,192,75450,1,0
192,192,75608,1,8
192,192,75766,1,0
60,192,75924,1,8
60,192,76081,1,0
96,64,76239,6,0,B|140:40|196:48,1,95,0|0
252,104,76555,1,8
336,88,76713,1,0
420,104,76871,2,0,B|436:156|432:204,1,95
316,262,77186,2,0,B|300:210|305:163,1,95,8|0
476,84,77502,2,0,B|492:136|488:184,1,95
392,272,77818,5,8
280,344,77976,1,0
148,328,78134,1,0
260,256,78292,5,10
184,216,78450,1,10
100,228,78607,1,0
24,188,78765,6,0,B|28:140|56:100,1,95
140,80,79081,1,8
192,148,79239,1,0
276,164,79397,1,0
308,160,79476,1,0
340,152,79555,2,0,B|380:132|404:84,1,95,0|8
341,25,79871,5,0
268,68,80028,1,0
252,152,80186,1,0
200,220,80344,1,8
160,296,80502,2,0,B|216:336,2,47.5,0|0|0
84,336,80818,1,10
32,268,80976,5,10
40,236,81055,1,0
56,208,81134,1,2
80,184,81213,1,0
108,168,81292,2,0,B|204:192|300:152,1,190,0|8
380,148,81765,1,0
432,216,81923,2,0,B|428:268|396:308,1,95,0|0
313,307,82239,2,0,B|265:295|217:307,1,95,8|0
288,192,82555,5,0
252,64,82713,2,0,B|292:40,2,47.5,0|0|8
120,48,83028,2,0,B|136:96|132:144,1,95
60,188,83344,1,0
44,216,83423,1,0
36,248,83502,1,8
88,316,83660,1,0
188,228,83818,6,0,B|196:276|228:316,1,95,0|0
276,189,84134,2,0,B|268:133|228:101,1,95,8|0
100,116,84450,1,0
112,248,84607,1,0
244,264,84765,2,0,B|280:236|336:236,1,95,8|0
448,304,85081,1,0
443,171,85239,2,0,B|399:87|291:63,1,190,2|2
256,192,85713,12,0,87607
84,80,97713,6,0,B|52:168|56:272,1,190,8|0
184,232,98186,2,0,B|168:140,1,95,0|0
216,67,98502,1,0
296,96,98660,2,0,B|324:192|300:288,1,190
372,332,99134,2,0,B|420:320|460:272,1,95
444,196,99450,1,0
380,140,99607,2,0,B|376:92|400:48,1,95
272,88,99923,6,0,B|276:136|252:180,1,95
156,272,100239,2,0,B|140:172|48:120,1,190,8|0
88,44,100713,1,0
88,44,101028,5,0
172,28,101186,1,0
248,68,101344,1,0
288,144,101502,2,0,B|280:192|288:240,1,95
364,278,101818,1,0
421,214,101976,1,0
421,214,102055,1,0
421,214,102134,1,0
344,176,102292,1,0
286,239,102450,1,0
188,328,102607,5,0
164,304,102686,1,0
152,272,102765,2,0,B|116:184|140:84,1,190,8|0
260,144,103239,2,0,B|296:232|272:332,1,190,8|0
152,272,103713,2,0,B|184:236|236:228,1,95
357,279,104028,6,0,B|369:323,2,47.5,2|0|0
419,219,104344,2,0,B|427:171|423:123,1,95,2|0
300,71,104660,2,0,B|292:119|296:167,1,95,2|0
423,122,104976,5,2
297,165,105134,1,0
168,132,105292,2,0,B|100:204|84:300,1,190
212,264,105765,2,0,B|280:192|296:96,1,190
372,56,106239,1,0
372,56,106555,5,0
468,148,106713,1,0
344,197,106871,1,0
256,98,107028,1,0
256,98,107344,5,0
134,44,107502,1,0
118,72,107581,1,0
106,104,107660,1,0
98,136,107739,1,0
98,168,107818,2,0,B|102:268|58:356,1,190,8|0
188,312,108292,2,0,B|208:268|252:244,1,95
321,294,108607,1,0
404,275,108765,2,0,B|436:187|420:71,1,190,8|0
340,60,109239,5,0
259,87,109397,1,0
175,70,109555,1,0
99,109,109713,2,0,B|75:153|71:201,1,95,8|0
150,306,110028,5,0
172,280,110107,1,0
184,248,110186,1,0
299,181,110344,2,0,B|287:233|295:277,1,95,8|0
415,334,110660,1,0
438,203,110818,2,0,B|402:111|302:79,1,190
172,108,111292,6,0,B|144:152|140:200,1,95,8|0
244,280,111607,2,0,B|272:236|276:188,1,95,8|0
172,108,111923,1,0
46,150,112081,1,0
76,280,112239,5,0
200,232,112397,1,8
324,280,112555,1,0
448,232,112713,1,0
468,100,112871,5,8
440,84,112950,1,0
408,76,113028,1,0
280,112,113186,1,0
293,244,113344,2,0,B|253:272|201:272,1,95,8|0
127,232,113660,1,0
108,100,113818,6,0,B|192:52|300:56,1,190,8|0
388,147,114292,2,0,B|428:123,2,47.5
391,280,114607,1,0
258,265,114765,5,8
189,214,114923,1,0
144,141,115081,1,8
126,57,115239,1,0
258,71,115397,5,8
327,122,115555,1,0
372,195,115713,1,8
390,279,115871,1,0
232,339,120450,5,0
311,305,120608,1,0
360,235,120766,1,2
375,151,120924,2,0,B|387:95|419:67,1,95
288,100,121240,2,0,B|276:156|244:184,1,95,0|8
160,80,121556,5,0
132,96,121635,1,0
108,120,121714,2,0,B|60:200|64:304,1,190,0|2
172,224,122187,2,0,B|228:212|256:180,1,95
304,252,122503,2,0,B|316:308|348:336,1,95,0|8
432,324,122819,1,0
460,244,122976,6,0,B|440:152|376:76,1,190,0|8
292,96,123450,1,0
308,180,123608,2,0,B|296:232|264:264,1,95
236,344,123924,2,0,B|184:332|152:300,1,95,8|0
68,316,124240,5,0
28,240,124398,1,8
44,156,124556,1,8
28,72,124714,2,0,B|120:52|216:72,1,190,8|0
216,72,125107,1,0
216,72,125186,1,10
200,156,125344,1,0
120,192,125502,6,0,B|92:232|84:288,1,95
156,328,125818,1,2
235,295,125976,2,0,B|247:199|211:107,1,190
264,40,126450,1,8
396,48,126607,5,0
384,80,126686,1,0
376,112,126765,2,0,B|352:208|368:304,1,190,0|2
265,214,127239,2,0,B|241:262|197:290,1,95
70,292,127555,2,0,B|94:244|138:216,1,95,0|8
215,238,127871,1,0
277,296,128028,5,0
277,296,128186,1,0
384,217,128344,1,8
384,217,128502,1,0
456,264,128660,5,0
476,132,128818,1,0
344,116,128976,1,8
328,248,129134,1,0
252,208,129292,6,0,B|212:236|192:284,1,95
148,156,129607,2,8,B|188:128|208:80,1,95
80,40,129923,2,0,B|56:-4,2,47.5
30,164,130239,1,10
34,196,130318,1,0
46,228,130397,1,0
70,252,130476,1,0
102,264,130555,6,0,B|210:248|282:316,1,190
359,207,131028,2,0,B|395:303,1,95,2|2
468,40,131502,5,0
368,128,131660,1,2
245,76,131818,1,8
73,279,132134,5,8
174,192,132292,1,8
296,244,132450,1,8
93,73,132765,5,8
224,52,132923,1,0
241,80,133002,1,0
252,111,133081,2,2,B|276:211|260:307,1,190
373,226,133555,2,2,B|393:174|393:114,1,95
128,104,134028,5,0
216,204,134186,1,2
166,327,134344,1,8
426,271,134660,5,8
339,170,134818,1,8
390,47,134976,1,8
184,216,135292,1,8
304,158,135450,5,0
305,190,135528,1,0
299,222,135607,2,2,B|283:270|243:302,1,95
112,291,135923,2,2,B|160:307|192:363,1,95
176,216,136239,1,0
129,144,136397,1,8
152,120,136476,1,0
181,104,136555,2,8,B|221:80|277:80,1,95
374,166,136871,2,0,B|334:190|278:190,1,95
182,103,137186,6,0,B|98:159|86:263,2,190
256,192,138134,12,0,139081
172,228,139397,6,0,B|164:276|172:328,1,95,8|0
295,272,139713,6,0,B|343:280|395:272,1,95,8|0
340,149,140028,6,0,B|348:101|340:49,1,95,8|0
216,104,140344,6,0,B|168:96|116:104,1,95,8|0
340,228,140660,6,0,B|348:276|340:328,1,95,8|0
217,272,140976,6,0,B|169:280|117:272,1,95,8|0
172,149,141291,6,0,B|164:101|172:49,1,95,8|0
296,104,141607,6,0,B|344:96|396:104,1,95,8|0
340,228,141923,5,8
296,104,142081,1,0
172,149,142239,1,8
217,272,142397,1,0
340,228,142555,5,0
217,272,142713,1,10
172,149,142871,1,10
296,104,143028,1,0
296,104,143107,1,0
296,104,143186,6,0,B|320:148|320:196,1,95
212,274,143502,2,0,B|188:230|188:182,1,95,8|0
242,116,143818,1,0
327,112,143976,1,0
396,162,144134,2,0,B|388:222|368:262,1,95,8|0
243,291,144450,6,0,B|247:191|191:111,1,190,0|8
113,146,144923,2,0,B|81:234,1,95
131,359,145239,2,0,B|163:271,1,95,2|10
265,183,145555,5,0
260,216,145634,1,0
262,249,145713,2,0,B|266:297|290:345,1,95
372,352,146028,1,8
403,272,146186,1,0
356,200,146344,2,0,B|360:152|388:112,2,95,0|0|8
404,272,146818,1,0
444,196,146976,2,0,B|412:156|364:144,1,95
287,178,147292,1,8
257,258,147450,2,0,B|177:310|73:282,1,190,0|2
46,264,147844,1,0
21,241,147923,1,10
32,108,148081,5,2
64,112,148160,1,0
96,124,148239,2,0,B|144:144|168:184,1,95
298,153,148555,2,0,B|250:133|226:93,1,95,8|0
308,67,148871,2,0,B|400:103|448:191,1,190,0|8
412,268,149344,1,0
329,290,149502,6,0,B|293:258|281:206,1,95
286,75,149818,2,0,B|254:111|202:123,1,95,8|0
128,84,150134,1,0
100,102,150213,1,0
80,128,150292,1,2
64,156,150371,1,0
56,188,150450,1,10
87,267,150607,1,0
169,291,150765,6,0,B|163:343|143:383,1,95
257,311,151081,2,0,B|263:259|287:223,1,95,8|0
372,204,151397,1,0
451,236,151555,1,0
495,162,151713,2,0,B|491:114|463:74,1,95,8|0
380,52,152028,1,0
296,68,152186,2,2,B|264:160|264:256,1,190
152,124,152818,6,0,B|112:100,2,47.5,2|0|0
132,208,153134,1,0
211,240,153292,2,2,B|215:288|203:336,1,95
119,349,153607,1,0
77,274,153765,2,2,B|133:194|237:182,1,190
317,211,154239,1,0
273,85,154397,1,0
404,64,154555,5,2
420,92,154634,1,0
428,124,154713,1,2
432,156,154792,1,0
436,188,154871,1,0
436,220,154950,1,0
436,252,155028,2,0,B|428:312|408:348,1,95
300,268,155344,2,0,B|308:208|328:172,1,95
256,192,155818,12,0,157397
116,288,157713,5,0
116,288,157871,1,0
72,215,158028,1,0
84,183,158107,1,0
104,155,158186,1,0
128,131,158265,1,0
152,111,158344,6,0,B|196:87|244:83,1,95
304,143,158660,1,8
300,228,158818,1,0
370,277,158976,2,0,B|418:261|446:221,1,95
420,140,159292,1,8
308,68,159450,5,0
292,96,159528,1,0
284,128,159607,2,0,B|272:176|280:224,1,95,0|8
377,314,159923,2,0,B|389:266|381:218,1,95,0|0
312,168,160239,1,0
230,193,160397,1,8
196,272,160555,2,0,B|213:321|252:349,1,95,8|0
332,320,160871,5,2
328,288,160950,1,0
320,256,161028,1,0
252,204,161186,5,10
236,164,161265,1,0
236,120,161344,1,0
350,52,161502,5,2
412,76,161581,1,0
448,131,161660,1,0
432,263,161818,5,8
301,238,161976,6,0,B|261:206|253:158,1,95
179,114,162292,1,0
94,102,162450,2,0,B|58:142|50:190,1,95,8|0
111,246,162765,1,0
139,230,162844,1,0
171,218,162923,1,10
203,218,163002,1,0
235,226,163081,1,10
314,333,163239,1,0
441,293,163397,5,0
444,260,163476,1,0
440,228,163555,2,0,B|440:176|408:132,1,95,0|8
329,116,163871,1,0
266,173,164028,1,0
181,184,164186,2,0,B|153:144|153:96,1,95,0|8
284,68,164502,5,0
316,72,164581,1,0
348,84,164660,2,0,B|392:100|428:136,1,95,0|8
500,247,164976,2,0,B|488:203|504:151,1,95
461,78,165292,1,0
379,103,165450,1,8
348,182,165607,5,8
340,214,165686,1,0
324,242,165765,1,0
300,266,165844,1,0
272,286,165923,2,0,B|252:298|236:322,2,47.5,2|0|0
207,229,166239,2,0,B|215:173|239:141,1,95,10|0
145,45,166555,2,0,B|137:101|113:133,1,95,2|0
35,171,166871,1,8
60,252,167028,6,0,B|108:276|152:272,1,95
251,182,167344,1,0
383,196,167502,2,0,B|419:232|423:292,1,95,8|0
108,212,167818,2,0,B|72:176|68:116,2,95,0|10|10
256,192,168450,12,0,170660
104,192,170976,6,0,B|56:216|32:264,1,95,2|0
80,330,171292,1,8
416,48,171607,2,0,B|448:96|440:144,1,95,2|0
355,146,171923,1,10
274,118,172081,2,0,B|218:206|250:318,1,190
136,223,172555,2,0,B|124:271|88:307,1,95,8|0
38,181,172871,2,0,B|50:133|86:97,2,95,0|10|10
256,192,173502,12,0,175713
80,320,176028,6,0,B|88:272|120:232,1,95,2|0
188,120,176344,2,0,B|188:176|204:216,1,95,10|0
275,260,176660,1,2
360,264,176818,1,0
419,202,176976,1,8
381,74,177134,6,0,B|337:94|309:134,1,95
273,263,177450,1,0
155,323,177607,2,0,B|123:287|119:235,1,95,8|0
110,103,177923,2,0,B|70:131|54:183,2,95,0|10|10
256,192,178555,5,0
256,192,178871,1,0
256,192,179186,1,0
256,192,179502,1,0
256,340,179818,5,0
180,300,179976,1,0
144,224,180134,1,0
140,140,180292,1,0
256,44,180450,5,0
332,84,180608,1,0
368,160,180766,1,0
372,244,180924,1,0
256,192,181081,5,0
256,192,181397,1,0
256,192,181712,1,0
256,192,182028,1,0
256,44,182344,5,0
180,84,182502,1,0
144,160,182660,1,0
140,244,182818,1,0
256,340,182976,5,0
332,300,183134,1,0
368,224,183292,1,0
372,140,183450,1,0
256,192,183607,12,0,186134
