osu file format v7

[General]
AudioFilename: GO!GO!MANIAC.mp3
AudioLeadIn: 0
PreviewTime: 6965
Countdown: 0
SampleSet: Normal
StackLeniency: 0.6
Mode: 0
LetterboxInBreaks: 0

[Editor]
DistanceSpacing: 1.20000004768372
BeatDivisor: 2
GridSize: 8

[Metadata]
Title:GO!GO!MANIAC
Artist:Toyosaki Aki
Creator:miccoliasms
Version:Normal
Source:K-ON!!
Tags:toyosaki aki hikasa yoko satou satomi kotobuki minako taketatsu ayana hirasawa yui akiyama mio tainaka ritsu kotobuki tsumugi nakano asuza k-on keion

[Difficulty]
HPDrainRate:5
CircleSize:3
OverallDifficulty:5
SliderMultiplier:0.7
SliderTickRate:0.5

[Events]
//Background and Video events
Video,0,"GO!GO!MANIAC.avi"
0,0,"GO!GO!MANIAC.png"
//Break Periods
2,22044,29765
//Storyboard Layer 0 (Background)
//Storyboard Layer 1 (Fail)
//Storyboard Layer 2 (Pass)
//Storyboard Layer 3 (Foreground)
//Storyboard Sound Samples
//Background Colour Transformations
3,100,163,162,255

[TimingPoints]
485,240,4,1,0,80,1,0
8885,-100,4,1,0,80,0,1
14525,-100,4,1,0,80,0,0
32885,-100,4,1,0,51,0,0
34325,-100,4,1,0,67,0,0
34445,-100,4,1,0,80,0,0
40565,-100,4,1,0,50,0,0
42125,-100,4,1,0,66,0,0
42245,-100,4,1,0,80,0,0
52085,-100,4,1,0,50,0,0
52685,-100,4,1,0,65,0,0
53165,-100,4,1,0,85,0,0
53645,-100,4,1,0,100,0,0
53945,-100,4,1,0,80,0,0
57845,-100,4,1,0,80,0,1
69365,-100,4,1,0,80,0,0

[Colours]
Combo1 : 0,255,0
Combo2 : 255,0,0
Combo3 : 0,0,255
Combo4 : 255,255,0
Combo5 : 255,0,255

[HitObjects]
256,24,6485,2,0,B|256:104|256:104,1,70
256,176,6965,2,0,B|192:240|192:240,1,70
256,288,7445,2,0,B|320:224|320:224,1,70
336,160,7925,1,4
200,64,8405,6,0,B|112:72|88:160|88:160,1,140
88,312,9365,1,10
256,312,9845,1,0
424,312,10325,1,10
424,144,10805,6,0,B|424:0|424:0,2,140,0|8|0
424,144,12245,1,8
264,208,12725,2,0,B|192:248|200:336|200:336,1,140,0|8
48,248,13685,2,0,B|120:208|112:120|112:120,1,140,0|8
256,40,14645,5,4
256,40,14885,1,4
456,192,15605,5,4
456,192,15845,1,4
256,344,16565,5,4
256,344,16805,1,4
56,192,17525,5,4
56,192,17765,1,4
256,40,18485,5,0
400,128,18965,2,0,B|448:192|400:272|400:272,1,140
256,344,19925,1,0
96,288,20405,2,0,B|40:232|72:152|72:152,2,140
168,248,21605,2,0,B|248:208|248:208,1,70,0|4
440,216,30965,5,0
336,344,31445,1,0
168,312,31925,2,0,B|88:272|112:184|112:184,2,140,0|0|2
320,248,33365,1,0
400,96,33845,2,0,B|392:40|360:24|360:24,2,70
256,176,34805,5,0
88,200,35285,2,0,B|72:280|144:336|144:336,1,140
304,336,36245,2,0,B|392:352|392:352,1,70
344,272,36725,6,0,B|376:160|376:160,1,105,2|2
288,80,37445,2,0,B|248:208|248:208,1,105,2|2
216,296,38165,1,2
216,296,38405,1,2
144,248,38645,6,0,B|120:168|176:104|176:104,1,140
312,24,39605,2,0,B|368:88|328:176|328:176,1,140
272,312,40565,2,0,B|240:344|200:344|200:344,2,70,2|2|2
432,272,41525,2,0,B|464:304|464:360|464:360,2,70,2|2|2
288,184,42485,6,0,B|232:128|248:48|248:48,1,140
88,8,43445,2,0,B|144:80|104:160|104:160,1,140
56,296,44405,2,0,B|152:360|272:304|272:304,1,210,2|2
376,264,45485,2,0,B|480:216|480:216,1,105,2|2
471,219,46085,1,2
392,184,46325,5,4
88,40,47285,2,0,B|24:136|24:136,2,105
168,80,48245,1,0
472,232,49205,2,0,B|416:336|416:336,1,105,2|0
256,192,50165,6,0,B|320:144|312:48|312:48,1,140
160,136,51125,2,0,B|104:200|160:288|160:288,1,140
200,336,51845,1,0
280,320,52085,2,0,B|352:280|352:192|352:192,1,140
184,200,53045,2,0,B|184:112|272:80|272:80,1,140
416,48,54005,6,0,B|488:112|456:200|456:200,1,140
352,304,54965,2,0,B|288:352|192:304|192:304,1,140
96,192,55925,5,0
176,192,56165,1,0
256,192,56405,1,0
336,192,56645,1,0
416,192,56885,1,0
416,192,57365,5,4
312,56,57845,2,0,B|240:24|168:64|168:64,1,140,0|10
40,152,58805,2,0,B|-16:224|48:296|48:296,1,140,0|10
200,336,59765,2,0,B|360:360|360:360,2,140,0|8|0
96,200,61205,1,8
192,64,61685,6,0,B|336:112|336:112,1,140,0|8
200,216,62645,2,0,B|344:264|344:264,1,140,0|8
416,288,63365,1,0
392,208,63605,2,0,B|352:136|408:64|408:64,2,140,0|8|0
256,312,65045,1,8
104,240,65525,6,0,B|88:152|176:96|176:96,1,140,0|8
312,56,66485,2,0,B|336:144|424:160|424:160,1,140,0|8
336,312,67445,2,0,B|192:360|192:360,2,140,0|8|0
496,256,68885,1,8
336,200,69365,6,0,B|264:160|272:80|272:80,1,140,0|8
112,24,70325,2,0,B|144:96|72:176|72:176,1,140,0|8
32,224,71045,1,0
104,272,71285,5,4
104,272,71525,1,4
344,352,72245,5,4
344,352,72485,1,4
472,136,73205,5,4
472,136,73445,1,4
240,40,74165,5,4
240,40,74405,1,4
160,64,74645,6,0,B|96:120|128:200|128:200,1,140
216,336,75605,1,0
288,184,76085,2,0,B|304:96|400:72|400:72,2,140
152,288,77525,2,0,B|80:336|-8:296|-8:296,1,140
17,304,78245,1,0
17,304,78485,1,4
256,192,78725,12,4,79685
