osu file format v7

[General]
AudioFilename: GO!GO!MANIAC.mp3
AudioLeadIn: 1004
PreviewTime: 6965
Countdown: 0
SampleSet: Normal
StackLeniency: 0.6
Mode: 0
LetterboxInBreaks: 0

[Editor]
DistanceSpacing: 0.899999976158142
BeatDivisor: 4
GridSize: 8

[Metadata]
Title:GO!GO!MANIAC
Artist:Toyosaki Aki
Creator:miccoliasms
Version:Insane
Source:K-ON!!
Tags:toyosaki aki hikasa yoko satou satomi kotobuki minako taketatsu ayana hirasawa yui akiyama mio tainaka ritsu kotobuki tsumugi nakano asuza k-on keion

[Difficulty]
HPDrainRate:5
CircleSize:4
OverallDifficulty:7
SliderMultiplier:1.6
SliderTickRate:0.5

[Events]
//Background and Video events
Video,0,"GO!GO!MANIAC.avi"
0,0,"GO!GO!MANIAC.png"
//Break Periods
//Storyboard Layer 0 (Background)
//Storyboard Layer 1 (Fail)
//Storyboard Layer 2 (Pass)
//Storyboard Layer 3 (Foreground)
//Storyboard Sound Samples
Sample,19685,0,"clap.wav",70
//Background Colour Transformations
3,100,163,162,255

[TimingPoints]
485,240,4,1,0,80,1,0
3005,-100,4,1,0,60,0,0
4925,-100,4,1,0,80,0,0
8885,-100,4,1,0,80,0,1
14525,-100,4,1,0,80,0,0
32885,-100,4,1,0,51,0,0
34325,-100,4,1,0,67,0,0
34445,-100,4,1,0,80,0,0
40565,-100,4,1,0,50,0,0
42125,-100,4,1,0,66,0,0
42245,-100,4,1,0,80,0,0
52085,-100,4,1,0,50,0,0
52685,-100,4,1,0,65,0,0
53165,-100,4,1,0,85,0,0
53645,-100,4,1,0,100,0,0
53945,-100,4,1,0,80,0,0
57845,-100,4,1,0,80,0,1
69365,-100,4,1,0,80,0,0

[Colours]
Combo1 : 0,255,0
Combo2 : 255,0,0
Combo3 : 0,0,255
Combo4 : 255,255,0
Combo5 : 255,0,255

[HitObjects]
112,88,605,2,0,B|80:120|96:184|96:184,2,80
248,32,1085,1,0
320,40,1205,2,2,B|368:48|384:88|384:88,1,80,2|2
320,120,1445,2,2,B|352:168|400:160|400:160,1,80,2|2
472,280,1805,2,0,B|432:352|328:352|328:352,1,160,2|0
264,352,2165,2,0,B|160:320|160:320,2,80,2|0|0
304,288,2525,1,2
256,0,3125,5,0
256,32,3605,1,0
256,64,4085,1,0
256,80,4325,1,0
256,96,4565,2,0,B|256:184|160:232|160:232,1,160
72,128,5045,6,2,B|32:152|16:208|16:208,2,80
136,88,5405,2,0,B|224:128|296:64|296:64,1,160,2|0
416,8,5885,1,0
376,72,6005,2,2,B|352:120|384:176|384:176,2,80,2|2|0
448,72,6365,2,0,B|504:144|456:232|456:232,1,160,2|0
416,280,6725,2,0,B|384:320|328:320|328:320,1,80
256,352,6965,5,0
32,192,7205,1,0
256,32,7445,1,0
480,192,7685,1,0
256,352,7925,1,4
256,32,8405,5,0
248,104,8525,2,0,B|240:192|144:224|144:224,1,160
80,232,8885,1,0
64,304,9005,1,0
64,304,9125,1,8
136,288,9245,1,0
136,288,9365,2,0,B|192:360|288:344,1,160,2|8
344,312,9725,1,0
344,312,9845,1,0
280,272,9965,1,0
280,272,10085,2,0,B|264:176|360:120|360:120,1,160,10|0
400,88,10445,6,0,B|472:48|472:48,2,80,0|8|0
328,64,10805,2,0,B|288:32|240:40|240:40,1,80
176,40,11045,2,0,B|120:48|96:80|96:80,1,80,8|0
40,120,11285,2,0,B|0:160|16:200|16:200,2,80,0|0|8
128,144,11645,6,0,B|160:232|256:264|256:264,1,160
360,288,12005,2,0,B|328:200|232:168|232:168,1,160,8|0
48,336,12485,1,8
128,88,12725,6,0,B|184:24|280:16|280:16,1,160,0|8
384,296,13205,2,0,B|328:360|232:368|232:368,1,160,0|8
32,224,13685,6,0,B|0:136|64:72|64:72,1,160,0|8
480,160,14165,2,0,B|512:248|448:312|448:312,1,160,0|8
392,352,14525,1,0
320,328,14645,5,4
320,328,14885,1,12
232,216,15125,6,0,B|216:176|248:136,1,80
352,72,15365,2,0,B|368:112|336:152,1,80,8|0
288,192,15605,5,4
288,192,15845,1,12
152,240,16085,6,0,B|104:256|96:296|96:296,1,80
24,184,16325,2,0,B|72:168|80:128|80:128,1,80,8|0
112,64,16565,5,4
112,64,16805,1,12
232,144,17045,6,0,B|256:192|312:200|312:200,1,80
368,96,17285,2,0,B|344:48|288:40|288:40,1,80,8|0
296,120,17525,5,4
296,120,17765,1,12
416,200,18005,6,0,B|440:240|424:288|424:288,1,80
392,336,18245,2,0,B|352:360|304:352|304:352,1,80,8|0
248,328,18485,2,0,B|168:272|192:184|192:184,1,160,0|8
208,48,18965,2,0,B|288:104|264:192|264:192,1,160,0|8
184,304,19445,2,0,B|40:240|96:88|96:88,2,240,0|0|8
328,312,20405,2,0,B|424:304|456:224|456:224,1,160,0|8
480,160,20765,1,0
392,48,21005,5,0
392,48,21125,1,8
328,80,21245,1,0
328,80,21365,1,0
272,216,21605,2,0,B|216:288|112:264|112:264,1,160,8|0
24,168,22085,5,8
112,56,22325,2,0,B|152:32|192:40|192:40,2,80,0|0|8
136,120,22685,2,0,B|88:136|48:96|48:96,2,80
208,104,23045,1,12
328,32,23285,6,0,B|416:56|440:152|440:152,1,160,0|8
432,288,23765,1,0
304,360,24005,1,8
168,304,24245,2,0,B|96:240|128:152|128:152,1,160,0|8
152,32,24605,6,0,B|224:96|192:184|192:184,1,160
193,177,24965,1,8
88,272,25205,6,0,B|128:360|240:344|240:344,1,160,0|8
360,304,25685,2,0,B|448:272|456:152|456:152,1,160,0|8
408,40,26165,1,0
296,128,26405,1,8
296,128,26525,1,0
184,40,26765,1,0
184,40,26885,1,8
72,136,27125,6,0,B|32:216|72:320|72:320,1,160,0|8
136,168,27605,2,0,B|192:104|280:96|280:96,1,160,0|8
192,216,28085,2,0,B|192:304|256:368|256:368,1,160,0|8
288,296,28445,2,0,B|296:200|392:160|392:160,1,160
374,168,28805,1,8
264,72,29045,6,0,B|88:96|88:96,1,160,2|0
48,48,29405,2,0,B|192:152|192:152,1,160,2|0
248,136,29765,2,0,B|72:160|72:160,1,160,2|0
32,112,30125,2,0,B|240:264|240:264,1,240,2|2
352,328,30725,5,0
424,344,30845,2,0,B|472:368|528:336|528:336,2,80,0|0|0
408,272,31205,2,0,B|456:240|456:176|456:176,1,80
464,136,31445,2,0,B|480:80|536:64|536:64,2,80
392,160,31805,1,0
320,136,31925,2,0,B|232:112|232:112,2,80
336,208,32285,1,0
264,192,32405,1,0
280,264,32525,6,0,B|200:376|56:328|56:328,1,240,0|2
16,272,33005,1,2
32,200,33125,1,2
112,80,33365,2,0,B|176:16|272:40|272:40,1,160,2|0
400,304,33845,2,0,B|336:368|240:344|240:344,1,160,2|0
184,240,34205,2,0,B|248:176|344:200|344:200,1,160,2|0
332,197,34565,5,0
408,200,34685,2,0,B|464:208|496:160|496:160,2,80
376,136,35045,2,0,B|408:88|408:32|408:32,2,80
304,136,35405,2,0,B|240:72|136:80|136:80,1,160
88,72,35765,1,0
88,72,35885,1,0
88,72,36005,1,0
88,72,36125,2,0,B|136:152|120:232|120:232,1,160
96,296,36485,1,0
192,192,36725,6,0,B|208:104|328:72|328:72,1,160,2|0
328,16,37085,2,0,B|256:96|336:184|336:184,1,160,2|0
368,216,37445,2,0,B|320:128|208:128|208:128,1,160,2|0
168,120,37805,2,0,B|72:152|80:256|80:256,1,160,2|0
96,312,38165,1,2
96,312,38405,1,2
240,336,38645,6,0,B|320:296|320:296,1,80
392,200,38885,2,0,B|296:248|296:248,1,80
192,240,39125,2,0,B|272:200|272:200,1,80
344,104,39365,2,0,B|248:152|248:152,1,80
152,176,39605,6,0,B|104:184|56:144|56:144,2,80
200,120,39965,1,0
200,120,40085,1,0
200,120,40205,2,0,B|288:24|440:88|440:88,1,240,0|2
488,120,40685,1,2
480,192,40805,1,2
424,320,41045,6,0,B|328:336|280:256|280:256,1,160,2|0
200,144,41525,2,0,B|168:48|248:-8|248:-8,1,160,2|2
272,64,41885,2,0,B|240:152|328:224|328:224,1,160,2|0
376,248,42245,1,0
240,296,42485,6,0,B|184:304|160:376|160:376,2,80
208,232,42845,2,0,B|160:224|128:264|128:264,1,80
88,312,43085,2,0,B|56:344|0:352|0:352,2,80
64,248,43445,2,0,B|16:160|80:88|80:88,1,160
104,32,43805,1,0
104,32,43925,1,0
104,32,44045,2,0,B|160:104|272:80|272:80,1,160
304,32,44405,6,0,B|432:136|432:136,1,160,2|0
304,112,44765,2,0,B|440:224|440:224,1,160,2|0
304,192,45125,2,0,B|440:304|440:304,1,160,2|0
304,320,45485,2,0,B|200:376|88:312|88:312,2,200,2|2|2
488,136,46325,1,4
384,40,46565,6,0,B|360:0|312:0|312:0,2,80
320,72,46925,1,0
248,88,47045,1,0
176,72,47165,1,0
112,40,47285,2,0,B|48:96|64:200|64:200,1,160
112,304,47645,6,0,B|176:248|160:144|160:144,1,160
152,88,48005,2,0,B|144:40|104:16|104:16,2,80
288,136,48485,5,0
344,184,48605,1,0
360,256,48725,1,0
328,320,48845,1,0
264,360,48965,1,0
192,352,49085,1,0
128,312,49205,2,0,B|48:264|72:160|72:160,1,160
69,172,49565,1,0
442,211,50165,5,4
384,80,50405,2,0,B|360:40|304:40|304:40,2,80
320,120,50765,2,0,B|344:160|400:160|400:160,2,80
256,80,51125,2,0,B|168:40|96:80|96:80,1,160
40,120,51485,2,0,B|96:184|80:272|80:272,1,160
64,344,51845,1,0
64,344,51965,1,0
64,344,52085,6,0,B|152:376|216:296|216:296,1,160
248,240,52445,1,0
288,304,52565,2,0,B|360:368|448:344|448:344,1,160
424,272,52925,1,0
496,296,53045,2,0,B|528:208|472:136|472:136,1,160
432,88,53405,1,0
408,160,53525,2,0,B|344:224|240:192|240:192,1,160
192,168,53885,1,0
144,112,54005,6,0,B|72:176|120:296|120:296,1,160
152,320,54365,1,0
224,344,54485,1,0
296,328,54605,1,0
352,280,54725,1,0
376,216,54845,1,0
376,144,54965,1,0
320,96,55085,1,0
256,64,55205,1,0
184,64,55325,1,0
120,96,55445,2,0,B|72:136|72:184|72:184,1,80
144,272,55685,6,0,B|192:232|192:184|192:184,1,80,0|0
256,96,55925,2,0,B|320:24|416:48|416:48,2,160
320,208,56525,2,0,B|368:208|368:208,2,40
256,320,56765,1,0
192,208,56885,1,4
192,208,57365,5,0
208,136,57485,2,0,B|232:56|320:24|320:24,1,160
352,88,57845,1,0
416,120,57965,1,0
416,120,58085,1,8
400,192,58205,1,0
400,192,58325,2,0,B|336:264|240:256|240:256,1,160,2|8
184,248,58685,1,0
184,248,58805,1,0
232,192,58925,1,0
232,192,59045,2,0,B|296:112|232:40|232:40,1,160,10|0
160,56,59405,6,0,B|72:88|72:88,2,80,0|8|0
232,40,59765,2,0,B|320:16|392:64|392:64,1,160,0|8
456,88,60125,1,0
400,136,60245,2,0,B|352:216|408:304|408:304,1,160,0|8
296,368,60605,6,0,B|344:288|288:200|288:200,1,160
232,104,60965,2,0,B|184:184|240:272|240:272,1,160,8|0
472,344,61445,1,12
464,88,61685,6,0,B|408:24|304:40|304:40,1,160,0|8
48,296,62165,2,0,B|104:360|208:344|208:344,1,160,0|8
440,280,62645,6,0,B|488:200|456:112|456:112,1,160,0|8
72,104,63125,2,0,B|24:184|56:272|56:272,1,160,0|8
88,320,63485,5,0
88,320,63605,1,0
120,256,63725,1,0
120,256,63845,1,8
160,312,63965,2,0,B|248:336|328:272|328:272,1,160
264,232,64325,2,0,B|208:152|264:64|264:64,1,160,8|0
312,128,64685,2,0,B|384:192|384:192,2,80,0|8|0
256,80,65045,2,0,B|184:24|80:72|80:72,1,160,0|8
32,184,65525,6,0,B|56:224|128:240|128:240,1,80
168,248,65765,1,8
168,248,65885,1,0
144,176,66005,2,0,B|216:160|272:216|232:288|232:288,1,160,2|8
192,320,66365,1,0
192,320,66485,1,0
264,328,66605,1,0
264,328,66725,2,0,B|360:344|408:256|408:256,1,160,10|0
392,192,67085,6,0,B|368:144|400:96|400:96,2,80,0|8|0
456,152,67445,2,0,B|480:96|448:16|360:48|360:48,1,160,0|8
312,32,67805,1,0
320,104,67925,2,0,B|272:192|176:184|176:184,1,160,0|8
184,312,68285,2,0,B|232:224|328:232|328:232,1,160
384,232,68645,2,0,B|432:232|464:248|464:248,2,80,8|0|0
256,168,69125,1,12
192,40,69365,6,0,B|104:64|80:168|80:168,1,160,0|8
320,344,69845,2,0,B|408:320|432:216|432:216,1,160,0|8
432,88,70325,6,0,B|384:0|280:0|280:0,1,160,0|8
80,296,70805,2,0,B|128:384|232:384|232:384,1,160,0|8
272,352,71165,1,0
216,304,71285,5,4
216,304,71525,1,12
320,208,71765,6,0,B|352:168|336:104|336:104,1,80
216,96,72005,2,0,B|184:136|200:200|200:200,1,80,8|0
264,152,72245,5,4
264,152,72485,1,12
288,296,72725,6,0,B|320:336|384:336|384:336,1,80
376,208,72965,2,0,B|416:128|416:128,1,80,8|0
448,72,73205,5,4
448,72,73445,1,12
328,160,73685,6,0,B|304:216|240:208|240:208,1,80
184,104,73925,2,0,B|208:48|272:56|272:56,1,80,8|0
264,128,74165,5,4
264,128,74405,1,12
152,216,74645,6,0,B|144:264|80:296|80:296,2,80,0|0|8
120,152,75005,1,0
120,80,75125,2,0,B|176:8|272:24|272:24,1,160,0|8
400,64,75605,1,0
336,192,75845,1,8
200,232,76085,2,0,B|120:256|104:352|104:352,1,160,0|8
64,232,76445,6,0,B|144:208|160:112|160:112,1,160
48,48,76805,2,0,B|8:72|16:136|16:136,1,80,8|0
64,232,77045,2,0,B|96:336|200:336|200:336,1,160,0|8
304,336,77405,6,0,B|352:328|384:288|384:288,2,80
248,288,77765,1,8
256,216,77885,1,0
320,184,78005,1,0
384,216,78125,1,0
368,288,78245,2,0,B|208:184|208:184,1,160,8|4
112,120,78725,5,8
16,224,78965,2,0,B|24:288|96:296|96:296,2,80,0|0|8
88,216,79325,2,0,B|80:152|8:144|8:144,2,80
128,272,79685,1,12
256,344,79925,6,0,B|352:320|384:224|384:224,1,160,0|8
440,112,80405,2,0,B|360:152|264:96|264:96,1,160,0|8
152,40,80885,2,0,B|184:120|136:200|136:200,1,160,0|8
88,248,81245,2,0,B|128:160|256:168|256:168,1,160
288,160,81605,1,8
392,264,81845,6,0,B|344:344|232:344|232:344,1,160,0|8
336,216,82325,2,0,B|408:160|408:64|408:64,1,160,0|8
288,160,82805,2,0,B|232:224|120:224|120:224,1,160,0|8
104,160,83165,2,0,B|192:168|264:104|264:104,1,160
304,56,83525,1,8
424,128,83765,6,0,B|448:176|416:232|416:232,2,80,0|0|8
384,64,84125,1,0
352,128,84245,2,0,B|336:208|240:232|240:232,1,160,0|8
168,240,84605,1,0
96,216,84725,2,0,B|48:192|48:120|48:120,2,80,0|0|8
152,168,85085,2,0,B|168:72|272:40|272:40,1,160
320,24,85445,1,8
320,24,85565,1,0
304,96,85685,6,0,B|272:176|352:272|352:272,1,160,2|0
256,352,86045,2,0,B|288:272|208:176|208:176,1,160,2|0
160,88,86405,2,0,B|88:32|0:56|0:56,1,160,2|0
88,152,86765,2,0,B|24:216|72:328|72:328,1,160,2|0
176,240,87125,2,0,B|240:176|240:176,1,80,2|0
360,192,87365,2,0,B|288:264|288:264,1,80,2|0
200,320,87605,5,2
200,320,87725,1,0
200,320,87845,1,0
272,344,87965,2,0,B|368:328|408:240|408:240,1,160,2|0
432,192,88325,1,0
360,192,88445,2,0,B|312:96|384:32|384:32,1,160,2|0
432,0,88805,1,4
