osu file format v7

[General]
AudioFilename: GO!GO!MANIAC.mp3
AudioLeadIn: 1004
PreviewTime: 6965
Countdown: 0
SampleSet: Normal
StackLeniency: 0.6
Mode: 0
LetterboxInBreaks: 0

[Editor]
DistanceSpacing: 0.899999976158142
BeatDivisor: 2
GridSize: 8

[Metadata]
Title:GO!GO!MANIAC
Artist:Toyosaki Aki
Creator:miccoliasms
Version:Hard
Source:K-ON!!
Tags:toyosaki aki hikasa yoko satou satomi kotobuki minako taketatsu ayana hirasawa yui akiyama mio tainaka ritsu kotobuki tsumugi nakano asuza k-on keion

[Difficulty]
HPDrainRate:5
CircleSize:4
OverallDifficulty:7
SliderMultiplier:1
SliderTickRate:0.5

[Events]
//Background and Video events
Video,0,"GO!GO!MANIAC.avi"
0,0,"GO!GO!MANIAC.png"
//Break Periods
//Storyboard Layer 0 (Background)
//Storyboard Layer 1 (Fail)
//Storyboard Layer 2 (Pass)
//Storyboard Layer 3 (Foreground)
//Storyboard Sound Samples
//Background Colour Transformations
3,100,163,162,255

[TimingPoints]
485,240,4,1,0,80,1,0
3005,-100,4,1,0,60,0,0
5045,-100,4,1,0,80,0,0
6245,-100,4,1,0,0,0,0
6305,-100,4,1,0,80,0,0
8885,-100,4,1,0,80,0,1
14525,-100,4,1,0,80,0,0
32885,-100,4,1,0,51,0,0
34325,-100,4,1,0,67,0,0
34445,-100,4,1,0,80,0,0
40565,-100,4,1,0,50,0,0
42125,-100,4,1,0,66,0,0
42245,-100,4,1,0,80,0,0
52085,-100,4,1,0,50,0,0
52685,-100,4,1,0,65,0,0
53165,-100,4,1,0,85,0,0
53645,-100,4,1,0,100,0,0
53945,-100,4,1,0,80,0,0
57845,-100,4,1,0,80,0,1
69365,-100,4,1,0,80,0,0

[Colours]
Combo1 : 0,255,0
Combo2 : 255,0,0
Combo3 : 0,0,255
Combo4 : 255,255,0
Combo5 : 255,0,255

[HitObjects]
184,144,605,2,0,B|144:184|144:184,2,50
248,80,1085,1,0
280,112,1205,2,2,B|328:160|328:160,1,50
296,184,1445,2,2,B|352:232|352:232,1,50
408,272,1805,2,0,B|336:328|264:272|264:272,1,150,2|2
192,232,2405,2,2,B|144:192|144:192,1,50
304,32,3125,5,0
384,192,3605,1,0
256,312,4085,1,0
168,312,4325,1,0
80,312,4565,2,0,B|8:208|88:104|88:104,1,200,0|2
96,80,5165,5,2
136,96,5285,2,2,B|192:120|192:120,1,50
264,72,5645,2,0,B|312:120|256:184|256:184,1,100,2|0
240,200,6005,2,0,B|200:240|200:240,2,50,2|2|0
240,200,6365,1,2
328,200,6605,1,0
328,200,6725,1,0
416,200,6965,5,0
256,312,7205,1,0
96,200,7445,1,0
256,72,7685,1,0
416,200,7925,1,4
240,200,8405,5,0
240,200,8525,2,0,B|168:272|88:192|88:192,1,150,0|4
64,184,9005,1,0
64,184,9125,1,8
64,184,9245,1,0
64,184,9365,2,0,B|72:112|144:72|144:72,1,100,2|8
144,72,9725,1,0
144,72,9845,1,0
144,72,9965,1,0
144,72,10085,2,0,B|184:136|240:128|240:128,1,100,10|0
272,128,10445,5,0
272,128,10565,1,8
272,128,10685,1,0
272,128,10805,2,0,B|336:144|336:216|336:216,1,100,0|8
328,288,11285,2,0,B|280:352|208:296|208:296,1,100,0|8
216,272,11645,2,0,B|168:232|112:256|112:256,1,100
80,272,12005,2,0,B|32:224|64:152|64:152,1,100,8|0
96,96,12485,1,8
160,32,12725,6,0,B|280:32|280:32,1,100,0|8
448,88,13205,2,0,B|448:208|448:208,1,100,0|8
328,352,13685,2,0,B|216:352|216:352,1,100,0|8
32,304,14165,2,0,B|32:176|32:176,1,100,0|8
32,160,14525,5,0
32,160,14645,2,0,B|64:104|136:104|136:104,1,100,0|8
200,104,15125,5,0
200,104,15245,1,0
200,104,15365,1,8
200,104,15485,1,0
200,104,15605,2,0,B|208:168|272:192|272:192,1,100,0|8
344,208,16085,5,0
344,208,16205,1,0
344,208,16325,1,8
344,208,16445,1,0
344,208,16565,2,0,B|400:232|400:304|400:304,1,100,0|8
312,288,17045,5,0
312,288,17165,1,0
312,288,17285,1,8
312,288,17405,1,0
312,288,17525,2,0,B|200:288|200:288,1,100,0|8
120,288,18005,5,0
120,288,18125,1,0
120,288,18245,1,8
120,288,18365,1,0
120,288,18485,2,0,B|80:224|136:176|136:176,1,100,0|8
200,144,18965,2,0,B|312:144|312:144,1,100,0|8
392,144,19445,2,0,B|448:64|384:-16|384:-16,2,150,0|0|8
336,216,20405,2,0,B|288:256|312:320|312:320,1,100,0|8
336,344,20765,2,0,B|216:344|216:344,1,100
192,344,21125,2,0,B|232:288|192:200|192:200,1,100,8|0
144,184,21605,1,8
144,184,21845,1,4
296,80,22325,6,0,B|296:8|296:8,2,50,0|0|8
336,104,22685,2,0,B|336:160|336:160,2,50
376,80,23045,1,8
440,144,23285,6,0,B|480:192|432:256|432:256,1,100,0|8
384,312,23765,2,0,B|344:352|280:336|280:336,1,100,0|8
200,320,24245,2,0,B|136:312|96:248|96:248,1,100,0|8
96,232,24605,2,0,B|168:208|176:128|176:128,1,100
184,120,24965,1,8
216,32,25205,6,0,B|272:32|320:96|320:96,1,100,0|8
368,144,25685,2,0,B|400:192|376:248|376:248,1,100,0|8
320,312,26165,2,0,B|280:360|208:352|208:352,1,100,0|8
184,352,26525,2,0,B|200:288|152:232|152:232,1,100
136,224,26885,1,8
56,192,27125,6,0,B|40:136|88:80|88:80,1,100,0|8
144,32,27605,2,0,B|200:8|272:32|272:32,1,100,0|8
328,56,28085,2,0,B|384:96|392:160|392:160,1,100,0|8
352,160,28445,2,0,B|328:216|376:272|376:272,1,100
400,280,28805,1,8
336,336,29045,6,0,B|288:368|216:320|216:320,1,100,2|0
216,296,29405,2,0,B|168:248|104:264|104:264,1,100,2|0
80,264,29765,2,0,B|24:224|40:160|40:160,1,100,2|0
56,136,30125,2,2,B|80:56|168:32|168:32,1,150,2|2
248,24,30725,1,2
336,56,30965,6,0,B|392:88|392:144|392:144,1,100
376,224,31445,2,0,B|344:280|288:296|288:296,1,100
216,320,31925,2,0,B|136:344|136:344,2,50
232,232,32405,1,0
232,232,32525,2,0,B|184:160|232:88|232:88,1,150,0|2
256,56,33005,5,2
288,24,33125,1,2
320,104,33365,2,0,B|328:168|408:192|408:192,1,100,2|2
456,224,33845,2,2,B|456:288|392:320|392:320,1,100
368,328,34205,2,2,B|312:360|248:320|248:320,1,100,2|0
232,312,34565,1,0
160,256,34805,6,0,B|112:208|136:144|136:144,1,100
160,80,35285,2,0,B|184:32|184:32,2,50
216,152,35765,1,0
216,152,35885,2,0,B|272:200|328:184|328:184,1,100
352,176,36245,2,0,B|408:168|408:168,2,50
304,248,36725,6,0,B|256:288|272:360|272:360,1,100,2|0
240,368,37085,2,0,B|208:312|144:304|144:304,1,100,2|0
120,288,37445,2,0,B|184:248|176:184|176:184,1,100,2|0
184,168,37805,2,2,B|176:80|96:32|96:32,1,150,2|2
24,24,38405,1,2
56,104,38645,6,0,B|88:160|64:232|64:232,1,100
64,288,39125,2,0,B|32:336|32:336,2,50
136,240,39605,1,0
136,240,39725,2,0,B|176:200|264:208|264:208|256:216,1,100
272,200,40085,1,0
312,216,40205,2,0,B|368:280|456:264|456:264,1,150,0|2
488,248,40685,5,2
504,208,40805,1,2
416,184,41045,2,0,B|376:136|392:64|392:64,1,100,2|2
360,8,41525,2,0,B|304:32|288:96|288:96,1,100,2|2
280,120,41885,2,2,B|256:224|256:224,1,100,2|0
248,264,42245,1,0
184,200,42485,6,0,B|160:144|112:128|112:128,1,100
48,72,42965,2,0,B|0:40|0:40,2,50
40,160,43445,1,0
40,160,43565,2,0,B|8:208|48:288|48:288,1,100
64,296,43925,1,0
104,320,44045,2,0,B|192:368|264:312|264:312,1,150,0|2
328,280,44645,5,0
328,280,44765,2,0,B|264:240|280:184|280:184,1,100,2|0
272,152,45125,2,0,B|240:224|168:232|168:232,1,100,2|0
160,232,45485,2,2,B|64:200|72:112|72:112,1,150,2|0
96,40,46085,1,0
176,88,46325,5,6
280,120,46565,1,0
280,120,46685,1,0
280,120,46805,1,0
280,120,46925,1,0
280,120,47045,1,0
280,120,47165,1,0
280,120,47285,2,0,B|336:104|392:152|392:152,1,100
400,160,47645,2,0,B|432:208|424:272|424:272,1,100
424,288,48005,2,0,B|392:360|392:360,2,50,0|0|2
296,256,48485,6,0,B|240:232|184:272|184:272,1,100
160,288,48845,2,0,B|104:320|104:320,2,50
160,240,49205,2,0,B|104:160|160:72|160:72,1,150
360,16,50165,6,0,B|408:48|400:120|400:120,1,100,2|0
400,152,50525,2,0,B|416:216|416:216,2,50
360,128,50885,2,0,B|320:112|280:128|280:128,1,50
264,128,51125,2,0,B|200:128|168:184|168:184,1,100
144,200,51485,2,0,B|104:248|120:320|120:320,1,100
128,336,51845,1,0
168,360,51965,1,0
208,336,52085,6,0,B|224:280|296:280|296:280,1,100,0|0
328,280,52445,1,0
368,296,52565,2,0,B|432:280|440:216|440:216,1,100,0|0
448,184,52925,1,0
432,144,53045,2,0,B|408:88|352:64|352:64,1,100
320,56,53405,1,0
272,48,53525,2,0,B|264:112|208:152|208:152,1,100
136,152,54005,6,0,B|152:208|216:224|216:224,1,100
296,232,54485,1,0
384,208,54725,2,0,B|432:168|424:104|424:104,2,100
352,296,55445,2,0,B|312:344|240:328|240:328,1,100
184,288,55925,5,0
56,192,56165,1,0
184,96,56405,1,0
312,192,56645,1,0
184,288,56885,1,4
184,288,57365,5,0
184,288,57485,2,0,B|128:272|104:208|104:208,1,100
88,168,57845,1,0
88,168,57965,1,0
88,168,58085,1,8
88,168,58205,1,0
88,168,58325,2,0,B|152:120|144:64|144:64,1,100,2|8
152,24,58685,1,0
152,24,58805,1,0
152,24,58925,1,0
152,24,59045,2,0,B|192:80|256:80|256:80,1,100,10|0
288,96,59405,6,0,B|328:144|304:200|304:200,1,100,0|0
272,240,59765,2,0,B|216:272|152:264|152:264,2,100,0|8|0
336,232,60365,1,0
336,232,60485,1,8
336,232,60605,2,0,B|392:272|400:336|400:336,1,100
416,368,60965,2,0,B|440:296|496:272|496:272,1,100,8|0
496,168,61445,1,8
440,64,61685,6,0,B|336:64|336:64,1,100,0|8
160,152,62165,2,0,B|288:152|288:152,1,100,0|8
440,240,62645,2,0,B|336:240|336:240,1,100,0|8
160,328,63125,2,0,B|288:328|288:328,1,100,0|8
320,328,63485,5,0
376,304,63605,2,0,B|432:272|432:200|432:200,1,100,0|8
424,160,63965,2,0,B|384:208|320:200|320:200,1,100
280,176,64325,2,0,B|320:128|320:64|320:64,1,100,8|0
288,32,64685,2,0,B|232:64|168:56|168:56,1,100
136,40,65045,1,0
48,120,65285,5,8
48,120,65405,1,0
48,120,65525,1,0
48,120,65645,1,0
48,120,65765,2,0,B|112:160|96:232|96:232,1,100,8|2
112,288,66245,1,8
112,288,66365,1,0
112,288,66485,2,0,B|152:240|232:232|232:232,1,100,0|10
328,200,67085,5,0
328,200,67205,1,8
328,200,67325,1,0
328,200,67445,2,0,B|272:160|280:96|280:96,1,100,0|8
272,72,67805,1,0
232,96,67925,2,0,B|192:128|120:112|120:112,1,100,0|8
96,96,68285,2,0,B|64:160|112:208|112:208,1,100
112,232,68645,2,0,B|144:296|208:280|208:280,1,100,8|0
280,264,69125,1,8
400,192,69365,6,0,B|400:80|400:80,1,100,0|8
208,32,69845,2,0,B|88:32|88:32,1,100,0|8
32,216,70325,2,0,B|32:352|32:352,1,100,0|8
232,352,70805,2,0,B|360:352|360:352,1,100,0|8
376,352,71165,5,0
376,352,71285,2,0,B|432:304|416:240|416:240,1,100,0|8
416,176,71765,5,0
416,176,71885,1,0
416,176,72005,1,8
416,176,72125,1,0
416,176,72245,2,0,B|416:112|352:80|352:80,1,100,0|8
280,80,72725,5,0
280,80,72845,1,0
280,80,72965,1,8
280,80,73085,1,0
280,80,73205,2,0,B|264:136|192:152|192:152,1,100,0|8
120,144,73685,5,0
120,144,73805,1,0
120,144,73925,1,8
120,144,74045,1,0
120,144,74165,2,0,B|160:200|136:256|136:256,1,100,0|8
104,320,74645,5,0
104,320,74765,1,0
104,320,74885,1,8
104,320,75005,1,0
104,320,75125,2,0,B|160:280|240:296|240:296,1,100,0|8
288,280,75605,6,0,B|344:264|360:184,1,100,0|8
264,200,76085,2,0,B|128:88|128:88,2,150,0|0|8
320,128,77045,2,0,B|344:72|424:56|424:56,1,100,0|8
432,88,77405,2,0,B|424:152|472:184|472:184,1,100
440,216,77765,2,0,B|368:208|336:272|336:272,1,100,8|0
272,208,78245,1,8
272,208,78485,1,4
144,80,78965,6,0,B|144:24|144:24,2,50,0|0|8
104,96,79325,2,0,B|104:176|104:176,2,50
64,80,79685,1,8
24,160,79925,5,0
64,240,80165,1,8
144,272,80405,1,0
232,256,80645,1,8
304,200,80885,2,0,B|352:144|336:64|336:64,1,100,0|8
344,64,81245,2,0,B|384:128|448:136|448:136,1,100
464,136,81605,1,8
432,224,81845,6,0,B|408:288|336:296|336:296,1,100,0|8
272,296,82325,2,0,B|200:288|184:216|184:216,1,100,0|8
160,160,82805,1,0
168,72,83045,1,8
168,72,83165,1,0
248,120,83405,1,0
248,120,83525,1,8
328,72,83765,6,0,B|392:88|408:152|408:152,1,100,0|8
408,224,84245,1,0
344,288,84485,1,8
256,304,84725,2,0,B|184:280|176:216|176:216,1,100,0|8
160,200,85085,2,0,B|104:296|104:296,1,100
80,256,85445,6,0,B|40:208|80:144|80:144,1,100,8|2
112,80,85925,1,0
152,104,86045,2,0,B|200:136|256:120|256:120,1,100,2|0
288,96,86405,2,0,B|328:136|296:224|296:224,1,100,2|0
280,232,86765,2,2,B|256:320|336:360|336:360,1,150
424,368,87365,1,2
400,280,87605,6,0,B|384:240|408:200|408:200,2,50,2|2|0
448,280,87965,1,2
480,200,88205,1,2
456,160,88325,1,0
416,144,88445,1,2
280,144,88805,1,4
