osu file format v7

[General]
AudioFilename: GO!GO!MANIAC.mp3
AudioLeadIn: 0
PreviewTime: 6965
Countdown: 0
SampleSet: Normal
StackLeniency: 0.6
Mode: 0
LetterboxInBreaks: 0

[Editor]
DistanceSpacing: 1.20000004768372
BeatDivisor: 2
GridSize: 8

[Metadata]
Title:GO!GO!MANIAC
Artist:Toyosaki Aki
Creator:miccoliasms
Version:Easy
Source:K-ON!!
Tags:toyosaki aki hikasa yoko satou satomi kotobuki minako taketatsu ayana hirasawa yui akiyama mio tainaka ritsu kotobuki tsumugi nakano asuza k-on keion

[Difficulty]
HPDrainRate:2
CircleSize:3
OverallDifficulty:3
SliderMultiplier:0.4
SliderTickRate:0.5

[Events]
//Background and Video events
Video,0,"GO!GO!MANIAC.avi"
0,0,"GO!GO!MANIAC.png"
//Break Periods
2,22045,29525
//Storyboard Layer 0 (Background)
//Storyboard Layer 1 (Fail)
//Storyboard Layer 2 (Pass)
//Storyboard Layer 3 (Foreground)
//Storyboard Sound Samples
//Background Colour Transformations
3,100,163,162,255

[TimingPoints]
485,240,4,1,0,80,1,0
8885,-100,4,1,0,80,0,1
14525,-100,4,1,0,80,0,0
32885,-100,4,1,0,51,0,0
34325,-100,4,1,0,67,0,0
34445,-100,4,1,0,80,0,0
40565,-100,4,1,0,50,0,0
42125,-100,4,1,0,66,0,0
42245,-100,4,1,0,80,0,0
52085,-100,4,1,0,50,0,0
52685,-100,4,1,0,65,0,0
53165,-100,4,1,0,85,0,0
53645,-100,4,1,0,100,0,0
53945,-100,4,1,0,80,0,0
57845,-100,4,1,0,80,0,1
69365,-100,4,1,0,80,0,0

[Colours]
Combo1 : 0,255,0
Combo2 : 255,0,0
Combo3 : 0,0,255
Combo4 : 255,255,0
Combo5 : 255,0,255

[HitObjects]
256,112,6965,2,0,B|256:64|256:64,4,40
256,208,8405,2,0,B|256:296|256:296,1,80
160,296,9365,2,0,B|112:280|112:232,1,80,10|0
104,144,10325,1,10
152,64,10805,2,0,B|248:64|248:64,1,80,0|8
328,64,11765,2,0,B|384:64|384:64,2,40,0|0|8
272,144,12725,6,0,B|256:240|256:240,1,80,0|8
160,240,13685,2,0,B|176:152|176:152,1,80,0|8
192,64,14645,5,4
192,64,14885,1,4
336,64,15605,5,4
336,64,15845,1,4
336,208,16565,5,4
336,208,16805,1,4
192,208,17525,5,4
192,208,17765,1,4
48,208,18485,5,0
120,272,18965,1,8
216,272,19445,1,0
312,272,19925,1,8
384,208,20405,2,0,B|432:136|432:136,2,80,0|8|0
288,184,21845,1,4
192,264,30965,6,0,B|104:264|104:264,1,80
48,192,31925,2,0,B|16:152|56:112|56:112,1,80
128,64,32885,2,0,B|224:64|224:64,3,80,2|0|0|0
304,64,34805,5,0
376,128,35285,1,0
376,224,35765,2,0,B|368:280|320:280|320:280,1,80
232,288,36725,2,0,B|144:288|144:288,3,80,2|0|0|0
72,232,38645,5,0
72,136,39125,2,0,B|72:80|128:80|128:80,1,80
216,80,40085,1,0
312,80,40565,2,0,B|384:128|384:128,1,80,2|0
376,224,41525,2,0,B|296:168|296:168,1,80,2|0
216,176,42485,5,0
120,176,42965,1,0
120,272,43445,1,0
216,272,43925,1,0
312,272,44405,2,0,B|400:272|400:272,3,80,2|0|0|0
392,176,46325,1,4
256,40,47285,5,0
120,176,48245,1,0
256,312,49205,2,0,B|336:312|336:312,1,60,2|0
416,240,50165,6,0,B|416:184|352:184|352:184,1,80
272,176,51125,2,0,B|272:112|328:112|328:112,1,80
408,96,52085,2,0,B|408:40|352:40|352:40,1,80
264,40,53045,2,0,B|176:40|176:40,1,80
88,48,54005,6,0,B|32:64|32:112|32:112,1,80
40,200,54965,1,0
40,296,55445,1,0
136,296,55925,2,0,B|232:296|232:296,2,80
136,296,57365,5,4
136,200,57845,2,0,B|136:152|184:136|184:136,1,80,0|10
272,104,58805,2,0,B|368:104|368:104,1,80,0|10
440,144,59765,2,0,B|480:168|480:224|480:224,1,80,0|8
480,304,60725,1,0
480,304,61205,1,8
400,248,61685,6,0,B|328:192|328:192,1,80,0|8
256,144,62645,2,0,B|184:88|184:88,1,80,0|8
112,40,63605,2,0,B|56:40|56:40,4,40,0|0|8|0|0
112,136,65045,1,8
112,232,65525,6,0,B|112:280|160:296|160:296,1,80,0|10
248,304,66485,1,0
248,304,66965,1,10
344,304,67445,2,0,B|432:304|432:304,2,80,0|8|0
296,224,68885,1,8
240,152,69365,6,0,B|200:120|216:64|216:64,1,80,0|8
136,24,70325,2,0,B|128:72|88:96|88:96,1,80,0|8
80,184,71285,5,4
80,184,71525,1,4
184,280,72245,5,4
184,280,72485,1,4
296,192,73205,5,4
296,192,73445,1,4
408,280,74165,5,4
408,280,74405,1,4
440,136,75125,5,0
376,64,75605,1,8
280,64,76085,1,0
216,136,76565,1,8
216,232,77045,2,0,B|216:288|168:296|168:296,1,80,0|8
80,296,78005,2,0,B|24:296|24:296,2,40,0|0|4
256,192,78725,12,4,79685
