osu file format v7

[General]
AudioFilename: GO! GO! MANIAC.mp3
AudioLeadIn: 0
PreviewTime: 8420
Countdown: 1
SampleSet: Normal
StackLeniency: 0.7
Mode: 0
LetterboxInBreaks: 1

[Editor]
DistanceSpacing: 0.800000011920929
BeatDivisor: 4
GridSize: 8

[Metadata]
Title:GO! GO! MANIAC (TV Size)
Artist:Toyosaki Aki
Creator:climbb65588
Version:Normal
Source:K-ON!!
Tags:aesopl19193 k-on youngdow

[Difficulty]
HPDrainRate:4
CircleSize:3
OverallDifficulty:4
SliderMultiplier:1.4
SliderTickRate:1

[Events]
//Background and Video events
0,0,"[Desktopstreet2.net]k_on_1024768_100407111609.jpg"
Video,0,"GO! GO! MANIAC_OP.flv"
//Break Periods
2,22042,29642
//Storyboard Layer 0 (Background)
//Storyboard Layer 1 (Fail)
//Storyboard Layer 2 (Pass)
//Storyboard Layer 3 (Foreground)
//Storyboard Sound Samples
//Background Colour Transformations
3,100,163,162,255

[TimingPoints]
1220,480,4,1,1,70,1,0
8900,-100,4,1,1,70,0,1
21860,-100,4,1,1,70,0,0
57860,-100,4,1,1,70,0,1
78500,-100,4,1,1,70,0,0

[Colours]
Combo1 : 255,223,157
Combo2 : 255,128,0
Combo3 : 130,65,0
Combo4 : 180,108,1

[HitObjects]
256,80,6980,1,4
256,192,7460,1,8
256,304,7940,1,0
160,248,8420,2,0,B|80:184|88:104,1,140,8|0
168,56,9380,5,8
256,120,9860,2,0,B|408:120,1,140,0|8
336,216,10820,1,0
408,304,11300,1,8
296,304,11780,2,0,B|128:280,1,140,0|8
56,256,12740,6,0,B|56:112,1,140,4|8
136,192,13700,2,0,B|136:40,2,140,0|8|8
192,192,14900,1,8
248,192,15140,1,0
296,288,15620,5,8
352,288,15860,1,8
408,288,16100,1,0
408,176,16580,6,0,B|472:104,2,70,8|8|0
320,112,17540,2,0,B|256:144|176:104,2,140,8|0|12
304,224,18980,5,0
256,312,19460,2,0,B|120:312,2,105,8|8|0
312,312,20420,2,0,B|312:224,1,70
312,184,20900,1,0
200,184,21380,5,0
200,128,21620,1,0
200,72,21860,1,12
264,104,30980,5,0
264,216,31460,1,8
168,152,31940,2,0,B|112:200|144:296,2,140,0|8|0
264,216,33380,1,8
344,280,33860,2,0,B|424:208,2,105,0|8|0
296,304,34820,5,4
208,240,35300,1,8
120,304,35780,1,0
208,240,36260,2,0,B|208:96,1,140,8|0
288,128,37100,6,0,B|400:128,3,105,8|0|8|8
408,240,38660,5,4
320,312,39140,1,8
232,240,39620,1,0
144,312,40100,1,8
72,240,40580,2,0,B|72:96,2,140,0|8|0
176,168,42020,1,8
256,192,42500,12,0,43940
256,112,44420,6,0,B|256:232,3,105,4|8|0|8
256,304,45860,1,8
256,304,46100,1,8
256,304,46340,6,0,B|432:304,1,140,4|8
336,208,47300,2,0,B|480:208,1,140,0|8
408,120,48260,5,0
328,40,48740,1,8
248,112,49220,2,0,B|152:168,2,105,0|8|0
248,112,50180,1,4
344,192,50660,5,8
280,272,51140,1,0
168,296,51620,1,8
192,184,52100,6,0,B|112:64,1,140,4|8
224,72,53060,2,0,B|304:192,1,140,0|8
416,192,54020,5,8
416,192,54260,1,0
416,192,54500,2,0,B|416:360,2,140,4|8|0
256,192,55940,12,4,57380
96,88,57860,6,0,B|96:256,1,140,0|8
184,160,58820,2,0,B|184:312,1,140,0|8
280,240,59780,1,0
392,240,60260,1,8
336,144,60740,2,0,B|403:138|429:44,2,140,0|8|4
216,112,62180,5,8
144,200,62660,1,0
216,280,63140,1,8
296,200,63620,2,0,B|408:144,4,105,12|0|8|0|8
312,88,65540,5,4
208,48,66020,1,8
104,88,66500,2,0,B|104:248,1,140,0|8
256,192,67460,12,4,68900
256,312,69380,5,4
256,200,69860,1,8
352,264,70340,1,0
352,152,70820,1,8
256,104,71300,5,8
256,104,71540,1,8
256,104,71780,1,0
176,184,72260,5,8
176,184,72500,1,8
176,184,72740,1,0
256,264,73220,6,0,B|136:360,2,140,12|0|8
344,192,74660,5,0
256,120,75140,1,8
256,192,75620,12,4,78500
256,80,79940,5,4
256,304,80900,1,8
336,224,81380,1,0
416,144,81860,1,4
192,112,82820,5,8
80,112,83300,1,0
136,208,83780,2,0,B|224:328|400:296,1,280,4|8
336,200,85220,1,0
400,112,85700,5,4
400,112,86060,2,0,B|312:40,3,105,12|0|8|8
272,80,87380,1,0
256,192,87620,12,4,88820
