osu file format v7

[General]
AudioFilename: GO! GO! MANIAC.mp3
AudioLeadIn: 0
PreviewTime: 8420
Countdown: 1
SampleSet: Normal
StackLeniency: 0.7
Mode: 0
LetterboxInBreaks: 1

[Editor]
DistanceSpacing: 1
BeatDivisor: 4
GridSize: 8

[Metadata]
Title:GO! GO! MANIAC (TV Size)
Artist:Toyosaki Aki
Creator:climbb65588
Version:Insane
Source:K-ON!!
Tags:aesopl19193 k-on youngdow

[Difficulty]
HPDrainRate:6
CircleSize:5
OverallDifficulty:8
SliderMultiplier:2
SliderTickRate:1

[Events]
//Background and Video events
0,0,"[Desktopstreet2.net]k_on_1024768_100407111609.jpg"
Video,0,"GO! GO! MANIAC_OP.flv"
//Break Periods
//Storyboard Layer 0 (Background)
//Storyboard Layer 1 (Fail)
//Storyboard Layer 2 (Pass)
//Storyboard Layer 3 (Foreground)
//Storyboard Sound Samples
//Background Colour Transformations
3,100,163,162,255

[TimingPoints]
1220,480,4,1,1,70,1,0
7940,-200,4,1,1,70,0,0
8420,-100,4,1,1,70,0,0
8900,-100,4,1,1,70,0,1
21860,-100,4,1,1,70,0,0
57860,-100,4,1,1,70,0,1
78500,-100,4,1,1,70,0,0

[Colours]
Combo1 : 255,223,157
Combo2 : 255,128,0
Combo3 : 130,65,0
Combo4 : 180,108,1

[HitObjects]
128,168,1220,2,0,B|16:240,2,100,0|8|0
176,192,1820,1,8
288,96,2180,2,0,B|288:232,1,100
336,216,2540,1,8
256,192,2900,12,0,4580
216,112,5060,5,0
224,216,5300,1,8
136,176,5540,1,0
136,176,5660,2,0,B|32:288,1,150,8|0
128,328,6260,1,0
176,344,6380,2,0,B|248:296|320:344,1,150,8|0
400,272,6980,5,8
472,192,7220,1,8
400,112,7460,1,8
328,192,7700,1,8
264,112,7940,2,0,B|208:112|176:64,1,100,4|0
128,72,8540,1,8
48,216,8900,5,8
80,256,9020,1,0
112,216,9140,2,0,B|168:208|216:248,1,100,0|8
288,192,9620,5,0
328,224,9740,1,0
288,256,9860,2,0,B|280:312|320:360,2,100,8|0|8
408,312,10580,5,0
488,248,10820,1,8
416,176,11060,1,0
480,96,11300,2,0,B|392:24,1,100,8|0
352,40,11660,2,0,B|274:103,1,100,8|0
304,144,12020,1,8
264,232,12260,2,0,B|232:280|176:280,1,100,8|4
112,216,12740,6,0,B|32:144,1,100,8|0
128,104,13220,2,0,B|48:32,1,100,8|0
128,104,13700,2,0,B|208:32,1,100,8|0
272,104,14180,1,8
320,192,14420,5,0
320,192,14540,1,0
320,192,14660,2,8,B|464:192,1,100,8|8
384,288,15140,2,0,B|448:288,2,50
304,352,15620,2,8,B|200:352,1,100,8|8
120,296,16100,5,0
120,296,16220,1,0
120,296,16340,2,0,B|200:200,2,100,0|8|8
56,224,17060,1,0
56,224,17180,1,0
56,224,17300,1,0
120,152,17540,6,8,B|200:56,1,100
256,144,18020,2,0,B|344:144,2,50
256,248,18500,2,0,B|256:368,2,100,12|0|0
344,208,19220,1,0
256,248,19460,6,0,B|184:296|104:240,2,150,8|8|0
256,192,20420,12,4,21860
80,64,23060,5,0
80,64,23300,1,0
176,64,23540,1,8
272,64,23780,1,0
224,152,24020,2,0,B|272:176|328:144,1,100,8|0
376,232,24500,1,8
376,232,24620,2,0,B|256:328,1,150,0|8
168,288,25220,6,0,B|64:288,1,100,0|8
128,208,25700,2,0,B|24:208,1,100,0|8
80,120,26180,1,0
176,120,26420,1,8
176,120,26540,2,0,B|240:72|336:112,1,150,0|8
288,200,27140,5,0
288,200,27260,1,0
288,200,27380,1,8
256,296,27620,2,0,B|352:352,2,100,0|8|0
160,264,28340,1,8
160,264,28460,2,0,B|80:248|56:160,1,150,0|8
152,128,29060,6,0,B|280:48,1,100,4|8
240,128,29420,2,0,B|352:64,1,100,0|8
344,128,29780,2,0,B|448:64,1,100,0|8
456,112,30140,1,0
400,248,30500,5,8
320,312,30740,1,0
288,280,30860,1,0
248,312,30980,2,0,B|112:312,2,100,8|0|8
200,224,31700,5,0
144,144,31940,1,8
200,64,32180,1,0
264,144,32420,1,8
264,144,32540,2,0,B|416:80,1,150,0|8
456,168,33140,5,0
416,256,33380,1,8
328,312,33620,1,0
328,216,33860,1,8
232,256,34100,1,0
232,256,34220,2,0,B|144:280|88:224,1,150,4|0
168,160,34820,5,8
256,112,35060,1,0
256,112,35180,1,0
256,112,35300,2,0,B|368:48,2,100,8|0|8
320,192,36020,5,0
384,272,36260,1,8
288,312,36500,1,0
216,240,36740,6,0,B|136:160,1,100,12|0
184,144,37100,2,0,B|104:64,1,100,8|0
160,48,37460,1,8
256,80,37700,1,0
256,80,37820,2,0,B|328:56|408:80,1,150,8|0
344,160,38420,5,4
400,248,38660,1,8
400,248,38780,2,0,B|248:312,1,150,0|8
200,224,39380,5,0
104,256,39620,1,8
128,160,39860,1,0
152,64,40100,1,8
152,64,40220,2,0,B|232:32|312:88,1,150,0|8
352,160,40820,5,0
424,232,41060,1,0
352,304,41300,1,0
280,232,41540,1,8
216,304,41780,1,0
216,304,41900,2,0,B|128:288|96:208,1,150,8|0
152,128,42500,5,8
152,128,42620,2,0,B|296:56,1,150,0|8
288,112,43100,2,0,B|432:40,1,150,0|8
472,136,43700,1,0
432,232,43940,1,8
432,232,44060,2,0,B|338:227|269:300,1,150,0|12
152,192,44780,5,4
248,56,45140,2,0,B|160:16|72:64,2,150,12|0|8
320,120,46100,1,8
256,208,46340,5,4
256,312,46580,1,8
256,312,46700,1,0
256,312,46820,2,0,B|368:312,1,100,8|0
456,312,47300,2,0,B|439:249|368:224,1,100,8|0
416,192,47660,1,8
328,72,48020,5,0
256,160,48260,2,0,B|160:80,1,100,8|0
144,192,48740,1,8
144,192,48860,1,0
144,192,48980,2,0,B|72:272,1,100,0|8
176,280,49460,1,0
176,280,49580,2,0,B|248:328|320:312,1,150,8|0
400,272,50180,5,4
376,176,50420,1,0
376,176,50540,1,0
376,176,50660,2,0,B|368:128|312:88,1,100,8|0
280,184,51140,2,0,B|224:160|176:192,1,100,8|0
208,232,51500,2,0,B|128:272|48:208,1,150,8|0
128,144,52100,5,8
200,64,52340,1,0
200,64,52460,1,0
200,64,52580,2,0,B|304:64,1,100,8|0
336,64,52940,1,0
336,64,53060,2,0,B|336:176,1,100,8|0
336,200,53420,1,0
336,232,53540,1,8
256,288,53780,5,0
192,208,54020,2,0,B|88:280,2,100,12|0|0
192,208,54740,6,0,B|192:104|308:60,1,200,0|0
392,96,55460,1,8
312,152,55700,1,0
392,256,55940,5,8
312,352,56180,1,0
240,256,56420,1,8
240,256,56540,1,0
240,256,56660,1,0
240,256,56780,1,0
240,256,56900,2,0,B|32:256,1,200,8|4
240,120,57860,5,8
240,120,57980,1,0
240,120,58100,2,0,B|360:64,1,100,0|8
344,176,58580,1,0
344,176,58700,1,0
344,176,58820,2,0,B|400:280,1,100,8|0
312,320,59300,5,8
216,280,59540,1,0
216,280,59660,1,0
216,280,59780,2,0,B|112:304,1,100,8|0
168,216,60260,2,0,B|64:240,1,100,8|0
40,200,60620,1,8
120,128,60860,5,0
120,128,60980,2,0,B|88:16,2,100,8|8|0
216,88,61700,2,0,B|312:56|416:88,2,200,12|0|8
280,168,62900,1,0
240,256,63140,1,8
336,256,63380,5,0
336,256,63500,1,0
336,256,63620,2,0,B|400:145,1,100,8|0
408,216,63980,2,0,B|460:125,1,100,8|0
424,88,64340,1,8
336,40,64580,5,0
336,40,64700,2,0,B|224:80,1,100,8|0
264,120,65060,1,8
208,200,65300,1,0
144,120,65540,5,12
144,120,65660,1,0
144,120,65780,2,0,B|96:160|112:216,1,100,0|8
208,200,66260,1,0
208,200,66380,1,0
208,200,66500,2,0,B|248:240|232:296,2,100,8|0|8
272,120,67220,6,0,B|320:96|376:120,1,100,0|8
336,208,67700,1,0
392,296,67940,2,0,B|440:317|488:293,1,100,8|0
472,248,68300,1,8
480,152,68540,5,0
480,152,68660,2,0,B|416:64,2,100,0|8|0
368,192,69380,6,0,B|272:144|168:192,3,200,12|0|8|0
272,264,71060,1,0
272,264,71180,1,0
272,264,71300,1,8
176,344,71540,1,8
80,272,71780,5,0
184,208,72020,1,0
200,176,72140,1,0
232,144,72260,2,8,B|336:176,1,100
400,80,72740,5,0
400,80,72860,1,0
400,80,72980,2,0,B|464:184,2,100,0|8|8
304,40,73700,1,0
208,80,73940,1,0
208,80,74060,1,0
208,80,74180,2,8,B|144:184,1,100
256,192,74660,5,0
272,240,74780,1,0
312,264,74900,1,0
384,192,75140,2,0,B|448:216|456:272,1,100,12|0
384,336,75620,5,8
312,264,75860,1,0
240,336,76100,2,0,B|88:336,2,150,12|8|0
256,192,77060,12,0,78500
104,192,79700,5,0
136,104,79940,1,0
232,72,80180,1,8
232,176,80420,2,0,B|280:224,2,50,0|0|8
128,216,80900,2,0,B|80:240|64:304,1,100,0|8
96,320,81260,1,0
240,352,81620,5,8
336,320,81860,1,0
336,320,81980,1,0
336,320,82100,2,0,B|408:224,2,100,8|0|8
272,240,82820,1,0
200,168,83060,1,8
200,168,83180,2,0,B|136:216|144:304,1,150,0|8
256,192,83780,12,4,85220
256,120,85700,5,12
256,248,85940,1,0
256,248,86060,1,8
144,184,86300,1,0
144,184,86420,1,8
144,312,86660,1,0
144,312,86780,2,0,B|56:296|32:200,1,150,8|8
72,88,87380,5,8
200,72,87620,1,8
200,72,87740,2,0,B|304:64,2,100,8|0|0
256,192,88460,2,0,B|256:352,1,150,4|12
