osu file format v12

[General]
AudioFilename: Cagayake! GIRLS (TV Size).mp3
AudioLeadIn: 0
PreviewTime: 7344
Countdown: 0
SampleSet: Soft
StackLeniency: 0.7
Mode: 0
LetterboxInBreaks: 1

[Editor]
Bookmarks: 18840,20428,24840,25899,36399,41958,47340,56252,58634,59516,60134,61458,77075,81222,82722,89869
DistanceSpacing: 0.4
BeatDivisor: 4
GridSize: 8

[Metadata]
Title:Cagayake! GIRLS (TV Size)
TitleUnicode:Cagayake! GIRLS (TV Size)
Artist:Toyosaki Aki
ArtistUnicode:Toyosaki Aki
Creator:Papysh
Version:Insane
Source:K-ON!!
Tags:HTT Harez Houkago Tea Time
BeatmapID:254751
BeatmapSetID:94714

[Difficulty]
HPDrainRate:7
CircleSize:4
OverallDifficulty:7
ApproachRate:8
SliderMultiplier:2
SliderTickRate:2

[Events]
//Background and Video events
0,0,"BG.jpg",0,0
Video,0,"Cagayake! GIRLS (TV Size).avi"
//Break Periods
2,20603,24065
//Storyboard Layer 0 (Background)
//Storyboard Layer 1 (Fail)
//Storyboard Layer 2 (Pass)
//Storyboard Layer 3 (Foreground)
//Storyboard Sound Samples
//Background Colour Transformations
3,100,163,162,255

[TimingPoints]
7874.29865016665,352.941176470588,4,2,0,70,1,0
7875,-100,4,2,0,70,0,1
10344,-100,4,2,0,70,0,0
13521,-100,4,2,0,70,0,1
15991,-100,4,2,0,70,0,0
42021,-100,4,2,2,70,0,0
42197,-100,4,2,0,70,0,0
44139,-100,4,2,2,70,0,0
44315,-100,4,2,0,70,0,0
60109,-100,4,2,0,70,0,1
62580,-100,4,2,0,70,0,0
65756,-100,4,2,0,70,0,1
68227,-100,4,2,0,70,0,0
71403,-100,4,2,0,70,0,1
73874,-100,4,2,0,70,0,0
77050,-100,4,2,0,70,0,1
79521,-100,4,2,0,70,0,0

[HitObjects]
40,192,7874,6,0,P|136:176|176:200,1,100,4|0,0:0|0:0,0:0:0:0:
200,256,8227,2,0,P|104:272|64:248,1,100,8|0,0:0|0:0,0:0:0:0:
136,176,8580,2,0,L|248:104,2,100,0|0|8,0:0|0:0|0:0,0:0:0:0:
160,48,9109,2,0,P|256:16|368:64,1,200,2|0,0:1|0:0,0:0:0:0:
291,121,9639,2,0,L|376:176,1,100
256,208,9991,6,0,P|176:256|80:192,1,200,2|8,0:1|0:0,0:0:0:0:
176,160,10521,1,0,0:0:0:0:
176,160,10697,2,0,L|176:48,1,100,2|2,0:0|0:0,0:0:0:0:
256,112,11050,1,8,0:0:0:0:
336,60,11227,2,0,L|336:160,1,100,2|0,0:0|0:0,0:0:0:0:
256,224,11580,1,2,0:0:0:0:
168,280,11756,1,8,0:0:0:0:
168,280,11933,6,0,P|272:320|344:272,1,200,0|2,0:0|0:0,0:0:0:0:
168,184,12462,2,0,P|109:206|86:235,2,100
340,278,12991,2,0,P|400:304|440:296,1,100,2|2,0:0|0:0,0:0:0:0:
256,16,13521,5,4,0:0:0:0:
320,80,13697,1,2,0:0:0:0:
192,80,13874,2,0,P|128:112|64:96,1,100,8|2,0:0|0:0,0:0:0:0:
112,208,14227,2,0,L|32:144,2,100,2|0|8,0:1|0:0|0:0,0:0:0:0:
160,288,14756,6,0,P|256:320|352:288,1,200
384,192,15286,1,8,0:0:0:0:
352,96,15462,1,0,0:0:0:0:
256,128,15639,2,0,L|256:256,2,100,2|2|8,0:1|0:1|0:0,0:0:0:0:
160,96,16168,5,0,0:0:0:0:
128,192,16344,1,2,0:0:0:0:
256,228,16521,1,2,0:0:0:0:
416,272,16697,2,0,P|368:336|336:352,1,100,8|0,0:0|0:0,0:0:0:0:
96,272,17050,2,0,P|144:336|176:352,1,100,0|0,0:0|0:0,0:0:0:0:
256,192,17403,1,8,0:0:0:0:
167,193,17580,6,0,P|342:193|230:106,2,400
256,192,19168,12,2,20403,0:0:0:0:
80,192,24815,5,4,0:0:0:0:
80,192,24991,2,0,P|160:192|160:144,1,100,2|8,0:0|0:0,0:0:0:0:
208,96,25344,1,2,0:0:0:0:
288,32,25521,2,0,P|288:160|224:192,1,200,2|8,0:1|0:0,0:0:0:0:
160,256,26050,1,2,0:0:0:0:
80,320,26227,1,0,0:0:0:0:
176,352,26403,1,2,0:0:0:0:
176,352,26580,2,0,P|280:320|248:272,1,200,8|2,0:0|0:1,0:0:0:0:
352,240,27109,2,0,L|232:192,2,100,0|8|0,0:0|0:0|0:0,0:0:0:0:
448,192,27639,5,0,0:0:0:0:
448,192,27815,2,0,L|368:96,1,100,2|8,0:1|0:0,0:0:0:0:
304,64,28168,1,0,0:0:0:0:
208,80,28344,2,0,P|128:144|64:64,1,200,2|8,0:1|0:0,0:0:0:0:
8,176,28874,1,0,0:0:0:0:
8,176,29050,2,0,L|96:288,1,100,2|0,0:0|0:0,0:0:0:0:
160,288,29403,1,8,0:0:0:0:
160,288,29580,2,0,P|232:256|360:304,1,200,2|0,0:0|0:0,0:0:0:0:
458,225,30109,5,8,0:0:0:0:
475,189,30197,1,0,0:0:0:0:
476,148,30286,1,0,0:0:0:0:
458,112,30374,1,0,0:0:0:0:
432,95,30462,1,0,0:0:0:0:
432,96,30639,6,0,P|360:128|343:124,1,100,2|8,0:1|0:1,0:0:0:0:
272,56,30991,2,0,P|344:24|360:27,1,100,0|2,0:0|0:1,0:0:0:0:
343,125,31344,1,0,0:0:0:0:
343,125,31521,2,0,L|279:229,1,100,8|0,0:0|0:0,0:0:0:0:
256,312,31874,1,2,0:0:0:0:
344,248,32050,2,0,P|272:208|160:256,1,200,2|0,0:1|0:0,0:0:0:0:
120,160,32580,2,0,L|80:280,2,100,2|0|10,0:0|0:0|0:0,0:0:0:0:
200,96,33109,1,2,0:0:0:0:
312,96,33286,5,0,0:0:0:0:
392,160,33462,2,0,L|417:256,1,100,2|8,0:1|0:0,0:0:0:0:
512,216,33815,1,0,0:0:0:0:
512,216,33991,2,0,P|504:312|392:360,1,200,2|8,0:1|0:0,0:0:0:0:
418,257,34521,2,0,P|352:240|320:248,1,100,2|0,0:1|0:0,0:0:0:0:
360,336,34874,1,2,0:1:0:0:
264,320,35050,2,0,P|232:240|312:152,1,200,8|0,0:0|0:0,0:0:0:0:
368,88,35580,2,0,L|248:72,1,100,0|8,0:0|0:0,0:0:0:0:
248,80,35844,1,2,0:0:0:0:
224,96,35933,1,0,0:0:0:0:
208,112,36021,1,2,0:0:0:0:
192,128,36109,6,0,P|144:104|72:120,1,100,4|2,0:0|0:0,0:0:0:0:
128,200,36462,2,0,P|176:224|248:208,1,100,8|0,0:0|0:0,0:0:0:0:
288,152,36815,2,0,P|312:248|224:320,1,200,2|8,0:1|0:0,0:0:0:0:
144,312,37344,2,0,P|64:304|32:288,2,100,2|0|2,0:0|0:0|0:0,0:0:0:0:
248,315,37874,2,0,L|376:344,1,100,8|2,0:0|0:1,0:0:0:0:
424,280,38227,1,0,0:0:0:0:
472,192,38403,1,0,0:0:0:0:
424,104,38580,1,8,0:0:0:0:
395,4,38756,2,0,P|336:50|323:111,1,100
304,168,39109,6,0,P|256:160|184:176,1,100,2|8,0:1|0:0,0:0:0:0:
112,208,39462,1,0,0:0:0:0:
72,120,39639,2,0,P|24:224|104:304,1,200,2|8,0:1|0:0,0:0:0:0:
112,208,40168,1,0,0:0:0:0:
160,296,40344,1,2,0:0:0:0:
216,216,40521,1,2,0:0:0:0:
256,304,40697,2,0,P|320:296|352:256,1,100,8|0,0:0|0:0,0:0:0:0:
432,304,41050,2,0,P|368:296|336:256,1,100,2|0,0:0|0:0,0:0:0:0:
264,208,41403,2,0,P|336:168|440:232,1,200,8|0,0:0|0:0,0:0:0:0:
344,272,41933,6,0,L|360:48,1,200,2|2,0:1|0:0,0:0:0:0:
264,96,42462,2,0,P|216:128|152:120,1,100,2|0,0:1|0:0,0:0:0:0:
104,64,42815,2,0,P|152:32|216:40,1,100,8|2,0:0|0:1,0:0:0:0:
176,128,43168,2,0,L|144:272,1,100,2|0,0:0|0:0,0:0:0:0:
256,272,43521,1,10,0:0:0:0:
357,225,43697,2,0,L|336:128,1,100,0|2,0:0|0:0,0:0:0:0:
304,32,44050,2,0,P|368:32|440:136,1,200
448,232,44580,6,0,P|416:296|360:312,1,100,0|2,0:0|0:0,0:0:0:0:
304,344,44933,2,0,P|256:328|200:344,1,100,8|0,0:0|0:0,0:0:0:0:
160,224,45286,2,0,P|256:200|360:232,1,200,0|8,0:0|0:0,0:0:0:0:
448,192,45815,1,0,0:0:0:0:
392,112,45991,2,0,L|280:16,1,100
256,128,46344,1,8,0:0:0:0:
195,46,46521,2,0,L|120:112,1,100
64,224,46874,1,0,0:0:0:0:
56,232,46962,1,0,0:0:0:0:
48,240,47050,2,0,P|88:328|144:264,1,200,8|4,0:0|0:0,0:0:0:0:
256,224,47756,5,2,0:0:0:0:
256,128,47933,1,0,0:0:0:0:
168,72,48109,2,0,P|240:32|368:112,1,200,0|2,0:0|0:0,0:0:0:0:
256,128,48639,2,0,L|88:272,1,200
90,156,49168,6,0,P|146:172|179:216,1,100
224,296,49521,2,0,P|252:325|308:341,2,100
304,248,50050,1,0,0:0:0:0:
304,248,50227,6,0,P|328:184|216:144,1,200,0|2,0:0|0:0,0:0:0:0:
248,40,50756,1,0,0:0:0:0:
248,40,50933,2,0,L|48:152,1,200,0|2,0:0|0:0,0:0:0:0:
88,32,51462,2,0,P|168:96|136:208,2,200,0|2|0,0:0|0:0|0:0,0:0:0:0:
74,136,52344,5,0,0:0:0:0:
32,232,52521,1,2,0:0:0:0:
72,320,52697,2,0,P|168:256|224:336,1,200
256,208,53227,2,0,L|312:344,2,100,2|0|0,0:0|0:0|0:0,0:0:0:0:
352,248,53756,2,0,P|402:292|498:228,1,200
422,215,54286,2,0,L|318:15,1,200,2|2,0:0|0:0,0:0:0:0:
256,104,54815,1,2,0:0:0:0:
208,16,54991,6,0,P|168:136|320:184,1,300,0|2,0:0|0:0,0:0:0:0:
248,280,55697,2,0,L|376:248,2,100,2|0|2,0:0|0:0|0:0,0:0:0:0:
144,272,56227,1,0,0:0:0:0:
72,208,56403,1,2,0:0:0:0:
80,112,56580,1,0,0:0:0:0:
152,48,56756,1,2,0:0:0:0:
256,48,56933,1,0,0:0:0:0:
256,48,57109,6,0,P|312:24|320:128,1,200,2|2,0:1|0:1,0:0:0:0:
424,144,57639,1,2,0:0:0:0:
424,144,57815,2,0,L|240:264,1,200,2|2,0:1|0:0,0:0:0:0:
352,280,58344,2,0,P|360:200|352:192,1,100,2|2,0:0|0:0,0:0:0:0:
280,120,58697,6,0,P|202:99|193:106,1,100,0|0,0:0|0:0,0:0:0:0:
176,120,58962,1,0,0:0:0:0:
160,136,59050,1,0,0:0:0:0:
152,160,59139,1,0,0:0:0:0:
152,184,59227,1,0,0:0:0:0:
64,136,59403,2,0,P|72:240|112:296,1,150,0|0,0:0|0:0,0:0:0:0:
114,286,59756,1,0,0:0:0:0:
133,288,59844,1,0,0:0:0:0:
152,284,59933,1,0,0:0:0:0:
240,328,60109,6,0,P|296:352|352:320,1,100,4|0,0:0|0:0,0:0:0:0:
386,260,60462,2,0,P|330:236|296:248,1,100,8|0,0:0|0:0,0:0:0:0:
331,341,60815,2,0,P|387:365|443:333,1,100
388,261,61168,2,0,L|412:133,1,100,8|0,0:0|0:0,0:0:0:0:
328,96,61521,5,0,0:0:0:0:
248,160,61697,2,0,L|266:258,2,100,0|8|0,0:0|0:0|0:0,0:0:0:0:
192,80,62227,2,0,P|144:136|56:64,1,200,2|8,0:1|0:0,0:0:0:0:
16,168,62756,2,0,L|80:280,1,100
160,288,63109,5,2,0:0:0:0:
256,328,63286,1,8,0:0:0:0:
352,288,63462,1,2,0:0:0:0:
392,192,63639,1,0,0:0:0:0:
352,96,63815,1,2,0:0:0:0:
256,56,63991,1,8,0:0:0:0:
160,96,64168,6,0,P|128:56|112:152,1,200,2|2,0:1|0:1,0:0:0:0:
176,184,64697,2,0,L|248:256,1,100,8|2,0:0|0:0,0:0:0:0:
328,312,65050,1,0,0:0:0:0:
328,312,65227,2,0,P|320:232|328:216,1,100,2|8,0:1|0:1,0:0:0:0:
416,168,65580,5,0,0:0:0:0:
416,168,65756,2,0,P|424:248|416:264,1,100,4|0,0:1|0:1,0:0:0:0:
327,217,66109,2,0,L|288:112,1,100,8|0,0:0|0:0,0:0:0:0:
192,120,66462,2,0,L|157:213,1,100
248,264,66815,1,8,0:0:0:0:
336,320,66991,6,0,P|248:360|152:312,1,200,2|2,0:1|0:1,0:1:0:0:
96,240,67521,1,8,0:0:0:0:
64,144,67697,1,0,0:0:0:0:
160,104,67874,2,0,P|104:48|56:40,2,100,2|2|10,0:1|0:1|0:1,0:0:0:0:
212,192,68403,2,0,P|256:216|300:192,1,100
352,104,68756,6,0,P|408:48|456:40,2,100,0|8|0,0:0|0:0|0:0,0:0:0:0:
448,144,69286,1,0,0:0:0:0:
448,144,69462,2,0,L|368:264,1,100,0|8,0:0|0:0,0:0:0:0:
256,192,69815,12,0,71050,0:0:0:0:
256,272,71403,6,0,L|256:136,1,100,4|0,0:0|0:0,0:0:0:0:
160,200,71756,2,0,P|170:114|208:80,1,100,8|0,0:0|0:0,0:0:0:0:
320,104,72109,2,0,P|326:112|337:198,1,100
328,293,72462,2,0,P|256:349|181:266,1,200,8|0,0:0|0:0,0:0:0:0:
160,200,72991,1,0,0:0:0:0:
256,168,73168,1,8,0:0:0:0:
352,200,73344,1,0,0:0:0:0:
456,192,73521,6,0,P|424:112|320:104,1,200,2|8,0:1|0:1,0:0:0:0:
256,24,74050,1,0,0:0:0:0:
160,56,74227,1,0,0:0:0:0:
96,136,74403,6,0,P|120:216|104:248,1,100,2|8,0:0|0:0,0:0:0:0:
38,290,74756,2,0,P|14:210|17:198,1,100,2|0,0:0|0:0,0:0:0:0:
117,228,75109,2,0,L|253:252,1,100,0|8,0:0|0:0,0:0:0:0:
208,344,75462,6,0,P|304:288|304:208,1,200
256,128,75991,2,0,L|368:152,1,100,8|0,0:0|0:0,0:0:0:0:
424,72,76344,1,0,0:0:0:0:
424,72,76521,2,0,L|312:48,1,100,2|10,0:1|0:1,0:0:0:0:
232,32,76874,1,0,0:0:0:0:
232,32,77050,6,0,P|168:72|152:128,1,100,2|0,0:0|0:0,0:0:0:0:
64,128,77403,2,0,L|136:256,1,100,8|0,0:0|0:0,0:0:0:0:
200,264,77756,1,0,0:0:0:0:
256,184,77933,1,0,0:0:0:0:
312,264,78109,1,8,0:0:0:0:
336,156,78286,6,0,P|256:100|176:172,1,200
256,184,78815,2,0,L|256:320,1,100,8|0,0:0|0:0,0:0:0:0:
344,336,79168,1,2,0:1:0:0:
432,288,79344,1,2,0:0:0:0:
464,192,79521,1,10,0:1:0:0:
432,96,79697,1,0,0:0:0:0:
432,96,79874,6,0,P|384:64|328:80,1,100
272,141,80227,2,0,P|320:173|360:168,1,100,8|0,0:0|0:0,0:0:0:0:
345,69,80580,2,0,P|297:37|241:53,1,100
168,96,80933,1,8,0:0:0:0:
128,192,81109,6,0,P|256:320|384:192,2,400,0|0|4,0:0|0:0|0:0,0:0:0:0:
256,192,82697,12,0,83933,0:0:0:0:
