osu file format v5

[General]
AudioFilename: Cagayake! GIRLS (TV Size).mp3
AudioLeadIn: 0
PreviewTime: 7382
Countdown: 0
SampleSet: Normal
StackLeniency: 0.2
Mode: 0
LetterboxInBreaks: 1
EditorBookmarks: 7884,13531,19178,24825,30472,36119,41767,47414,53061,60119,65767,71414,77061,82708

[Metadata]
Title:Cagayake! GIRLS (TV Size)
Artist:Toyosaki Aki
Creator:DJPop
Version:Normal
Source:K-ON!
Tags:anime cagayake girls toyosaki aki hikasa youko satou satomi kotobuki minako hirasawa yui akiyama mio tainaka ritsu kotobuki tsumugi k-on keion

[Difficulty]
HPDrainRate:3
CircleSize:4
OverallDifficulty:3
SliderMultiplier:1.28
SliderTickRate:2

[Events]
//Background and Video events
0,0,"playfield.png"
1,-40,"Cagayake! GIRLS (TV Size).avi"
//Break Periods
2,19404,23411
//Storyboard Layer 0 (Background)
//Storyboard Layer 1 (Failing)
//Storyboard Layer 2 (Passing)
//Storyboard Layer 3 (Foreground)
//Storyboard Sound Samples
//Background Colour Transformations
3,100,255,0,0

[TimingPoints]
120,352.941176470588,4,1,0,90,1,0
19178,-100,4,1,0,90,0,1
23414,-100,4,1,0,90,0,0
58531,-100,4,1,0,90,0,1
59943,-100,4,1,0,100,0,0
82531,-100,4,1,0,90,0,1
88002,-100,4,1,0,0,0,0

[Colours]
Combo1 : 230,210,170
Combo2 : 70,80,80
Combo3 : 145,110,75
Combo4 : 160,130,80

[HitObjects]
256,64,7884,1,4
160,64,8237,1,8
160,160,8590,1,0
64,160,8943,1,8
64,256,9296,5,0
160,256,9649,1,8
160,352,10002,1,0
256,352,10355,1,8
352,352,10708,5,0
352,256,11061,1,8
448,256,11414,1,0
448,160,11767,1,8
448,64,12119,6,0,C|320:64,3,128,0|8|0|8
320,160,13531,5,4
224,160,13884,1,8
224,256,14237,1,0
224,352,14590,1,8
128,352,14943,5,0
32,352,15296,1,8
32,256,15649,1,0
32,160,16002,1,8
32,64,16355,5,0
128,64,16708,1,8
224,64,17061,1,0
224,160,17414,6,0,C|224:224,1,64,8|4
416,224,18296,1,4
416,32,19002,2,0,C|480:32,1,64,0|4
32,352,24825,5,4
128,352,25178,1,8
128,256,25531,1,0
224,256,25884,1,8
320,256,26237,5,0
320,352,26590,2,0,C|384:352,1,64,8|0
480,224,27296,1,8
480,128,27649,5,0
480,32,28002,1,8
384,32,28355,1,0
384,128,28708,1,8
288,128,29061,5,0
192,128,29414,2,0,C|192:64,1,64,8|0
64,160,30119,1,2
256,352,30825,5,10
416,192,31531,1,10
256,32,32237,5,10
96,192,32943,1,10
256,352,33649,5,10
416,192,34355,1,10
256,32,35061,5,10
96,192,35767,1,10
96,288,36119,5,4
192,288,36472,1,8
288,288,36825,1,0
384,288,37178,1,8
480,288,37531,5,0
480,192,37884,2,0,C|480:128,1,64,8|0
352,32,38590,1,8
352,128,38943,5,0
256,128,39296,1,8
160,128,39649,1,0
160,32,40002,6,0,C|32:32,1,128,8|0
32,128,40708,2,0,C|32:192,1,64,8|0
160,288,41414,1,8
256,32,42119,5,10
416,192,42825,1,10
256,352,43531,5,10
96,192,44237,1,10
256,32,44943,5,10
416,192,45649,1,10
256,352,46355,5,10
96,192,47061,1,10
96,96,47414,5,4
192,96,47767,1,8
288,96,48119,1,0
384,96,48472,2,0,C|448:96,1,64,8|0
448,192,49002,5,8
448,288,49355,2,0,C|256:288,1,192,0|8
256,192,50237,5,0
160,192,50590,1,8
64,192,50943,1,0
64,96,51296,2,0,C|64:32,1,64,8|0
160,32,51825,5,8
256,32,52178,2,0,C|448:32,1,192,8|8
448,128,53061,5,0
448,224,53414,1,8
352,224,53767,1,0
352,320,54119,6,0,C|288:320,1,64,8|0
192,320,54649,1,8
192,224,55002,2,0,C|192:32,1,192,0|8
96,32,55884,5,0
96,128,56237,1,8
96,224,56590,1,0
192,352,57119,5,10
288,352,57472,1,10
384,352,57825,1,10
480,352,58178,1,10
480,256,58531,2,0,C|32:256,1,448,10|10
32,160,60119,5,4
32,64,60472,1,8
128,64,60825,1,0
224,64,61178,1,8
224,160,61531,5,0
320,160,61884,1,8
416,160,62237,1,0
416,256,62590,1,8
320,256,62943,5,0
320,352,63296,1,8
224,352,63649,1,0
128,352,64002,1,8
32,352,64355,6,0,C|32:224,3,128,0|8|0|8
32,128,65767,5,4
128,128,66119,1,8
128,32,66472,1,0
224,32,66825,1,8
320,32,67178,5,0
320,128,67531,1,8
320,224,67884,1,0
224,224,68237,1,8
128,224,68590,5,0
128,320,68943,1,8
224,320,69296,1,0
320,320,69649,6,0,C|384:320,1,64,8|0
480,192,70531,1,0
480,96,70884,2,0,C|480:32,1,64,10|10
384,32,71414,5,4
384,128,71767,1,8
384,224,72119,1,0
288,224,72472,1,8
288,320,72825,5,0
192,320,73178,1,8
96,320,73531,1,0
96,224,73884,2,0,C|96:96,1,128,8|0
192,96,74590,5,8
288,96,74943,1,0
384,96,75296,1,8
480,96,75649,6,0,C|480:224,1,128,0|8
384,224,76355,2,0,C|256:224,1,128,0|8
160,224,77061,5,4
160,320,77414,1,8
256,320,77767,1,0
352,320,78119,1,8
448,320,78472,5,0
448,224,78825,1,8
448,128,79178,1,2
352,128,79531,2,2,C|224:128,1,128,10|0
224,32,80237,5,8
128,32,80590,1,0
32,32,80943,6,0,C|32:96,1,64,8|0
32,288,81649,2,0,C|32:352,1,64,8|0
192,192,82355,2,0,C|256:192,1,64,8|6
