osu file format v5

[General]
AudioFilename: Cagayake! GIRLS (TV Size).mp3
AudioLeadIn: 0
PreviewTime: 7382
Countdown: 0
SampleSet: Normal
StackLeniency: 0.2
Mode: 0
LetterboxInBreaks: 1
EditorBookmarks: 7884,13531,19178,24825,30472,36119,41767,47414,53061,60119,65767,71414,77061,82708

[Metadata]
Title:Cagayake! GIRLS (TV Size)
Artist:Toyosaki Aki
Creator:DJPop
Version:Insane
Source:K-ON!
Tags:anime cagayake girls toyosaki aki hikasa youko satou satomi kotobuki minako hirasawa yui akiyama mio tainaka ritsu kotobuki tsumugi k-on keion

[Difficulty]
HPDrainRate:5
CircleSize:5
OverallDifficulty:8
SliderMultiplier:1.9
SliderTickRate:2

[Events]
//Background and Video events
0,0,"playfield.png"
1,-40,"Cagayake! GIRLS (TV Size).avi"
//Break Periods
//Storyboard Layer 0 (Background)
//Storyboard Layer 1 (Failing)
//Storyboard Layer 2 (Passing)
//Storyboard Layer 3 (Foreground)
//Storyboard Sound Samples
5,42145,0,"normal-hitclap.wav"
5,46381,0,"normal-hitclap.wav"
//Background Colour Transformations
3,100,255,0,0

[TimingPoints]
120,352.941176470588,4,1,0,90,1,0
19178,-100,4,1,0,90,0,1
24649,-100,4,1,0,90,0,0
30119,-50,4,1,0,90,0,0
30472,-100,4,1,0,90,0,0
41414,-50,4,1,0,90,0,0
41767,-100,4,1,0,90,0,0
47061,-50,4,1,0,90,0,0
47414,-100,4,1,0,90,0,0
58531,-100,4,1,0,90,0,1
60031,-100,4,1,0,90,0,0
82531,-100,4,1,0,90,0,1
87914,2117.64708373702,4,1,1,90,1,1
88972,-100,4,1,0,0,0,0

[Colours]
Combo1 : 230,210,170
Combo2 : 70,80,80
Combo3 : 145,110,75
Combo4 : 160,130,80

[HitObjects]
480,352,7355,5,2
416,320,7531,1,2
352,288,7708,1,2
288,320,7884,1,4
224,352,8061,1,0
160,320,8237,1,8
96,288,8414,1,0
32,256,8590,1,0
64,192,8767,1,0
32,128,8943,1,8
0,64,9120,1,0
128,128,9472,5,0
160,192,9649,1,8
192,256,9825,1,0
256,288,10002,1,0
320,256,10178,1,0
384,224,10355,2,0,C|384:32,1,190,8|0
448,64,10884,5,0
480,128,11061,1,8
512,192,11237,1,0
480,256,11414,1,0
448,320,11590,1,0
384,352,11767,1,8
320,320,11943,1,0
256,192,12296,5,0
320,160,12472,1,8
352,96,12649,2,0,C|160:96,1,190,0|2
192,160,13178,1,10
128,32,13531,5,4
64,64,13708,1,0
32,128,13884,1,8
0,192,14061,1,0
32,256,14237,1,0
64,320,14414,1,0
128,352,14590,1,8
192,320,14767,1,0
128,192,15120,5,0
160,128,15296,1,8
224,96,15472,1,0
288,128,15649,1,0
320,192,15825,1,0
288,256,16002,2,0,C|480:256,1,190,8|0
512,192,16531,6,0,C|512:96,1,95,0|8
480,32,16884,1,0
416,64,17061,1,0
352,96,17237,1,0
288,64,17414,1,8
224,32,17590,6,0,C|32:32,1,190,0|8
16,64,18031,1,8
0,96,18119,1,8
16,128,18208,1,8
32,160,18296,2,0,C|224:160,1,190,4|8
240,192,18737,1,8
256,224,18825,1,8
224,288,19002,6,0,C|128:288,1,95,8|6
256,352,19531,1,10
384,288,19884,1,2
320,256,20061,1,2
288,192,20237,1,8
224,160,20414,2,0,C|224:64,1,95,2|0
288,32,20767,6,0,C|384:32,1,95,2|8
448,64,21119,1,2
480,128,21296,2,0,C|480:224,1,95,2|2
416,256,21649,1,10
448,320,21825,1,0
384,352,22002,5,2
256,288,22355,1,10
128,352,22708,1,2
64,320,22884,1,2
32,256,23061,1,8
64,192,23237,2,0,C|160:192,1,95,2|0
128,128,23590,6,0,C|224:128,1,95,2|8
192,64,23943,2,0,C|288:64,1,95,2|0
352,32,24296,1,10
384,48,24384,1,8
416,64,24472,1,10
480,192,24825,5,4
416,224,25002,1,0
448,288,25178,1,8
320,352,25531,1,0
256,224,25884,1,8
320,192,26061,1,0
352,256,26237,5,0
288,288,26414,1,0
224,320,26590,1,8
160,288,26767,2,0,B|160:320|128:352|96:361|64:352|32:320|32:288,1,190
0,224,27296,2,0,C|0:128,2,95,8|0|0
64,192,27825,5,0
96,256,28002,1,8
160,128,28355,1,0
32,64,28708,1,8
96,32,28884,1,0
160,64,29061,5,0
224,32,29237,1,0
288,64,29414,1,8
352,32,29590,2,0,B|400:32|443:96|400:160|352:160,1,190
288,128,30119,2,0,B|144:128|142:240|144:352|288:352,1,380,8|0
352,320,30649,5,2
288,288,30825,1,10
416,352,31178,1,2
480,224,31531,1,10
448,288,31708,1,2
320,224,32061,5,2
384,256,32237,1,10
416,192,32414,1,2
352,160,32590,2,2,B|384:51|480:32,2,190,2|8|0
288,128,33472,5,2
320,64,33649,1,10
256,192,34002,1,2
128,128,34355,1,10
192,160,34531,1,2
256,32,34884,6,0,C|160:32,1,95,2|8
96,64,35237,1,2
32,96,35414,2,2,C|32:288,1,190,2|8
64,352,35943,1,8
96,336,36031,1,8
128,320,36119,5,4
160,256,36296,1,0
128,192,36472,1,8
256,256,36825,1,0
384,192,37178,1,8
352,256,37355,1,0
384,320,37531,5,0
448,352,37708,1,0
512,320,37884,1,8
448,288,38061,2,0,B|480:272|496:240|491:208|496:176|480:144|448:128,1,190
416,64,38590,2,0,B|512:64,2,95,8|0|0
352,32,39119,5,0
288,64,39296,1,8
352,192,39649,1,0
224,128,40002,2,0,B|224:64|161:66|96:64|96:128,1,190,8|0
32,160,40531,5,0
0,224,40708,1,8
32,288,40884,2,0,B|48:320|80:336|112:331|144:336|176:320|192:288,1,190
128,256,41414,2,0,B|160:128|256:101|352:128|384:256,1,380,8|0
320,288,41943,5,2
448,224,42296,1,2
480,160,42472,1,2
416,32,42825,1,10
448,96,43002,1,2
320,160,43355,5,2
384,128,43531,1,10
352,64,43708,1,2
288,32,43884,2,2,B|96:32,2,190,2|8|0
256,96,44767,5,2
224,160,44943,1,10
160,128,45119,1,2
96,96,45296,1,2
32,224,45649,1,10
64,160,45825,1,2
192,224,46178,5,2
128,352,46531,1,2
64,320,46708,1,2
96,256,46884,1,0
128,272,46972,1,0
160,288,47061,2,0,B|352:384|416:345|480:224,1,380,8|4
512,160,47590,5,0
480,96,47767,1,8
352,32,48119,2,0,C|160:32,1,190,0|8
96,64,48649,1,0
32,192,49002,5,8
96,320,49355,2,0,B|215:320|192:192,1,190,8|8
160,128,49884,2,0,C|352:128,1,190,8|0
320,192,50414,5,0
256,224,50590,1,8
320,352,50943,2,0,B|320:233|448:256,1,190,0|8
480,192,51472,1,0
416,64,51825,5,8
288,128,52178,2,0,C|96:128,1,190,8|0
32,96,52708,1,8
96,64,52884,1,8
128,48,52972,1,8
160,32,53061,5,0
224,64,53237,1,0
288,32,53414,1,8
352,160,53767,2,0,B|330:288|448:288,1,190,0|8
480,352,54296,1,0
416,224,54649,1,8
352,352,55002,6,0,C|160:352,1,190,8|8
96,320,55531,2,0,B|32:320|34:257|32:192|96:192,1,190,8|0
160,160,56061,1,0
224,192,56237,1,8
160,224,56414,1,0
224,256,56590,1,0
288,224,56767,1,0
352,192,56943,5,8
288,160,57119,1,0
400,104,57414,1,0
416,96,57472,1,8
288,32,57825,2,0,C|96:32,1,190,8|8
32,64,58355,1,8
0,128,58531,2,0,C|0:224,1,95,8|0
32,288,58884,5,0
64,304,58972,1,0
96,320,59061,1,0
128,336,59149,1,0
160,352,59237,1,0
224,320,59414,1,0
288,352,59590,1,2
352,320,59767,1,10
416,352,59943,1,2
480,320,60119,5,4
512,256,60296,1,0
480,192,60472,1,8
416,160,60649,1,0
352,192,60825,1,0
320,256,61002,1,0
256,224,61178,1,8
192,256,61355,1,0
256,128,61708,5,0
320,96,61884,1,8
288,32,62061,1,0
224,64,62237,1,0
160,32,62414,1,0
128,96,62590,2,0,B|18:128|0:224,1,190,8|0
32,288,63119,5,0
64,352,63296,1,8
96,288,63472,1,0
128,352,63649,1,0
160,288,63825,1,0
192,352,64002,1,8
224,288,64178,1,0
96,224,64531,5,0
160,192,64708,1,8
224,224,64884,2,0,B|352:202|352:320,1,190,0|2
288,352,65414,1,10
416,288,65767,5,4
448,224,65943,1,0
480,288,66119,1,8
512,224,66296,1,0
480,160,66472,1,0
448,96,66649,1,0
416,160,66825,1,8
384,224,67002,1,0
320,96,67355,5,0
352,32,67531,1,8
384,96,67708,1,0
352,160,67884,1,0
320,224,68061,1,0
288,160,68237,2,0,B|169:160|192:32,1,190,8|0
128,64,68767,5,0
64,32,68943,1,8
0,64,69119,1,0
64,96,69296,1,0
0,128,69472,1,0
64,160,69649,1,8
128,128,69825,6,0,B|416:128,1,285,0|8
480,160,70531,2,0,C|480:256,1,95
448,320,70884,1,2
512,352,71061,1,10
384,288,71414,5,4
352,352,71590,1,0
288,320,71767,1,8
256,256,71943,1,0
224,320,72119,1,0
160,352,72296,1,0
128,288,72472,1,8
64,320,72649,1,0
0,192,73002,5,0
64,160,73178,1,8
128,128,73355,1,0
192,96,73531,1,0
256,64,73708,1,0
320,32,73884,2,0,B|416:46|480:128,1,190,8|0
512,192,74414,5,0
480,256,74590,1,8
416,288,74767,1,0
352,256,74943,1,0
320,192,75119,1,0
352,128,75296,1,8
416,160,75472,1,0
288,96,75825,5,0
224,128,76002,1,8
192,192,76178,2,0,B|160:208|144:240|149:272|144:304|160:336|192:352,1,190,0|2
224,288,76708,1,10
96,352,77061,5,4
32,320,77237,1,0
0,256,77414,1,8
32,192,77590,1,0
0,128,77767,1,0
32,64,77943,1,0
96,32,78119,1,8
160,64,78296,1,0
96,192,78649,5,0
160,160,78825,1,8
192,224,79002,1,0
256,192,79178,1,2
288,256,79355,1,2
352,224,79531,2,2,B|368:288|416:303|464:288|480:224,1,190,10|0
512,160,80061,5,0
480,96,80237,1,8
416,64,80414,1,0
352,32,80590,1,0
288,64,80767,1,0
224,96,80943,1,8
160,64,81119,6,0,B|32:41|32:160,1,190
96,192,81649,1,8
32,224,81825,2,0,B|32:342|160:320,1,190,0|8
192,336,82267,1,8
224,352,82355,1,8
256,336,82443,1,8
288,320,82531,6,2,B|320:288|352:288|384:384|416:384|448:352,1,190,6|0
480,288,83061,1,10
416,160,83414,1,2
352,192,83590,1,2
288,224,83767,1,8
224,256,83943,6,0,C|128:256,1,95,2|0
96,192,84296,2,0,C|192:192,1,95,2|8
224,128,84649,1,2
192,64,84825,2,0,C|96:64,1,95,2|2
80,96,85090,1,0
64,128,85178,1,10
32,192,85355,1,0
64,256,85531,5,2
192,320,85884,1,10
320,256,86237,2,0,C|320:352,1,95,2|2
384,320,86590,1,8
448,352,86767,6,0,C|448:256,1,95,2|0
384,224,87119,2,0,C|384:128,1,95,2|8
448,96,87472,1,2
384,64,87649,1,8
352,80,87737,1,8
320,96,87825,1,8
288,112,87915,2,0,C|256:22,1,95,8|0
