osu file format v5

[General]
AudioFilename: Cagayake! GIRLS (TV Size).mp3
AudioLeadIn: 0
PreviewTime: 7382
Countdown: 0
SampleSet: Normal
StackLeniency: 0.2
Mode: 0
LetterboxInBreaks: 1
EditorBookmarks: 7884,13531,19178,24825,30472,36119,41767,47414,53061,60119,65767,71414,77061,82708

[Metadata]
Title:Cagayake! GIRLS (TV Size)
Artist:Toyosaki Aki
Creator:DJPop
Version:Hard
Source:K-ON!
Tags:anime cagayake girls toyosaki aki hikasa youko satou satomi kotobuki minako hirasawa yui akiyama mio tainaka ritsu kotobuki tsumugi k-on keion

[Difficulty]
HPDrainRate:4
CircleSize:5
OverallDifficulty:5
SliderMultiplier:1.6
SliderTickRate:2

[Events]
//Background and Video events
0,0,"playfield.png"
1,-40,"Cagayake! GIRLS (TV Size).avi"
//Break Periods
//Storyboard Layer 0 (Background)
//Storyboard Layer 1 (Failing)
//Storyboard Layer 2 (Passing)
//Storyboard Layer 3 (Foreground)
//Storyboard Sound Samples
5,42145,0,"normal-hitclap.wav"
5,46381,0,"normal-hitclap.wav"
//Background Colour Transformations
3,100,255,0,0

[TimingPoints]
120,352.941176470588,4,1,0,90,1,0
19178,-100,4,1,0,90,0,1
24649,-100,4,1,0,90,0,0
58531,-100,4,1,0,90,0,1
59943,-100,4,1,0,100,0,0
82531,-100,4,1,0,90,0,1
88178,-100,4,1,0,0,0,0

[Colours]
Combo1 : 230,210,170
Combo2 : 70,80,80
Combo3 : 145,110,75
Combo4 : 160,130,80

[HitObjects]
32,352,7355,5,2
32,352,7531,1,2
96,320,7884,1,4
160,288,8237,1,8
192,352,8590,1,0
256,320,8943,1,8
256,320,9120,1,0
320,288,9472,5,0
320,288,9649,1,8
384,320,10002,2,0,B|417:366|448:320,2,80,0|0|8
416,256,10708,5,0
448,192,11061,1,8
480,128,11414,1,0
416,96,11767,1,8
416,96,11943,1,0
352,64,12296,6,0,B|320:19|288:64,2,80,0|8|0
320,128,13002,1,2
320,128,13178,1,10
352,192,13531,5,4
288,224,13884,1,8
224,256,14237,1,0
192,320,14590,1,8
192,320,14767,1,0
160,256,15120,5,0
160,256,15296,1,8
96,288,15649,2,0,B|51:320|96:352,2,80,0|0|8
64,224,16355,5,0
32,160,16708,1,8
64,96,17061,1,0
96,32,17414,1,8
96,32,17590,6,0,C|416:32,2,320,4|4|0
96,32,19178,5,6
128,96,19531,1,10
160,160,19884,1,2
192,96,20237,1,10
192,96,20414,1,2
224,160,20767,6,0,C|224:256,2,80,2|8|2
256,96,21472,1,2
256,96,21649,1,10
288,160,22002,5,2
320,96,22355,1,10
352,160,22708,1,2
384,96,23061,1,10
384,96,23237,1,2
416,160,23590,6,0,B|461:191|416:224,3,80,2|10|2|2
384,288,24472,1,10
352,352,24825,5,4
288,320,25178,1,8
224,352,25531,1,0
160,320,25884,1,8
96,352,26237,5,0
32,320,26590,1,8
32,288,26767,2,0,B|15:208|32:128,1,160
32,96,27296,1,8
96,64,27649,5,0
160,32,28002,1,8
192,96,28355,1,0
256,64,28708,1,8
320,32,29061,5,0
352,96,29414,1,8
384,96,29590,2,0,B|480:81|480:192,1,160
480,224,30119,1,2
352,288,30649,5,2
352,288,30825,1,10
320,352,31178,1,2
288,288,31531,1,10
288,288,31708,1,2
320,224,32061,6,0,B|290:179|256:224,3,80,2|8|2|2
192,192,32943,1,8
64,256,33472,5,2
64,256,33649,1,10
32,192,34002,1,2
64,128,34355,1,10
64,128,34531,1,2
96,192,34884,6,0,B|126:237|160:192,3,80,2|8|2|2
192,128,35767,1,8
224,64,36119,5,4
288,32,36472,1,8
352,64,36825,1,0
384,128,37178,1,8
352,192,37531,5,0
288,224,37884,1,8
256,224,38061,2,0,B|146:224|160:320,1,160
160,352,38590,1,8
224,320,38943,5,0
288,288,39296,1,8
352,320,39649,1,0
416,352,40002,2,0,B|488:352|480:224,1,160,8|0
416,192,40708,5,8
384,192,40884,2,0,B|305:210|224:192,1,160
192,192,41414,1,10
64,256,41943,5,2
32,192,42296,1,2
32,192,42472,1,2
64,128,42825,1,10
64,128,43002,1,2
96,192,43355,5,2
96,192,43531,1,10
128,128,43884,2,2,B|224:143|224:32,1,160,2|8
352,96,44767,5,2
352,96,44943,1,10
416,128,45296,1,2
352,160,45649,1,10
352,160,45825,1,2
288,128,46178,5,2
256,192,46531,1,2
256,224,46708,2,2,B|320:313|384:224,1,160,2|8
448,256,47414,5,4
480,320,47767,1,8
416,352,48119,2,0,C|256:352,1,160,0|8
224,352,48649,1,0
160,320,49002,5,8
96,288,49355,2,0,B|24:287|32:160,1,160
32,128,49884,1,8
64,64,50237,5,0
128,32,50590,1,8
192,64,50943,2,0,C|352:64,1,160,0|8
384,64,51472,1,0
448,96,51825,5,8
384,128,52178,2,0,C|224:128,1,160,0|8
192,128,52708,1,8
128,160,53061,5,0
96,224,53414,1,8
128,288,53767,2,0,B|128:359|256:352,1,160,0|8
288,352,54296,1,0
320,288,54649,5,8
352,224,55002,2,0,C|352:64,1,160,0|0
352,32,55531,1,8
416,64,55884,5,0
448,128,56237,1,8
480,192,56590,1,0
448,256,56943,1,8
448,256,57119,1,0
416,192,57472,5,8
384,256,57825,1,0
352,192,58178,2,8,C|272:192,2,80
256,192,58708,12,10,59767
32,32,60119,5,4
64,96,60472,1,8
128,128,60825,1,0
192,96,61178,1,8
192,96,61355,1,0
224,32,61708,5,0
224,32,61884,1,8
288,64,62237,2,0,B|319:18|352:64,2,80,0|0|8
320,128,62943,5,0
384,160,63296,1,8
448,192,63649,1,0
480,256,64002,1,8
480,256,64178,1,0
416,288,64531,6,0,B|371:320|416:352,2,80,0|8|0
352,256,65237,1,2
352,256,65414,1,10
288,288,65767,5,4
224,320,66119,1,8
192,256,66472,1,0
128,288,66825,1,8
128,288,67002,1,0
96,224,67355,5,0
96,224,67531,1,8
160,192,67884,2,0,B|191:147|224:192,2,80,0|0|8
96,160,68590,5,0
32,128,68943,1,8
64,64,69296,1,0
128,32,69649,1,8
160,32,69825,6,0,B|192:96|256:115|320:96|352:32,1,240,0|8
384,32,70531,1,0
448,64,70884,1,2
448,64,71061,1,10
480,128,71414,5,4
448,192,71767,1,8
384,224,72119,1,0
320,192,72472,1,8
320,192,72649,1,0
256,160,73002,5,0
256,160,73178,1,8
224,224,73531,2,0,B|191:269|160:224,2,80,0|0|8
192,160,74237,5,0
160,96,74590,1,8
96,128,74943,1,0
32,160,75296,1,8
32,160,75472,1,0
64,224,75825,6,0,B|18:255|64:288,2,80,0|8|0
128,256,76531,1,2
128,256,76708,1,10
160,320,77061,5,4
224,352,77414,1,8
288,320,77767,1,0
352,352,78119,1,8
352,352,78296,1,0
384,288,78649,5,0
384,288,78825,1,8
448,256,79178,2,0,B|493:288|448:320,2,80,2|2|10
416,192,79884,5,0
448,128,80237,1,8
480,64,80590,1,0
416,32,80943,1,8
384,32,81119,6,0,B|273:113|160:32,1,240,0|8
128,32,81825,1,0
64,64,82178,1,8
64,64,82355,1,8
64,64,82531,5,6
128,192,83061,1,10
64,224,83414,2,0,B|19:255|64:288,3,80,2|2|8|2
128,320,84296,5,2
128,320,84472,1,10
192,288,84825,2,0,B|237:256|192:224,2,80,2|2|10
224,352,85531,5,2
288,320,85884,1,10
320,256,86237,2,0,B|365:225|320:192,3,80,2|2|8|2
288,128,87119,5,2
288,128,87296,1,10
256,64,87649,2,8,C|256:24,3,40
