osu file format v5

[General]
AudioFilename: Cagayake! GIRLS (TV Size).mp3
AudioLeadIn: 0
PreviewTime: 7382
Countdown: 0
SampleSet: Normal
StackLeniency: 0.2
Mode: 0
LetterboxInBreaks: 1
EditorBookmarks: 7884,13531,19178,24825,30472,36119,41767,47414,53061,60119,65767,71414,77061,82708

[Metadata]
Title:Cagayake! GIRLS (TV Size)
Artist:Toyosaki Aki
Creator:DJPop
Version:Easy
Source:K-ON!
Tags:anime cagayake girls toyosaki aki hikasa youko satou satomi kotobuki minako hirasawa yui akiyama mio tainaka ritsu kotobuki tsumugi k-on keion

[Difficulty]
HPDrainRate:2
CircleSize:3
OverallDifficulty:1
SliderMultiplier:1
SliderTickRate:2

[Events]
//Background and Video events
0,0,"playfield.png"
1,-40,"Cagayake! GIRLS (TV Size).avi"
//Break Periods
2,19404,23411
//Storyboard Layer 0 (Background)
//Storyboard Layer 1 (Failing)
//Storyboard Layer 2 (Passing)
//Storyboard Layer 3 (Foreground)
//Storyboard Sound Samples
//Background Colour Transformations
3,100,255,0,0

[TimingPoints]
120,352.941176470588,4,1,0,90,1,0
19178,-100,4,1,0,90,0,1
20590,-100,4,1,0,90,0,0
58531,-100,4,1,0,90,0,1
59943,-100,4,1,0,100,0,0
82531,-100,4,1,0,90,0,1
88002,-100,4,1,0,0,0,0

[Colours]
Combo1 : 230,210,170
Combo2 : 70,80,80
Combo3 : 145,110,75
Combo4 : 160,130,80

[HitObjects]
256,320,7884,1,4
160,256,8590,1,0
96,160,9296,5,0
192,96,10002,1,0
288,32,10708,5,0
352,128,11414,1,0
448,192,12119,5,0
384,288,12825,1,0
288,352,13531,5,4
192,288,14237,1,0
256,192,14943,5,0
160,128,15649,1,0
64,192,16355,5,0
128,288,17061,1,0
256,192,17590,12,4,19178
384,96,24825,5,4
480,160,25531,1,0
416,256,26237,6,0,B|404:352|320:352,1,150
128,224,27649,5,0
32,160,28355,1,0
96,63,29061,6,0,B|177:63|192:160,1,150
384,32,30472,5,8
448,128,31178,1,8
352,192,31884,5,8
416,288,32590,1,8
320,352,33296,5,8
224,288,34002,1,8
128,224,34708,5,8
64,128,35414,1,8
128,32,36119,5,4
224,96,36825,1,0
288,192,37531,6,0,B|288:276|384:288,1,150,0|0
448,32,38943,5,0
352,96,39649,1,0
256,32,40355,6,0,B|160:44|160:128,1,150,0|0
32,320,41767,5,8
128,256,42472,1,8
192,352,43178,5,8
288,288,43884,1,8
352,192,44590,5,8
448,128,45296,1,8
384,32,46002,5,8
288,96,46708,1,8
192,160,47414,5,4
128,64,48119,1,0
64,128,48649,6,0,B|10:224|64:320,1,200,0|0
384,352,50237,5,0
480,288,50943,1,0
416,224,51472,6,0,B|470:128|416:32,1,200,0|0
96,64,53061,5,0
32,160,53767,1,0
96,224,54296,6,0,B|224:267|224:128,1,200,0|0
456,256,55884,5,0
360,320,56590,1,0
296,256,57119,6,0,B|288:232|256:221|224:232|216:256,4,100,10|10|10|10|10
32,32,60119,5,4
96,128,60825,1,0
192,64,61531,5,0
256,160,62237,1,0
192,256,62943,5,0
288,320,63649,1,0
384,256,64355,5,0
480,192,65061,1,0
416,96,65767,5,4
320,32,66472,1,0
256,128,67178,5,0
160,192,67884,1,0
96,96,68590,5,0
32,192,69296,1,0
96,256,69825,2,2,B|177:368|256:256,1,200
480,352,71414,5,4
416,256,72119,1,0
320,192,72825,5,0
384,96,73531,1,0
288,32,74237,5,0
192,96,74943,1,0
96,160,75649,5,0
32,256,76355,1,0
128,320,77061,5,4
224,256,77767,1,0
288,352,78472,5,0
384,288,79178,1,2
448,192,79884,5,0
384,96,80590,1,0
256,192,81119,12,4,82531
