osu file format v10

[General]
AudioFilename: Kanpeki Will.mp3
AudioLeadIn: 1500
PreviewTime: 44010
Countdown: 0
SampleSet: Soft
StackLeniency: 0.7
Mode: 0
LetterboxInBreaks: 0

[Editor]
Bookmarks: 3938,4045,17652,17760,31367,31474,45081,45188,58795,72510,72617,79367,79474,86224,86331,99938,100045,113652,113760,127367,127474,141081,141188,147938,148045,158224,158331,172045,185652,197652,197760
DistanceSpacing: 0.4
BeatDivisor: 4
GridSize: 8

[Metadata]
Title:Kanpeki Will
TitleUnicode:
Artist:Toyosaki Aki & Itou Kanae
ArtistUnicode:
Creator:JoJo
Version:Waku Waku~
Source:To Aru Kagaku no Railgun ARCHIVES 3
Tags:nymph melophobia uiharu kazari saten ruiko character song
BeatmapID:173530
BeatmapSetID:57582

[Difficulty]
HPDrainRate:8
CircleSize:4
OverallDifficulty:7
ApproachRate:8
SliderMultiplier:2
SliderTickRate:2

[Events]
//Background and Video events
0,0,"BG.jpg"
//Break Periods
2,72710,85474
2,100138,112474
2,126710,154045
2,157995,170331
//Storyboard Layer 0 (Background)
//Storyboard Layer 1 (Fail)
//Storyboard Layer 2 (Pass)
//Storyboard Layer 3 (Foreground)
//Storyboard Sound Samples
//Background Colour Transformations
3,100,163,162,255

[TimingPoints]
510,428.571428571429,4,2,1,60,1,0
43367,-200,4,2,1,60,0,0
44652,-100,4,2,1,60,0,0
45081,-100,4,2,1,60,0,1
72510,-100,4,2,1,60,0,0
86224,-133.333333333333,4,2,1,60,0,0
92867,-100,4,2,1,60,0,0
113652,-100,4,2,1,60,0,1
141081,-100,4,2,1,60,0,0
158224,-100,4,2,1,60,0,1
171938,-133.333333333333,4,2,1,60,0,1
172367,-100,4,2,1,60,0,1
173652,-133.333333333333,4,2,1,60,0,1
174081,-100,4,2,1,60,0,1
175367,-133.333333333333,4,2,1,60,0,1
175795,-100,4,2,1,60,0,1
177081,-133.333333333333,4,2,1,60,0,1
177510,-100,4,2,1,60,0,1
185652,-100,4,2,1,60,0,0

[Colours]
Combo1 : 232,187,159
Combo2 : 0,150,206
Combo3 : 28,230,174

[HitObjects]
256,192,510,12,0,3295,0:0:0
256,192,3510,5,0,0:0:0
190,268,3724,1,0,0:0:0
376,125,3938,6,0,B|390:227,1,100
415,48,4367,1,0,0:0:0
392,238,4581,1,0,0:0:0
314,372,4795,2,0,B|304:264,1,100
200,29,5224,2,0,B|242:40|252:88|220:116,1,100
344,140,5652,6,0,B|453:129,1,100
288,256,6081,2,0,B|180:271,1,100
344,140,6510,1,0,0:0:0
174,271,6724,1,0,0:0:0
443,129,6938,2,0,B|424:165|456:197|494:197,1,100
180,89,7367,6,0,B|80:75,1,100
246,152,7795,2,0,B|205:191|132:173,1,100
339,158,8224,1,0,0:0:0
284,235,8438,1,0,0:0:0
425,118,8652,1,0,0:0:0
220,308,8867,1,0,0:0:0
80,100,9081,5,0,0:0:0
92,127,9724,1,0,0:0:0
182,168,9938,1,0,0:0:0
171,186,10045,1,0,0:0:0
158,201,10152,1,0,0:0:0
140,212,10260,1,0,0:0:0
122,220,10367,1,0,0:0:0
102,224,10474,1,0,0:0:0
82,223,10581,1,0,0:0:0
62,219,10688,1,0,0:0:0
45,212,10795,6,0,B|74:255|72:306,1,100
93,127,11224,1,0,0:0:0
182,170,11438,1,0,0:0:0
182,170,11545,1,0,0:0:0
182,170,11652,2,0,B|230:180|281:164,1,100
462,276,12081,2,0,B|440:269|411:297|417:331|449:347,1,100
395,65,12510,6,0,B|341:55|285:76,1,100
472,94,12938,1,0,0:0:0
339,217,13152,1,0,0:0:0
344,197,13260,1,0,0:0:0
348,177,13367,2,0,B|342:228|355:278,1,100
140,89,13795,2,0,B|140:127|116:147|68:139|51:112,1,100
152,294,14224,5,0,0:0:0
244,331,14438,1,0,0:0:0
341,310,14652,1,0,0:0:0
439,329,14867,2,0,B|478:360,2,50
372,94,15295,1,0,0:0:0
274,72,15510,1,0,0:0:0
176,94,15724,1,0,0:0:0
79,68,15938,5,0,0:0:0
175,107,16152,1,0,0:0:0
274,58,16367,1,0,0:0:0
371,107,16581,1,0,0:0:0
470,72,16795,1,0,0:0:0
470,72,16902,1,0,0:0:0
470,72,17010,1,0,0:0:0
456,252,17224,5,0,0:0:0
259,316,17438,1,0,0:0:0
56,252,17652,1,0,0:0:0
96,96,17867,5,0,0:0:0
216,200,18081,1,0,0:0:0
120,184,18295,1,0,0:0:0
232,72,18510,1,0,0:0:0
328,144,18724,1,0,0:0:0
328,144,18831,1,0,0:0:0
328,144,18938,2,0,B|376:168|424:168,1,100
496,264,19367,6,0,B|456:296|448:352,1,100
272,352,19795,2,0,B|312:320|320:264,1,100
448,168,20224,1,0,0:0:0
336,56,20438,1,0,0:0:0
176,56,20652,1,0,0:0:0
64,168,20867,1,0,0:0:0
64,168,20974,1,0,0:0:0
64,168,21081,1,0,0:0:0
112,280,21295,2,0,B|120:328|168:360,2,100
192,192,21938,2,0,B|240:200|272:248,1,100
352,336,22367,2,0,B|392:368|448:360,1,100
488,248,22795,2,0,B|488:144,1,100
496,32,23224,1,0,0:0:0
488,40,23438,1,0,0:0:0
384,320,23652,2,0,B|384:216,1,100
392,104,24081,1,0,0:0:0
288,160,24295,1,0,0:0:0
288,160,24402,1,0,0:0:0
288,160,24510,1,0,0:0:0
256,272,24724,2,0,B|232:320|176:328,2,100
160,200,25367,1,0,0:0:0
80,288,25581,1,0,0:0:0
80,288,25688,1,0,0:0:0
80,288,25795,1,0,0:0:0
16,96,26010,1,0,0:0:0
112,24,26224,2,0,B|160:40|192:80,1,100
160,200,26652,2,0,B|192:159|240:143,1,100
296,40,27081,1,0,0:0:0
448,96,27295,1,0,0:0:0
480,256,27510,1,0,0:0:0
328,192,27724,1,0,0:0:0
328,192,27831,1,0,0:0:0
328,192,27938,1,0,0:0:0
256,288,28152,2,0,B|216:320|160:320,2,100
320,96,28795,2,0,B|360:64|416:64,1,100
192,96,29224,2,0,B|152:64|96:64,1,100
256,168,29652,1,0,0:0:0
152,312,29867,1,0,0:0:0
360,312,30081,1,0,0:0:0
256,256,30295,1,0,0:0:0
256,136,30510,1,0,0:0:0
184,40,30724,5,0,0:0:0
64,24,30938,1,0,0:0:0
136,120,31152,1,0,0:0:0
140,220,31367,6,0,B|83:238|23:236,1,100
215,181,31795,1,0,0:0:0
290,246,32010,1,0,0:0:0
290,246,32117,2,0,B|440:236,1,150
482,145,32652,1,0,0:0:0
443,340,32867,1,0,0:0:0
278,236,33081,6,0,B|381:230,1,100
236,317,33510,1,0,0:0:0
196,130,33724,1,0,0:0:0
196,130,33831,2,0,B|147:200|159:280,1,150
178,32,34367,2,0,B|128:58|95:116,1,100
237,221,34795,1,0,0:0:0
440,92,35010,6,0,B|456:197,1,100
355,68,35438,2,0,B|375:188,1,100
271,38,35867,1,0,0:0:0
305,214,36081,1,0,0:0:0
440,92,36295,1,0,0:0:0
260,53,36510,5,0,0:0:0
321,219,36724,1,0,0:0:0
433,74,36938,1,0,0:0:0
256,71,37152,5,0,0:0:0
258,92,37260,2,0,B|253:150|201:182,1,100
192,183,37581,1,0,0:0:0
221,278,37795,1,0,0:0:0
131,322,38010,1,0,0:0:0
112,328,38117,1,0,0:0:0
90,335,38224,1,0,0:0:0
108,115,38438,5,0,0:0:0
192,183,38652,2,0,B|255:193|320:179,1,100
473,155,39081,2,0,B|410:145|345:159,1,100
342,125,39402,2,0,B|392:95|446:109|473:155,1,150
390,211,39938,2,0,B|378:311,1,100
271,382,40367,2,0,B|283:282,1,100
241,2,40795,2,0,B|229:102,1,100
163,175,41224,1,0,0:0:0
297,295,41438,1,0,0:0:0
297,295,41652,6,0,B|209:268|181:324|89:296,3,200
37,220,43152,1,0,0:0:0
96,114,43367,2,0,B|175:139|200:90|216:34|288:48|325:76|332:125|316:166,1,300
88,224,45081,6,0,B|80:312|160:352,1,150
216,360,45510,1,0,0:0:0
336,344,45724,1,0,0:0:0
440,288,45938,2,0,B|480:248|488:200,1,100
448,56,46367,2,0,B|408:88|403:145,1,100
320,224,46795,2,0,B|288:296|208:320,1,150
160,288,47224,2,0,B|112:304|80:352,1,100
8,256,47652,1,0,0:0:0
56,144,47867,1,0,0:0:0
160,200,48081,1,0,0:0:0
208,88,48296,1,0,0:0:0
256,288,48510,2,0,B|304:344|392:352,1,150
448,352,48938,1,0,0:0:0
504,248,49152,1,0,0:0:0
480,128,49367,2,0,B|464:80|424:48,1,100
328,120,49795,2,0,B|285:150|235:153,1,100
144,72,50224,1,0,0:0:0
56,152,50438,1,0,0:0:0
56,152,50545,1,0,0:0:0
56,152,50652,1,0,0:0:0
80,272,50867,1,0,0:0:0
184,328,51081,2,0,B|224:360|280:360,1,100
352,264,51510,2,0,B|312:232|256:232,1,100
352,264,51938,2,0,B|392:296|448:296,1,100
472,88,52367,1,0,0:0:0
504,200,52581,1,0,0:0:0
440,296,52795,2,0,B|408:336|352:336,1,100
232,312,53224,2,0,B|176:312|144:352,1,100
48,280,53652,1,0,0:0:0
8,120,53867,1,0,0:0:0
48,280,54081,1,0,0:0:0
192,72,54295,1,0,0:0:0
160,232,54510,2,0,B|152:288|176:328,1,100
328,376,54938,2,0,B|336:320|312:280,1,100
256,128,55367,1,0,0:0:0
256,128,55795,2,0,B|248:184|272:224,1,100
472,272,56224,2,0,B|427:237|380:237,1,100
240,376,56652,2,0,B|292:354|315:314,1,100
344,152,57081,1,0,0:0:0
472,56,57295,5,0,0:0:0
472,56,57402,1,0,0:0:0
472,56,57510,1,0,0:0:0
320,0,57724,1,0,0:0:0
184,87,57938,5,0,0:0:0
140,176,58152,1,0,0:0:0
268,140,58367,1,0,0:0:0
56,128,58581,1,0,0:0:0
149,327,58795,2,0,B|153:268|219:244|261:288,1,150
276,308,59224,1,0,0:0:0
140,176,59438,1,0,0:0:0
261,41,59652,1,0,0:0:0
246,229,59867,1,0,0:0:0
159,61,60081,1,0,0:0:0
324,134,60295,1,0,0:0:0
363,327,60510,2,0,B|359:268|293:244|251:288,1,150
236,308,60939,1,0,0:0:0
372,176,61152,1,0,0:0:0
221,49,61367,2,0,B|181:81|181:81|132:84,1,100
72,200,61795,2,0,B|112:168|112:168|160:164,1,100
152,288,62224,2,0,B|67:339|11:263|72:199,1,200
224,233,62867,1,0,0:0:0
336,270,63081,2,0,B|390:283|430:248,1,100
399,127,63510,2,0,B|345:114|304:148,1,100
304,340,63938,2,0,B|411:371|500:291,1,200
501,211,64581,1,0,0:0:0
249,111,64795,1,0,0:0:0
433,96,65010,1,0,0:0:0
297,177,65224,1,0,0:0:0
379,31,65438,1,0,0:0:0
381,187,65652,2,0,B|376:83|301:128|292:15,1,200
327,255,66295,1,0,0:0:0
241,250,66510,2,0,B|143:272,1,100
272,325,66938,2,0,B|174:347,1,100
212,175,67367,2,0,B|16:219,1,200
268,106,68010,1,0,0:0:0
183,83,68224,2,0,B|173:139|212:175,1,100
357,103,68652,2,0,B|349:47|301:25,1,100
211,174,69081,2,0,B|271:219|352:185|357:103,1,200
354,126,69938,2,0,B|372:224,1,100
351,110,70367,1,0,0:0:0
375,239,70581,1,0,0:0:0
260,315,70795,2,0,B|210:331|161:316,1,100
0,260,71224,2,0,B|50:244|98:258,1,100
199,204,71652,2,0,B|208:154,3,50
200,136,72081,2,0,B|209:86,3,50
201,68,72510,1,0,0:0:0
204,173,86224,6,0,B|354:165,1,150.000005722046
124,133,86867,1,0,0:0:0
115,144,87295,1,0,0:0:0
71,237,87510,2,0,B|-2:261,2,75.0000028610231
153,304,88152,6,0,B|76:331,1,75.0000028610231
248,328,88581,1,0,0:0:0
260,312,89010,1,0,0:0:0
264,104,89225,1,0,0:0:0
407,237,89439,1,0,0:0:0
221,210,89653,1,0,0:0:0
368,64,89867,5,0,0:0:0
181,53,90081,2,0,B|98:65,1,75.0000028610231
87,53,90724,1,0,0:0:0
274,53,90938,1,0,0:0:0
78,68,91152,1,0,0:0:0
48,176,91367,5,0,0:0:0
119,291,91581,1,0,0:0:0
291,354,91795,1,0,0:0:0
487,308,92010,1,0,0:0:0
384,64,92224,5,0,0:0:0
371,91,92438,1,0,0:0:0
358,118,92652,1,0,0:0:0
345,145,92867,2,0,B|297:246,1,100
120,266,93295,6,0,B|20:286,1,100
197,292,93724,1,0,0:0:0
273,323,93938,2,0,B|379:299,1,100
420,305,94260,1,0,0:0:0
403,262,94367,2,0,B|475:179,1,100
413,102,94795,6,0,B|312:108|224:49,1,200
140,105,95438,1,0,0:0:0
11,204,95652,2,0,B|117:190,1,100
202,247,96081,1,0,0:0:0
328,269,96295,1,0,0:0:0
478,218,96510,1,0,0:0:0
467,203,96938,5,0,0:0:0
433,308,97152,1,0,0:0:0
325,352,97367,2,0,B|278:328|220:338,1,100
148,260,97795,2,0,B|130:212|136:155,1,100
177,68,98224,1,0,0:0:0
57,174,98438,1,0,0:0:0
221,219,98652,1,0,0:0:0
92,88,98867,2,0,B|132:148|236:143,1,150
256,142,99295,1,0,0:0:0
389,107,99510,1,0,0:0:0
464,288,99724,1,0,0:0:0
464,288,99831,1,0,0:0:0
464,288,99938,1,0,0:0:0
133,56,113224,5,0,0:0:0
140,75,113652,5,0,0:0:0
100,167,113867,1,0,0:0:0
106,185,113974,1,0,0:0:0
112,203,114081,1,0,0:0:0
69,293,114295,1,0,0:0:0
245,268,114510,2,0,B|297:286|339:251,1,100
247,282,114938,2,0,B|299:300|341:265,1,100
250,296,115367,2,0,B|302:314|344:279,1,100
358,265,115688,1,0,0:0:0
366,246,115795,2,0,B|357:345,1,100
434,189,116224,5,0,0:0:0
285,212,116438,1,0,0:0:0
382,333,116652,1,0,0:0:0
352,161,116867,1,0,0:0:0
295,303,117081,2,0,B|242:370|144:346,1,150
128,343,117510,1,0,0:0:0
320,223,117724,1,0,0:0:0
282,147,117938,2,0,B|262:99|268:43,1,100
400,176,118367,2,0,B|362:136|350:87,1,100
512,176,118795,2,0,B|472:153|448:105,1,100
439,89,119117,1,0,0:0:0
433,68,119224,1,0,0:0:0
250,76,119438,2,0,B|256:23,2,50
246,108,119760,1,0,0:0:0
242,140,119867,2,0,B|240:184|248:250,2,100
268,316,120510,2,0,B|264:376|182:391|158:332,1,150
150,308,120938,1,0,0:0:0
62,160,121152,2,0,B|54:216,1,50
26,238,121367,1,0,0:0:0
150,150,121581,1,0,0:0:0
52,256,121795,1,0,0:0:0
174,133,122010,1,0,0:0:0
82,272,122224,2,0,B|134:291|192:288,1,100
210,288,122545,1,0,0:0:0
246,283,122652,1,0,0:0:0
208,123,122867,1,0,0:0:0
62,82,123081,1,0,0:0:0
244,125,123295,1,0,0:0:0
41,68,123510,2,0,B|67:168,1,100
44,251,123938,1,0,0:0:0
66,270,124367,2,0,B|108:264|108:264|135:282|164:272,1,100
237,231,124795,1,0,0:0:0
93,343,125010,1,0,0:0:0
147,197,125224,1,0,0:0:0
273,324,125438,1,0,0:0:0
431,244,125652,1,0,0:0:0
256,192,125760,12,0,126510,0:0:0
256,192,154795,12,0,157795,0:0:0
177,138,171081,6,0,B|141:174|141:174|94:188,1,100
222,204,171510,2,0,B|258:168|258:168|304:153,1,100
393,174,171938,2,0,B|394:230|437:258|437:258|457:292|452:306,1,150.000005722046
