osu file format v9

[General]
AudioFilename: Kanpeki Will.mp3
AudioLeadIn: 1500
PreviewTime: 44010
Countdown: 0
SampleSet: Soft
StackLeniency: 0.7
Mode: 0
LetterboxInBreaks: 0

[Editor]
Bookmarks: 3938,4045,17652,17760,31367,31474,45081,45188,58795,58902,72510,72617,79367,79474,86224,86331,99938,100045,113652,113760,127367,127474,141081,141188,147938,148045,158224,158331,171938,172045,185652,197652,197760
DistanceSpacing: 1
BeatDivisor: 2
GridSize: 8

[Metadata]
Title:Kanpeki Will
Artist:Toyosaki Aki & Itou Kanae
Creator:JoJo
Version:Relaxing~
Source:To Aru Kagaku no Railgun ARCHIVES 3
Tags:nymph melophobia uiharu kazari saten ruiko character song

[Difficulty]
HPDrainRate:4
CircleSize:3
OverallDifficulty:3
ApproachRate:4
SliderMultiplier:1
SliderTickRate:1

[Events]
//Background and Video events
0,0,"BG.jpg"
//Break Periods
2,72710,78047
2,141281,146618
//Storyboard Layer 0 (Background)
//Storyboard Layer 1 (Fail)
//Storyboard Layer 2 (Pass)
//Storyboard Layer 3 (Foreground)
//Storyboard Sound Samples
//Background Colour Transformations
3,100,163,162,255

[TimingPoints]
510,428.571428571429,4,2,2,60,1,0
6081,-100,4,1,2,60,0,0
6295,-100,4,2,2,60,0,0
7795,-100,4,1,2,60,0,0
8010,-100,4,2,2,60,0,0
12938,-100,4,1,2,60,0,0
13152,-100,4,2,2,60,0,0
16367,-100,4,1,2,60,0,0
16581,-100,4,2,2,60,0,0
30938,-100,4,1,2,60,0,0
31152,-100,4,2,2,60,0,0
45081,-100,4,2,1,60,0,1
48081,-100,4,1,1,60,0,1
48295,-100,4,2,1,60,0,1
49795,-100,4,1,1,60,0,1
50010,-100,4,2,1,60,0,1
52367,-100,4,1,1,60,0,1
52581,-100,4,2,1,60,0,1
54081,-100,4,1,1,60,0,1
54295,-100,4,2,1,60,0,1
62652,-100,4,1,1,60,0,1
62867,-100,4,2,1,60,0,1
64367,-100,4,1,1,60,0,1
64581,-100,4,2,1,60,0,1
67795,-100,4,1,1,60,0,1
68010,-100,4,2,1,60,0,1
70367,-100,4,1,1,60,0,1
70581,-100,4,2,1,60,0,1
72510,-100,4,2,1,60,0,0
79367,-100,4,2,2,60,0,0
84938,-100,4,1,2,60,0,0
85152,-100,4,2,2,60,0,0
85795,-100,4,1,2,60,0,0
86010,-100,4,2,2,60,0,0
94367,-100,4,1,2,60,0,0
94581,-100,4,2,2,60,0,0
95224,-100,4,1,2,60,0,0
95438,-100,4,2,2,60,0,0
98652,-100,4,1,2,60,0,0
98867,-100,4,2,2,60,0,0
108081,-100,4,1,2,60,0,0
108295,-100,4,2,2,60,0,0
108938,-100,4,1,2,60,0,0
109152,-100,4,2,2,60,0,0
109795,-100,4,1,2,60,0,0
110010,-100,4,2,2,60,0,0
113652,-100,4,2,1,60,0,1
116652,-100,4,1,1,60,0,1
116867,-100,4,2,1,60,0,1
118367,-100,4,1,1,60,0,1
118795,-100,4,2,1,60,0,1
120081,-100,4,1,1,60,0,1
120510,-100,4,2,1,60,0,1
121795,-100,4,1,1,60,0,1
122224,-100,4,2,1,60,0,1
125224,-100,4,1,1,60,0,1
125652,-100,4,2,1,60,0,1
130367,-100,4,1,1,60,0,1
130581,-100,4,2,1,60,0,1
131224,-100,4,1,1,60,0,1
131438,-100,4,2,1,60,0,1
132938,-100,4,1,1,60,0,1
133367,-100,4,2,1,60,0,1
134652,-100,4,1,1,60,0,1
134867,-100,4,2,1,60,0,1
136367,-100,4,1,1,60,0,1
136581,-100,4,2,1,60,0,1
141081,-100,4,2,1,60,0,0
147938,-100,4,2,2,60,0,0
158224,-100,4,2,1,60,0,1
161224,-100,4,1,1,60,0,1
161438,-100,4,2,1,60,0,1
162938,-100,4,1,1,60,0,1
163152,-100,4,2,1,60,0,1
165510,-100,4,1,1,60,0,1
165724,-100,4,2,1,60,0,1
167224,-100,4,1,1,60,0,1
167438,-100,4,2,1,60,0,1
175795,-100,4,1,1,60,0,1
176010,-100,4,2,1,60,0,1
177510,-100,4,1,1,60,0,1
177724,-100,4,2,1,60,0,1
180938,-100,4,1,1,60,0,1
181152,-100,4,2,1,60,0,1
183510,-100,4,1,1,60,0,1
183724,-100,4,2,1,60,0,1
185652,-100,4,2,1,60,0,0
186081,-100,4,2,2,60,0,0
196367,-100,4,1,2,60,0,0
196581,-100,4,2,2,60,0,0
197224,-100,4,1,2,60,0,0
197438,-100,4,2,2,60,0,0
197652,-100,4,2,2,5,0,0

[Colours]
Combo1 : 232,187,159
Combo2 : 0,150,206
Combo3 : 28,230,174

[HitObjects]
256,192,510,12,4,3938
255,191,4367,6,0,B|349:186|348:258|441:251,1,200,8|8
421,154,5652,2,0,B|447:75|396:13,1,150
303,52,6724,2,0,B|255:36,2,50,0|8|0
327,95,7367,6,0,B|333:188|261:187|266:280,1,200
365,265,8652,1,8
450,317,9081,1,4
302,341,9724,1,0
302,341,9938,2,0,B|256:367|206:341,2,99.9999999999999,0|8|4
256,251,11224,5,8
166,207,11652,2,0,B|126:169|129:116,1,99.9999999999999,0|8
229,129,12510,2,0,B|225:52|293:0,2,150,0|0|8
318,173,14224,6,0,B|358:137|410:147,1,99.9999999999999,0|8
480,218,15081,2,0,B|440:254|387:243,1,99.9999999999999,0|8
318,172,15938,2,0,B|284:248|203:256,1,150
153,259,16795,2,0,B|210:340,2,99.9999999999999,0|8|4
54,242,18081,5,8
157,70,18938,1,8
235,131,19367,2,0,B|288:144|332:117,1,99.9999999999999,0|8
368,84,20010,2,0,B|406:46|466:47|503:81,1,150,0|8
437,156,21081,6,0,B|420:276,1,99.9999999999999,0|8
328,286,21938,2,0,B|342:186,1,99.9999999999999,0|8
262,126,22795,1,0
164,149,23224,1,8
89,82,23652,2,0,B|78:33,2,50,0|0|8
69,180,24510,5,0
94,276,24938,2,0,B|50:302|0:304,2,99.9999999999999,8|0|8
190,249,26224,2,0,B|242:248|287:270,1,99.9999999999999,0|8
329,296,26867,1,0
377,309,27081,2,0,B|429:314|476:301,2,99.9999999999999,0|8|0
341,215,28367,6,0,B|344:158,1,50,8|0
380,131,28795,1,0
322,48,29224,1,8
222,57,29652,2,0,B|209:111|152:119,1,99.9999999999999,0|8
110,92,30295,2,0,B|122:191,2,99.9999999999999
68,63,31367,6,0,B|11:71|-1:125,1,99.9999999999999,4|8
5,174,32010,2,0,B|44:243|25:319,1,150,0|8
112,367,33081,2,0,B|162:382|210:364,1,99.9999999999999,0|8
254,340,33724,2,0,B|325:304|399:333,1,150,0|8
483,278,34795,5,0
430,192,35224,1,8
483,106,35652,1,0
430,20,36081,1,8
329,20,36510,2,0,B|296:64|242:62,1,99.9999999999999,0|8
193,61,37152,2,0,B|236:94|235:147,1,99.9999999999999
236,197,37795,2,0,B|269:153|322:154,1,99.9999999999999,8|0
417,182,38652,5,8
451,276,39081,2,0,B|452:332|407:361,1,99.9999999999999,0|8
308,348,39938,2,0,B|261:323|210:335,1,99.9999999999999,0|8
162,346,40581,1,0
113,356,40795,2,0,B|62:368|15:343,2,99.9999999999999,0|8|0
121,256,42081,5,0
43,192,42510,1,0
72,96,42938,1,0
256,192,43367,12,4,45081
256,248,45510,5,8
338,192,45938,2,0,B|388:203|388:203|434:191,2,99.9999999999999,0|8|0
256,136,47224,1,8
189,61,47652,6,0,B|224:23|288:23|324:60,1,150
363,91,48510,2,0,B|412:112|461:93,1,99.9999999999999,0|8
493,188,49367,6,0,B|511:236|483:293|434:309,1,150
386,321,50224,2,0,B|338:313|335:339|287:330,3,99.9999999999999,0|8|0|8
210,267,51938,6,0,B|227:217|195:173|195:173|203:122,1,150
174,80,52795,2,0,B|229:86|266:50,1,99.9999999999999,0|8
366,54,53652,2,0,B|417:50|464:93|465:145,1,150
457,194,54510,6,0,B|446:227|446:227|460:259|449:290,2,99.9999999999999,0|8|0
366,152,55795,1,8
305,72,56224,2,0,B|256:91|207:71,2,99.9999999999999,0|8|0
256,192,57188,12,4,58795
256,136,59224,5,8
312,218,59652,2,0,B|337:268|390:274,1,99.9999999999999,0|8
306,330,60510,1,0
206,330,60938,1,8
121,274,61367,6,0,B|175:268|200:218,1,99.9999999999999,0|8
189,119,62224,2,0,B|224:81|288:81|324:118,1,150
349,160,63081,1,0
443,192,63510,1,8
367,257,63938,2,0,B|289:248|221:282,1,150
176,305,64795,6,0,B|131:330|79:328,2,99.9999999999999,0|8|0
233,223,66081,1,8
291,141,66510,2,0,B|336:116|387:117,1,99.9999999999999,0|8
465,55,67367,2,0,B|500:92|496:156|456:189,1,150
413,215,68224,6,0,B|361:213|316:238,2,99.9999999999999,0|8|0
505,252,69510,1,8
428,316,69938,2,0,B|337:319|315:238,1,150
310,188,70795,1,4
256,192,70902,12,4,72510
114,61,79367,6,0,B|98:159,1,99.9999999999999,0|8
125,307,80438,2,0,B|132:257,1,50,0|8
215,201,81081,2,0,B|260:233|310:220,1,99.9999999999999,0|8
459,210,82152,2,0,B|409:200,1,50,0|8
343,125,82795,6,0,B|297:92|308:38,1,99.9999999999999,0|8
203,38,83652,2,0,B|215:92|169:125,1,99.9999999999999,0|8
171,225,84510,2,0,B|225:219|257:179|257:179|289:219|343:226,2,200
168,125,86652,5,8
187,118,87510,1,8
205,125,88367,1,8
223,118,89224,1,8
343,258,90081,5,8
325,266,90939,1,8
256,192,91367,12,4,93081
200,231,93510,5,8
117,174,93938,2,0,B|80:186|43:183,2,74.9999999999999
157,144,94795,2,0,B|230:115|304:134,1,150
342,102,95652,2,0,B|333:52,2,50,0|0|8
391,189,96510,5,0
443,274,96938,2,0,B|416:323|363:326,1,99.9999999999999,8|0
276,277,97795,1,8
192,222,98224,2,0,B|114:196|49:245,1,150
13,210,99081,2,0,B|-2:315,2,99.9999999999999,0|8|4
71,128,100367,5,8
204,59,101010,2,0,B|253:64,1,50,0|8
322,137,101652,2,0,B|420:121,1,99.9999999999999,0|8
456,85,102295,2,0,B|418:159|470:224,2,150,0|8|0
495,54,103795,5,8
403,13,104224,1,0
312,54,104652,1,8
295,152,105081,2,0,B|328:195|309:246,1,99.9999999999999,0|8
277,285,105724,2,0,B|234:318|182:299,1,99.9999999999999
141,270,106367,2,0,B|108:227|126:175,1,99.9999999999999,8|0
204,114,107224,5,8
295,153,107652,2,0,B|369:144,2,74.9999999999999
261,190,108510,2,0,B|302:159|310:96|278:56,1,150
238,26,109367,2,0,B|190:6|132:33|115:82,1,150
113,131,110224,6,0,B|148:228|120:328,1,200
256,265,111724,2,0,B|305:258,1,50,0|4
349,282,112152,2,0,B|435:291|479:224,1,150
436,133,113224,1,8
415,35,113652,5,4
340,101,114081,1,8
305,194,114510,2,0,B|255:173|207:193,1,99.9999999999999,0|8
172,101,115367,1,0
97,35,115796,1,8
76,133,116224,6,0,B|43:211|99:273,1,150
74,316,117081,2,0,B|174:307,1,99.9999999999999,0|8
216,332,117724,1,0
259,356,117938,6,0,B|297:320|346:341|346:341|340:332|340:332|393:353|427:315,1,200
459,220,119224,1,8
402,137,119652,6,0,B|456:95|428:24|356:15|327:75,1,200
256,145,120938,1,8
184,75,121367,2,0,B|155:15|83:24|55:95|110:137,1,200
177,210,122652,2,0,B|169:259,1,50,8|0
126,285,123081,6,0,B|111:383,2,99.9999999999999,0|8|0
213,334,124367,1,8
293,275,124795,2,0,B|388:241|394:311|490:277,1,200
256,192,125760,12,4,127367
336,192,127795,5,8
302,286,128224,2,0,B|256:313|206:285,1,100,0|8
176,192,129081,1,0
256,132,129510,1,8
221,37,129938,6,0,B|143:15|80:63,1,150
49,103,130795,2,0,B|85:169|54:248,1,150
29,291,131652,2,0,B|128:283,1,100,0|8
212,337,132510,2,0,B|291:331|357:359|357:359|335:347|322:320,1,200
309,221,133795,1,8
374,145,134224,6,0,B|419:115|471:135|471:135|491:119|495:93,1,150
493,43,135081,1,0
400,3,135510,1,8
308,43,135938,2,0,B|263:73|211:53|211:53|191:69|186:94,1,150
189,145,136795,5,0
133,228,137224,2,0,B|84:240,2,50,8|0|0
207,294,138081,2,0,B|256:310|305:293,1,100,8|0
379,228,138938,2,0,B|427:240,2,50,8|0|0
256,192,139474,12,4,141081
105,159,147938,6,0,B|116:258,1,100,0|8
195,197,148795,2,0,B|206:296,1,100,0|8
305,296,149652,6,0,B|316:196,1,100,0|8
395,258,150509,2,0,B|406:158,1,100,0|8
353,73,151367,6,0,B|293:103|284:57|228:57|215:105|158:73,2,200,0|0|0
256,192,153188,12,0,154688
256,192,154795,12,0,157795
338,192,158224,1,4
256,136,158653,1,8
174,192,159081,2,0,B|124:181|124:181|78:193,2,99.9999999999999,0|8|0
256,248,160367,1,8
323,323,160795,6,0,B|288:361|224:361|188:324,1,150
149,293,161653,2,0,B|100:272|51:291,1,99.9999999999999,0|8
19,196,162510,6,0,B|1:148|29:91|78:75,1,150
126,63,163367,2,0,B|174:71|177:45|225:54,3,99.9999999999999,0|8|0|8
302,117,165081,6,0,B|285:167|317:211|317:211|309:262,1,150
338,304,165938,2,0,B|283:298|246:334,1,99.9999999999999,0|8
146,330,166795,2,0,B|95:334|48:291|47:239,1,150
55,190,167653,6,0,B|66:157|66:157|52:125|63:94,2,99.9999999999999,0|8|0
146,232,168938,1,8
207,312,169367,2,0,B|256:293|305:313,2,99.9999999999999,0|8|0
256,192,170331,12,4,171938
256,248,172367,5,8
200,166,172795,2,0,B|175:116|122:110,1,99.9999999999999,0|8
206,54,173653,1,0
306,54,174081,1,8
391,110,174510,6,0,B|337:116|312:166,1,99.9999999999999,0|8
323,265,175367,2,0,B|288:303|224:303|188:266,1,150
163,224,176224,1,0
69,192,176653,1,8
145,127,177081,2,0,B|223:136|291:102,1,150
336,79,177938,6,0,B|381:54|433:56,2,99.9999999999999,0|8|0
279,161,179224,1,8
221,243,179653,2,0,B|176:268|125:267,1,99.9999999999999,0|8
47,329,180510,2,0,B|12:292|16:228|56:195,1,150
99,169,181367,6,0,B|151:171|196:146,2,99.9999999999999,0|8|0
7,132,182653,1,8
83,67,183081,2,0,B|175:65|196:145,1,150
202,196,183938,1,4
256,192,184045,12,0,185653
256,264,186081,5,8
440,192,186938,1,8
256,120,187795,1,8
122,192,188438,2,0,B|72:192,1,50,0|8
0,264,189081,5,0
72,333,189510,2,0,B|120:355|168:333,1,100,8|0
207,241,190367,2,0,B|255:219|303:241,1,100,8|4
343,333,191224,1,0
256,192,191652,12,4,192510
322,159,192938,6,0,B|336:60,2,100,8|0|8
256,234,194224,2,0,B|270:332,2,100,0|8|0
190,159,195510,1,8
112,96,195938,6,0,B|140:52|203:42|245:73,1,150
276,112,196795,2,0,B|317:142|380:132|409:89,1,150
256,192,197652,12,0,201081
