osu file format v12

[General]
AudioFilename: Watashi no Koi wa Hotch-kiss.mp3
AudioLeadIn: 2500
PreviewTime: 61311
Countdown: 0
SampleSet: Soft
StackLeniency: 0.7
Mode: 3
LetterboxInBreaks: 1

[Editor]
DistanceSpacing: 0.8
BeatDivisor: 4
GridSize: 16

[Metadata]
Title:Watashi no Koi wa Hotchkiss
TitleUnicode:Watashi no Koi wa Hotchkiss
Artist:Toyosaki Aki & Hisaka Yoko
ArtistUnicode:Toyosaki Aki & Hisaka Yoko
Creator:indyinyou
Version:Drum
Source:K-ON!
Tags:toyosaki aki hikasa youko satou satomi kotobuki minako hirasawa yui akiyama mio tainaka ritsu kotobuki tsumugi my love is a stapler
BeatmapID:252969
BeatmapSetID:93877

[Difficulty]
HPDrainRate:8
CircleSize:7
OverallDifficulty:8
ApproachRate:5
SliderMultiplier:1.4
SliderTickRate:1

[Events]
//Background and Video events
0,0,"BGKON.jpg",0,0
//Break Periods
//Storyboard Layer 0 (Background)
//Storyboard Layer 1 (Fail)
//Storyboard Layer 2 (Pass)
//Storyboard Layer 3 (Foreground)
//Storyboard Sound Samples
//Background Colour Transformations
3,100,163,162,255

[TimingPoints]
388,461.538461538462,4,2,1,65,1,0
501,-100,4,1,1,65,0,0
954,-100,4,3,2,65,0,0
1294,-100,4,1,1,65,0,0
2118,-100,4,2,1,45,0,0
2349,-100,4,2,1,55,0,0
8118,-100,4,2,1,40,0,0
8349,-100,4,2,1,55,0,0
9503,-100,4,2,1,40,0,0
9734,-100,4,2,1,55,0,0
14176,-100,4,1,1,55,0,0
14349,-100,4,2,1,55,0,0
14926,-100,4,1,1,55,0,0
15157,-100,4,2,1,45,0,0
16426,-100,4,1,1,75,0,0
16888,-100,4,2,1,45,0,0
17118,-100,4,3,2,55,0,0
22426,-100,4,3,1,55,0,0
22657,-100,4,3,2,55,0,0
24272,-100,4,2,1,40,0,0
24503,-100,4,2,3,55,0,0
25888,-100,4,2,1,40,0,0
26118,-100,4,2,3,55,0,0
27964,-100,4,2,1,40,0,0
28195,-100,4,2,3,55,0,0
29580,-100,4,2,1,40,0,0
29811,-100,4,2,3,55,0,0
31657,-100,4,2,1,40,0,0
31888,-100,4,3,2,55,0,0
39099,-100,4,2,1,40,0,0
39272,-100,4,2,3,55,0,0
40657,-100,4,2,1,40,0,0
40888,-100,4,2,3,55,0,0
45272,-100,4,2,1,40,0,0
45503,-100,4,1,1,55,0,0
46426,-100,4,2,1,40,0,0
46657,-100,4,2,1,65,0,0
53349,-100,4,1,1,40,0,0
53811,-100,4,2,1,40,0,0
54041,-100,4,2,3,55,0,0
57503,-100,4,2,1,55,0,0
57734,-100,4,2,3,55,0,0
59464,-100,4,2,1,55,0,0
60388,-100,4,1,1,55,0,0
61195,-100,4,2,1,75,0,0
61311,-100,4,2,1,75,0,1
61426,-100,4,2,3,75,0,1
68638,-100,4,2,1,65,0,1
68811,-100,4,2,3,75,0,1
75505,-100,4,1,1,75,0,1
76022,-100,4,2,1,65,0,1
76138,-100,4,2,3,75,0,1
83407,-100,4,2,1,45,0,1
83522,-100,4,2,3,75,0,1
87041,-100,4,2,1,55,0,1
87272,-100,4,2,3,75,0,1
87734,-100,4,1,1,75,0,1
88945,-100,4,2,1,55,0,1
89003,-100,4,2,1,55,0,0
89061,-100,4,3,3,45,0,0
98118,-100,4,2,1,45,0,0
98349,-100,4,2,1,45,0,0
101118,-100,4,2,3,35,0,0
101349,-100,4,2,1,45,0,0
101811,-100,4,2,1,45,0,0
102041,-100,4,2,1,65,0,0
102964,-100,4,1,1,35,0,0
103426,-100,4,2,1,45,0,0
103888,-100,4,2,1,45,0,0
104118,-100,4,2,1,50,0,0
104349,-100,4,2,1,55,0,0
105561,-100,4,2,1,50,0,0
105676,-100,4,2,1,60,0,0

[HitObjects]
36,192,388,1,4,0:0:0:0:
475,192,388,1,2,0:0:0:0:
402,192,618,1,4,0:0:0:0:
329,192,695,1,4,0:0:0:0:
256,192,772,1,2,0:0:0:0:
182,192,849,1,2,0:0:0:0:
475,192,1080,1,8,0:0:0:0:
402,192,1157,1,2,0:0:0:0:
182,192,1157,1,4,0:0:0:0:
475,192,1464,1,2,0:0:0:0:
329,192,1541,1,8,0:0:0:0:
109,192,1772,1,8,0:0:0:0:
256,192,1849,1,2,0:0:0:0:
402,192,2003,1,4,0:0:0:0:
475,192,2234,1,2,0:0:0:0:
36,192,2234,1,4,0:0:0:0:
109,192,2464,1,2,0:0:0:0:
475,192,2695,1,8,0:0:0:0:
109,192,2926,1,2,0:0:0:0:
329,192,3041,1,8,0:0:0:0:
182,192,3272,1,8,0:0:0:0:
109,192,3388,1,2,0:0:0:0:
475,192,3618,1,8,0:0:0:0:
109,192,4080,1,2,0:0:0:0:
109,192,4311,1,2,0:0:0:0:
475,192,4541,1,8,0:0:0:0:
109,192,4772,1,2,0:0:0:0:
329,192,4888,1,8,0:0:0:0:
182,192,5118,1,8,0:0:0:0:
109,192,5234,1,2,0:0:0:0:
475,192,5464,1,8,0:0:0:0:
109,192,5926,1,2,0:0:0:0:
109,192,6157,1,2,0:0:0:0:
475,192,6388,1,8,0:0:0:0:
109,192,6618,1,2,0:0:0:0:
329,192,6734,1,8,0:0:0:0:
182,192,6964,1,8,0:0:0:0:
109,192,7080,1,2,0:0:0:0:
475,192,7311,1,8,0:0:0:0:
256,192,7772,1,2,0:0:0:0:
256,192,8003,1,2,0:0:0:0:
36,192,8234,1,4,0:0:0:0:
329,192,8234,1,8,0:0:0:0:
109,192,8464,1,2,0:0:0:0:
182,192,8580,1,8,0:0:0:0:
329,192,8811,1,8,0:0:0:0:
402,192,8926,1,2,0:0:0:0:
182,192,9157,1,8,0:0:0:0:
256,192,9388,1,2,0:0:0:0:
36,192,9618,1,4,0:0:0:0:
475,192,9618,1,2,0:0:0:0:
402,192,9849,1,2,0:0:0:0:
36,192,10080,1,8,0:0:0:0:
402,192,10311,1,2,0:0:0:0:
182,192,10426,1,8,0:0:0:0:
182,192,10657,1,8,0:0:0:0:
402,192,10772,1,2,0:0:0:0:
36,192,11003,1,8,0:0:0:0:
402,192,11464,1,2,0:0:0:0:
402,192,11695,1,2,0:0:0:0:
36,192,11926,1,8,0:0:0:0:
402,192,12157,1,2,0:0:0:0:
182,192,12272,1,8,0:0:0:0:
182,192,12503,1,8,0:0:0:0:
402,192,12618,1,2,0:0:0:0:
36,192,12849,1,8,0:0:0:0:
109,192,13311,1,2,0:0:0:0:
402,192,13541,1,2,0:0:0:0:
329,192,13772,1,8,0:0:0:0:
109,192,14003,1,8,0:0:0:0:
182,192,14118,1,8,0:0:0:0:
256,192,14234,1,2,0:0:0:0:
402,192,14234,1,4,0:0:0:0:
182,192,14464,1,8,0:0:0:0:
329,192,14695,1,8,0:0:0:0:
182,192,14811,1,8,0:0:0:0:
256,192,14926,1,2,0:0:0:0:
329,192,15041,1,4,0:0:0:0:
475,192,15157,1,2,0:0:0:0:
36,192,15157,1,4,0:0:0:0:
109,192,16541,1,2,0:0:0:0:
402,192,16618,1,2,0:0:0:0:
36,192,17003,1,4,0:0:0:0:
475,192,17003,1,2,0:0:0:0:
182,192,17464,1,8,0:0:0:0:
182,192,17811,1,8,0:0:0:0:
402,192,17926,1,2,0:0:0:0:
402,192,18157,1,2,0:0:0:0:
182,192,18388,1,8,0:0:0:0:
402,192,18618,1,2,0:0:0:0:
36,192,18618,1,4,0:0:0:0:
402,192,19080,1,2,0:0:0:0:
36,192,19080,1,4,0:0:0:0:
182,192,19311,1,8,0:0:0:0:
402,192,19541,1,2,0:0:0:0:
36,192,19541,1,4,0:0:0:0:
182,192,19657,1,8,0:0:0:0:
402,192,19772,1,2,0:0:0:0:
36,192,20003,1,4,0:0:0:0:
256,192,20003,1,2,0:0:0:0:
182,192,20234,1,8,0:0:0:0:
402,192,20464,1,2,0:0:0:0:
36,192,20464,1,4,0:0:0:0:
256,192,20695,1,2,0:0:0:0:
182,192,21157,1,8,0:0:0:0:
182,192,21503,1,8,0:0:0:0:
402,192,21618,1,2,0:0:0:0:
402,192,21849,1,2,0:0:0:0:
182,192,22080,1,8,0:0:0:0:
402,192,22311,1,2,0:0:0:0:
36,192,22311,1,4,0:0:0:0:
182,192,22657,1,8,0:0:0:0:
402,192,22772,1,2,0:0:0:0:
36,192,22772,1,4,0:0:0:0:
182,192,23003,1,8,0:0:0:0:
402,192,23234,1,2,0:0:0:0:
36,192,23234,1,4,0:0:0:0:
256,192,23464,1,2,0:0:0:0:
402,192,23695,1,2,0:0:0:0:
36,192,23695,1,4,0:0:0:0:
109,192,23926,1,8,0:0:0:0:
256,192,24080,1,8,0:0:0:0:
402,192,24157,1,8,0:0:0:0:
36,192,24388,1,4,0:0:0:0:
475,192,24388,1,2,0:0:0:0:
182,192,24849,1,8,0:0:0:0:
36,192,24849,1,4,0:0:0:0:
329,192,25195,1,8,0:0:0:0:
402,192,25311,1,6,0:0:0:0:
36,192,25311,1,4,0:0:0:0:
402,192,25541,1,2,0:0:0:0:
182,192,25772,1,8,0:0:0:0:
36,192,25772,1,4,0:0:0:0:
329,192,26003,1,4,0:0:0:0:
109,192,26003,1,2,0:0:0:0:
36,192,26234,1,4,0:0:0:0:
402,192,26234,1,2,0:0:0:0:
402,192,26464,1,2,0:0:0:0:
182,192,26695,1,8,0:0:0:0:
36,192,26695,1,4,0:0:0:0:
329,192,26926,1,8,0:0:0:0:
402,192,27080,1,2,0:0:0:0:
36,192,27157,1,4,0:0:0:0:
475,192,27157,1,2,0:0:0:0:
402,192,27388,1,2,0:0:0:0:
182,192,27618,1,8,0:0:0:0:
36,192,27618,1,4,0:0:0:0:
256,192,27695,1,8,0:0:0:0:
402,192,27849,1,2,0:0:0:0:
36,192,28080,1,4,0:0:0:0:
329,192,28080,1,2,0:0:0:0:
475,192,28541,1,4,0:0:0:0:
329,192,28541,1,8,0:0:0:0:
182,192,28888,1,8,0:0:0:0:
109,192,29003,1,2,0:0:0:0:
475,192,29003,1,4,0:0:0:0:
109,192,29234,1,2,0:0:0:0:
329,192,29464,1,8,0:0:0:0:
475,192,29464,1,4,0:0:0:0:
36,192,29695,1,4,0:0:0:0:
402,192,29695,1,2,0:0:0:0:
402,192,30157,1,2,0:0:0:0:
109,192,30157,1,2,0:0:0:0:
329,192,30388,1,8,0:0:0:0:
475,192,30388,1,4,0:0:0:0:
109,192,30618,1,2,0:0:0:0:
256,192,30618,1,2,0:0:0:0:
402,192,30849,1,2,0:0:0:0:
256,192,30849,1,2,0:0:0:0:
329,192,31080,1,8,0:0:0:0:
182,192,31080,1,2,0:0:0:0:
182,192,31311,1,8,0:0:0:0:
329,192,31311,1,2,0:0:0:0:
402,192,31541,1,2,0:0:0:0:
109,192,31541,1,2,0:0:0:0:
36,192,31772,1,4,0:0:0:0:
475,192,31772,1,2,0:0:0:0:
329,192,32234,1,8,0:0:0:0:
182,192,32580,1,8,0:0:0:0:
109,192,32695,1,2,0:0:0:0:
109,192,32926,1,2,0:0:0:0:
329,192,33157,1,8,0:0:0:0:
109,192,33388,1,2,0:0:0:0:
475,192,33388,1,4,0:0:0:0:
182,192,33734,1,8,0:0:0:0:
109,192,33849,1,2,0:0:0:0:
475,192,33849,1,4,0:0:0:0:
329,192,34080,1,8,0:0:0:0:
109,192,34311,1,2,0:0:0:0:
475,192,34311,1,4,0:0:0:0:
182,192,34426,1,8,0:0:0:0:
475,192,34657,1,8,0:0:0:0:
109,192,34772,1,6,0:0:0:0:
329,192,35003,1,8,0:0:0:0:
109,192,35234,1,2,0:0:0:0:
475,192,35234,1,4,0:0:0:0:
256,192,35464,1,2,0:0:0:0:
402,192,35464,1,2,0:0:0:0:
182,192,35926,1,8,0:0:0:0:
329,192,36272,1,8,0:0:0:0:
402,192,36388,1,2,0:0:0:0:
402,192,36618,1,2,0:0:0:0:
182,192,36849,1,8,0:0:0:0:
402,192,37080,1,2,0:0:0:0:
36,192,37080,1,4,0:0:0:0:
329,192,37426,1,8,0:0:0:0:
402,192,37541,1,2,0:0:0:0:
36,192,37541,1,4,0:0:0:0:
182,192,37772,1,8,0:0:0:0:
402,192,38003,1,2,0:0:0:0:
36,192,38003,1,4,0:0:0:0:
109,192,38234,1,2,0:0:0:0:
402,192,38464,1,6,0:0:0:0:
182,192,38695,1,8,0:0:0:0:
402,192,38849,1,8,0:0:0:0:
109,192,38926,1,8,0:0:0:0:
329,192,39003,1,8,0:0:0:0:
36,192,39157,1,6,0:0:0:0:
475,192,39157,1,6,0:0:0:0:
182,192,39618,1,8,0:0:0:0:
475,192,39618,1,4,0:0:0:0:
109,192,39964,1,8,0:0:0:0:
329,192,40080,1,2,0:0:0:0:
475,192,40080,1,4,0:0:0:0:
402,192,40311,1,2,0:0:0:0:
182,192,40541,1,8,0:0:0:0:
475,192,40541,1,4,0:0:0:0:
402,192,40772,1,2,0:0:0:0:
36,192,40772,1,4,0:0:0:0:
475,192,41003,1,4,0:0:0:0:
256,192,41234,1,2,0:0:0:0:
182,192,41464,1,8,0:0:0:0:
475,192,41464,1,4,0:0:0:0:
109,192,41811,1,8,0:0:0:0:
256,192,41926,1,2,0:0:0:0:
475,192,41926,1,4,0:0:0:0:
402,192,42157,1,2,0:0:0:0:
109,192,42157,1,2,0:0:0:0:
182,192,42388,1,8,0:0:0:0:
475,192,42388,1,4,0:0:0:0:
256,192,42849,1,6,0:0:0:0:
182,192,43311,1,8,0:0:0:0:
475,192,43311,1,4,0:0:0:0:
109,192,43657,1,8,0:0:0:0:
256,192,43772,1,2,0:0:0:0:
475,192,43772,1,4,0:0:0:0:
402,192,44003,1,2,0:0:0:0:
182,192,44234,1,8,0:0:0:0:
475,192,44234,1,4,0:0:0:0:
402,192,44464,1,2,0:0:0:0:
109,192,44695,1,2,0:0:0:0:
329,192,44926,1,8,0:0:0:0:
182,192,45041,1,10,0:0:0:0:
329,192,45157,1,10,0:0:0:0:
36,192,45388,1,4,0:0:0:0:
475,192,45388,1,2,0:0:0:0:
109,192,45734,1,2,0:0:0:0:
182,192,45849,1,8,0:0:0:0:
329,192,45849,1,4,0:0:0:0:
402,192,46080,1,8,0:0:0:0:
256,192,46195,1,8,0:0:0:0:
109,192,46311,1,2,0:0:0:0:
36,192,46541,1,4,0:0:0:0:
475,192,46541,1,2,0:0:0:0:
36,192,47003,1,0,0:0:0:0:
256,192,47234,1,2,0:0:0:0:
36,192,47464,1,0,0:0:0:0:
329,192,47926,1,8,0:0:0:0:
36,192,47926,1,0,0:0:0:0:
36,192,48388,1,0,0:0:0:0:
256,192,48618,1,2,0:0:0:0:
36,192,48849,1,0,0:0:0:0:
256,192,49311,1,2,0:0:0:0:
36,192,49311,1,0,0:0:0:0:
256,192,49541,1,2,0:0:0:0:
329,192,49772,1,8,0:0:0:0:
36,192,49772,1,0,0:0:0:0:
402,192,50234,1,2,0:0:0:0:
36,192,50234,1,0,0:0:0:0:
36,192,50695,1,0,0:0:0:0:
256,192,50695,1,2,0:0:0:0:
256,192,50926,1,2,0:0:0:0:
36,192,51157,1,0,0:0:0:0:
329,192,51618,1,8,0:0:0:0:
36,192,51618,1,0,0:0:0:0:
36,192,52080,1,0,0:0:0:0:
402,192,52311,1,2,0:0:0:0:
36,192,52541,1,0,0:0:0:0:
256,192,52772,1,2,0:0:0:0:
109,192,52772,1,2,0:0:0:0:
402,192,53003,1,2,0:0:0:0:
36,192,53003,1,0,0:0:0:0:
109,192,53234,1,2,0:0:0:0:
329,192,53464,1,8,0:0:0:0:
256,192,53580,1,2,0:0:0:0:
182,192,53695,1,4,0:0:0:0:
36,192,53926,1,4,0:0:0:0:
475,192,53926,1,2,0:0:0:0:
36,192,54388,1,4,0:0:0:0:
182,192,54388,1,8,0:0:0:0:
402,192,54618,1,2,0:0:0:0:
36,192,54849,1,4,0:0:0:0:
402,192,55080,1,2,0:0:0:0:
182,192,55311,1,8,0:0:0:0:
36,192,55311,1,4,0:0:0:0:
402,192,55541,1,2,0:0:0:0:
256,192,55772,1,6,0:0:0:0:
109,192,56003,1,2,0:0:0:0:
475,192,56234,1,4,0:0:0:0:
329,192,56234,1,8,0:0:0:0:
109,192,56464,1,2,0:0:0:0:
475,192,56695,1,4,0:0:0:0:
109,192,56926,1,2,0:0:0:0:
475,192,57157,1,4,0:0:0:0:
329,192,57157,1,8,0:0:0:0:
402,192,57388,1,2,0:0:0:0:
109,192,57388,1,2,0:0:0:0:
36,192,57618,1,4,0:0:0:0:
475,192,57618,1,2,0:0:0:0:
109,192,57849,1,8,0:0:0:0:
402,192,57849,1,2,0:0:0:0:
402,192,58080,1,2,0:0:0:0:
109,192,58080,1,8,0:0:0:0:
182,192,58311,1,8,0:0:0:0:
329,192,58311,1,2,0:0:0:0:
329,192,58541,1,2,0:0:0:0:
182,192,58541,1,8,0:0:0:0:
109,192,58772,1,8,0:0:0:0:
402,192,58888,1,8,0:0:0:0:
182,192,59003,1,8,0:0:0:0:
329,192,59118,1,8,0:0:0:0:
109,192,59234,1,8,0:0:0:0:
402,192,59349,1,8,0:0:0:0:
36,192,59464,1,4,0:0:0:0:
475,192,59464,1,2,0:0:0:0:
109,192,60618,1,4,0:0:0:0:
402,192,60618,1,2,0:0:0:0:
329,192,60849,1,8,0:0:0:0:
182,192,60964,1,8,0:0:0:0:
329,192,61080,1,2,0:0:0:0:
36,192,61311,1,4,0:0:0:0:
475,192,61311,1,2,0:0:0:0:
109,192,61541,1,2,0:0:0:0:
475,192,61772,1,4,0:0:0:0:
329,192,61772,1,8,0:0:0:0:
109,192,62234,1,2,0:0:0:0:
475,192,62234,1,4,0:0:0:0:
109,192,62464,1,2,0:0:0:0:
329,192,62695,1,8,0:0:0:0:
475,192,62695,1,4,0:0:0:0:
256,192,63157,1,2,0:0:0:0:
36,192,63157,1,4,0:0:0:0:
256,192,63388,1,2,0:0:0:0:
475,192,63618,1,4,0:0:0:0:
329,192,63618,1,8,0:0:0:0:
329,192,63964,1,8,0:0:0:0:
109,192,64080,1,2,0:0:0:0:
475,192,64080,1,4,0:0:0:0:
182,192,64195,1,8,0:0:0:0:
402,192,64311,1,2,0:0:0:0:
475,192,64541,1,4,0:0:0:0:
329,192,64541,1,8,0:0:0:0:
256,192,65003,1,2,0:0:0:0:
475,192,65003,1,4,0:0:0:0:
256,192,65234,1,2,0:0:0:0:
36,192,65464,1,4,0:0:0:0:
182,192,65464,1,8,0:0:0:0:
109,192,65695,1,2,0:0:0:0:
182,192,65811,1,8,0:0:0:0:
402,192,65926,1,2,0:0:0:0:
36,192,65926,1,4,0:0:0:0:
329,192,66041,1,8,0:0:0:0:
109,192,66157,1,2,0:0:0:0:
182,192,66388,1,8,0:0:0:0:
36,192,66388,1,4,0:0:0:0:
256,192,66849,1,2,0:0:0:0:
36,192,66849,1,4,0:0:0:0:
256,192,67080,1,2,0:0:0:0:
329,192,67311,1,4,0:0:0:0:
109,192,67311,1,8,0:0:0:0:
109,192,67657,1,8,0:0:0:0:
475,192,67772,1,2,0:0:0:0:
329,192,67772,1,4,0:0:0:0:
109,192,67888,1,8,0:0:0:0:
475,192,68003,1,2,0:0:0:0:
329,192,68234,1,4,0:0:0:0:
109,192,68234,1,8,0:0:0:0:
402,192,68464,1,8,0:0:0:0:
109,192,68580,1,8,0:0:0:0:
36,192,68695,1,4,0:0:0:0:
475,192,68695,1,2,0:0:0:0:
256,192,68926,1,2,0:0:0:0:
182,192,69157,1,8,0:0:0:0:
36,192,69157,1,4,0:0:0:0:
182,192,69503,1,8,0:0:0:0:
402,192,69618,1,2,0:0:0:0:
36,192,69618,1,4,0:0:0:0:
182,192,69734,1,8,0:0:0:0:
402,192,69849,1,2,0:0:0:0:
182,192,70080,1,8,0:0:0:0:
36,192,70080,1,4,0:0:0:0:
402,192,70541,1,2,0:0:0:0:
36,192,70541,1,4,0:0:0:0:
109,192,70772,1,2,0:0:0:0:
402,192,70772,1,2,0:0:0:0:
182,192,71003,1,8,0:0:0:0:
36,192,71003,1,4,0:0:0:0:
182,192,71349,1,8,0:0:0:0:
402,192,71464,1,2,0:0:0:0:
36,192,71464,1,4,0:0:0:0:
329,192,71580,1,8,0:0:0:0:
109,192,71695,1,2,0:0:0:0:
182,192,71926,1,8,0:0:0:0:
36,192,71926,1,4,0:0:0:0:
402,192,72157,1,2,0:0:0:0:
256,192,72157,1,2,0:0:0:0:
109,192,72388,1,2,0:0:0:0:
475,192,72388,1,4,0:0:0:0:
109,192,72618,1,2,0:0:0:0:
329,192,72849,1,8,0:0:0:0:
475,192,72849,1,4,0:0:0:0:
109,192,73080,1,2,0:0:0:0:
182,192,73195,1,8,0:0:0:0:
109,192,73311,1,2,0:0:0:0:
475,192,73311,1,4,0:0:0:0:
329,192,73426,1,8,0:0:0:0:
109,192,73541,1,2,0:0:0:0:
329,192,73772,1,8,0:0:0:0:
475,192,73772,1,4,0:0:0:0:
329,192,74118,1,8,0:0:0:0:
256,192,74234,1,2,0:0:0:0:
182,192,74311,1,2,0:0:0:0:
109,192,74349,1,2,0:0:0:0:
109,192,74541,1,2,0:0:0:0:
256,192,74580,1,2,0:0:0:0:
402,192,74618,1,2,0:0:0:0:
329,192,74695,1,8,0:0:0:0:
256,192,74926,1,2,0:0:0:0:
109,192,75003,1,2,0:0:0:0:
182,192,75041,1,8,0:0:0:0:
402,192,75157,1,2,0:0:0:0:
402,192,75388,1,2,0:0:0:0:
109,192,75388,1,2,0:0:0:0:
182,192,75618,1,8,0:0:0:0:
402,192,75695,1,4,0:0:0:0:
329,192,75772,1,2,0:0:0:0:
109,192,75849,1,2,0:0:0:0:
256,192,76003,1,2,0:0:0:0:
36,192,76080,1,4,0:0:0:0:
475,192,76080,1,2,0:0:0:0:
109,192,76311,1,2,0:0:0:0:
329,192,76541,1,4,0:0:0:0:
402,192,76541,1,8,0:0:0:0:
109,192,76772,1,2,0:0:0:0:
182,192,76888,1,8,0:0:0:0:
109,192,77003,1,2,0:0:0:0:
329,192,77003,1,4,0:0:0:0:
402,192,77118,1,8,0:0:0:0:
256,192,77234,1,2,0:0:0:0:
329,192,77464,1,4,0:0:0:0:
402,192,77464,1,8,0:0:0:0:
109,192,77695,1,2,0:0:0:0:
109,192,77926,1,2,0:0:0:0:
329,192,77926,1,4,0:0:0:0:
109,192,78157,1,2,0:0:0:0:
402,192,78388,1,8,0:0:0:0:
329,192,78388,1,4,0:0:0:0:
109,192,78618,1,2,0:0:0:0:
182,192,78734,1,8,0:0:0:0:
109,192,78849,1,2,0:0:0:0:
329,192,78849,1,4,0:0:0:0:
182,192,78964,1,8,0:0:0:0:
256,192,79080,1,2,0:0:0:0:
329,192,79311,1,4,0:0:0:0:
402,192,79311,1,8,0:0:0:0:
256,192,79541,1,2,0:0:0:0:
109,192,79772,1,2,0:0:0:0:
329,192,79772,1,4,0:0:0:0:
256,192,80003,1,2,0:0:0:0:
182,192,80234,1,4,0:0:0:0:
109,192,80234,1,8,0:0:0:0:
402,192,80464,1,2,0:0:0:0:
329,192,80580,1,8,0:0:0:0:
402,192,80695,1,2,0:0:0:0:
182,192,80695,1,4,0:0:0:0:
109,192,80811,1,8,0:0:0:0:
256,192,80926,1,2,0:0:0:0:
182,192,81157,1,4,0:0:0:0:
109,192,81157,1,8,0:0:0:0:
402,192,81388,1,2,0:0:0:0:
109,192,81503,1,8,0:0:0:0:
402,192,81618,1,2,0:0:0:0:
182,192,81618,1,4,0:0:0:0:
329,192,81734,1,8,0:0:0:0:
256,192,81849,1,2,0:0:0:0:
109,192,82080,1,8,0:0:0:0:
182,192,82080,1,4,0:0:0:0:
402,192,82311,1,2,0:0:0:0:
329,192,82426,1,8,0:0:0:0:
402,192,82541,1,2,0:0:0:0:
182,192,82541,1,4,0:0:0:0:
109,192,82657,1,8,0:0:0:0:
402,192,82888,1,2,0:0:0:0:
182,192,83003,1,4,0:0:0:0:
109,192,83003,1,8,0:0:0:0:
256,192,83234,1,2,0:0:0:0:
329,192,83349,1,8,0:0:0:0:
36,192,83464,1,4,0:0:0:0:
475,192,83464,1,2,0:0:0:0:
402,192,83618,1,2,0:0:0:0:
256,192,83695,1,2,0:0:0:0:
182,192,83926,1,8,0:0:0:0:
36,192,83926,1,4,0:0:0:0:
329,192,84272,1,8,0:0:0:0:
402,192,84388,1,2,0:0:0:0:
182,192,84388,1,4,0:0:0:0:
329,192,84503,1,8,0:0:0:0:
402,192,84618,1,2,0:0:0:0:
182,192,84849,1,8,0:0:0:0:
36,192,84849,1,4,0:0:0:0:
109,192,85311,1,2,0:0:0:0:
475,192,85311,1,4,0:0:0:0:
109,192,85541,1,2,0:0:0:0:
329,192,85772,1,8,0:0:0:0:
475,192,85772,1,4,0:0:0:0:
109,192,86003,1,2,0:0:0:0:
182,192,86118,1,8,0:0:0:0:
109,192,86234,1,2,0:0:0:0:
475,192,86234,1,4,0:0:0:0:
182,192,86349,1,8,0:0:0:0:
256,192,86464,1,2,0:0:0:0:
329,192,86695,1,8,0:0:0:0:
475,192,86695,1,4,0:0:0:0:
256,192,86926,1,2,0:0:0:0:
36,192,87157,1,4,0:0:0:0:
475,192,87157,1,2,0:0:0:0:
256,192,87388,1,2,0:0:0:0:
182,192,87618,1,8,0:0:0:0:
329,192,87618,1,4,0:0:0:0:
109,192,87849,1,8,0:0:0:0:
182,192,87964,1,8,0:0:0:0:
256,192,88080,1,2,0:0:0:0:
329,192,88195,1,8,0:0:0:0:
402,192,88311,1,8,0:0:0:0:
109,192,88426,1,2,0:0:0:0:
256,192,88541,1,4,0:0:0:0:
402,192,88657,1,8,0:0:0:0:
182,192,88772,1,10,0:0:0:0:
329,192,88888,1,4,0:0:0:0:
475,192,89003,1,2,0:0:0:0:
36,192,89003,1,4,0:0:0:0:
36,192,90388,1,0,0:0:0:0:
256,192,90618,1,2,0:0:0:0:
256,192,90849,1,2,0:0:0:0:
475,192,92580,1,4,0:0:0:0:
402,192,92638,1,4,0:0:0:0:
329,192,92695,1,4,0:0:0:0:
182,192,93388,1,4,0:0:0:0:
475,192,94311,1,4,0:0:0:0:
402,192,94426,1,4,0:0:0:0:
329,192,94484,1,4,0:0:0:0:
182,192,94541,1,4,0:0:0:0:
36,192,94772,1,4,0:0:0:0:
182,192,95003,1,4,0:0:0:0:
329,192,95234,1,4,0:0:0:0:
402,192,97541,1,2,0:0:0:0:
109,192,97541,1,2,0:0:0:0:
329,192,97772,1,0,0:0:0:0:
182,192,97772,1,4,0:0:0:70:drum-hitfinish.wav
36,192,98234,1,4,0:0:0:0:
475,192,98234,1,2,0:0:0:0:
36,192,98695,1,0,0:0:0:0:
256,192,98926,1,2,0:0:0:0:
36,192,99157,1,0,0:0:0:0:
36,192,99618,1,0,0:0:0:0:
256,192,99849,1,2,0:0:0:0:
256,192,100080,1,2,0:0:0:0:
475,192,100541,1,0,0:0:0:0:
475,192,101003,1,0,0:0:0:0:
402,192,101234,1,0,0:0:0:0:
109,192,101234,1,4,0:0:0:70:drum-hitfinish.wav
329,192,101464,1,8,0:0:0:0:
182,192,101464,1,2,0:0:0:0:
256,192,101695,1,2,0:0:0:0:
36,192,101926,1,4,0:0:0:0:
475,192,101926,1,2,0:0:0:0:
475,192,102388,1,0,0:0:0:0:
256,192,102618,1,2,0:0:0:0:
402,192,103080,1,2,0:0:0:0:
109,192,103080,1,2,0:0:0:0:
329,192,103311,1,4,0:0:0:0:
182,192,103311,1,4,0:0:0:0:
256,192,103541,1,2,0:0:0:0:
475,192,103772,1,2,0:0:0:0:
36,192,103772,1,4,0:0:0:0:
109,192,104003,1,2,0:0:0:0:
402,192,104003,1,8,0:0:0:0:
402,192,104234,1,8,0:0:0:0:
109,192,104234,1,2,0:0:0:0:
109,192,104464,1,2,0:0:0:0:
402,192,104464,1,8,0:0:0:0:
402,192,104695,1,8,0:0:0:0:
109,192,104695,1,2,0:0:0:0:
36,192,104926,1,8,0:0:0:0:
475,192,105041,1,8,0:0:0:0:
109,192,105157,1,8,0:0:0:0:
402,192,105272,1,8,0:0:0:0:
109,192,105388,1,8,0:0:0:0:
402,192,105503,1,8,0:0:0:0:
475,192,105618,1,2,0:0:0:0:
36,192,105618,1,4,0:0:0:0:
