osu file format v14

[General]
AudioFilename: AIMAI-Hz (TV Size).mp3
AudioLeadIn: 0
PreviewTime: 6052
Countdown: 0
SampleSet: Soft
StackLeniency: 0.7
Mode: 0
LetterboxInBreaks: 1
WidescreenStoryboard: 1

[Editor]
DistanceSpacing: 0.7
BeatDivisor: 4
GridSize: 4
TimelineZoom: 1.5

[Metadata]
Title:AIMAI-Hz (TV Size)
TitleUnicode:AIMAI-Hz (TV Size)
Artist:Toyama Nao, Hanazawa Kana, Komatsu Mikako, Asumi Kana
ArtistUnicode:Toyama Nao, Hanazawa Kana, Komatsu Mikako, Asumi Kana
Creator:Stone Gaze
Version:Normal
Source:Nisekoi
Tags:Toyama Nao, Hanazawa Kana, Komatsu Mikako, Asumi Kana Nisekoi Insane
BeatmapID:772904
BeatmapSetID:350593

[Difficulty]
HPDrainRate:4
CircleSize:3
OverallDifficulty:4
ApproachRate:4
SliderMultiplier:1.00000000596046
SliderTickRate:1

[Events]
//Background and Video events
0,0,"Bg.jpg",0,0
//Break Periods
//Storyboard Layer 0 (Background)
//Storyboard Layer 1 (Fail)
//Storyboard Layer 2 (Pass)
//Storyboard Layer 3 (Foreground)
//Storyboard Sound Samples

[TimingPoints]
550,355.029585798817,4,2,0,70,1,0
54514,-100,4,2,0,70,0,1
77058,-100,4,2,0,70,0,0

[Colours]
Combo1 : 255,255,89
Combo2 : 0,168,249
Combo3 : 126,126,190
Combo4 : 255,102,28

[HitObjects]
76,88,550,6,2,P|109:239|241:313,1,300.000001788139
328,296,1970,2,0,P|402:274|429:247,1,100.000000596046,2|0,0:0|0:0,0:0:0:0:
395,173,2680,2,0,P|342:95|320:84,1,100.000000596046,0|2,0:0|0:0,0:0:0:0:
241,66,3390,2,0,P|107:82|117:231,1,300.000001788139,2|0,0:0|0:0,0:0:0:0:
207,268,4810,2,0,P|177:304|121:329,2,100.000000596046,0|2|0,0:0|0:0|0:0,0:0:0:0:
292,194,6230,6,0,P|312:259|342:299,1,100.000000596046,8|0,0:0|0:0,0:0:0:0:
406,334,6940,2,0,P|436:289|448:239,1,100.000000596046,8|0,0:0|0:0,0:0:0:0:
441,157,7650,2,0,P|412:118|356:94,1,100.000000596046,8|0,0:0|0:0,0:0:0:0:
276,81,8360,2,0,P|203:105|165:130,1,100.000000596046,8|0,0:0|0:0,0:0:0:0:
125,194,9070,2,0,P|128:251|167:295,1,100.000000596046,8|0,0:0|0:0,0:0:0:0:
231,245,9780,5,8,0:0:0:0:
240,157,10135,1,2,0:0:0:0:
305,101,10490,2,2,P|403:129|330:276,1,300.000001788139,8|10,0:0|0:0,0:0:0:0:
235,303,11910,5,0,0:0:0:0:
189,231,12265,1,2,0:0:0:0:
198,144,12621,2,0,P|166:117|111:84,2,100.000000596046,8|0|8,0:0|0:0|0:0,0:0:0:0:
275,195,13686,1,2,0:0:0:0:
353,145,14041,2,0,P|397:85|429:60,2,100.000000596046,8|0|8,0:0|0:0|0:0,0:0:0:0:
265,164,15106,2,0,P|198:182|159:216,1,100.000000596046,0|8,0:0|0:0,0:0:0:0:
166,293,15816,1,2,0:0:0:0:
254,315,16171,2,0,P|309:221|256:148,1,200.000001192093,8|2,0:0|0:0,0:0:0:0:
186,72,17591,6,0,P|111:148|138:229,2,200.000001192093,2|0|2,0:0|0:0|0:0,0:0:0:0:
245,141,19366,1,0,0:0:0:0:
314,206,19721,2,0,P|356:136|363:98,1,100.000000596046,2|0,0:0|0:0,0:0:0:0:
295,62,20431,1,8,0:0:0:0:
203,65,20786,2,0,P|173:97|161:163,1,100.000000596046,0|2,0:0|0:0,0:0:0:0:
186,239,21496,2,0,P|241:259|296:246,1,100.000000596046,0|2,0:0|0:0,0:0:0:0:
365,208,22206,2,0,P|359:151|329:110,1,100.000000596046,0|2,0:0|0:0,0:0:0:0:
248,115,22916,1,2,0:0:0:0:
169,160,23271,6,0,P|182:202|227:246,1,100.000000596046,8|0,0:0|0:0,0:0:0:0:
282,303,23981,1,0,0:0:0:0:
368,277,24336,2,0,P|410:214|415:171,1,100.000000596046,0|8,0:0|0:0,0:0:0:0:
356,135,25047,2,0,P|302:152|264:186,1,100.000000596046,0|8,0:0|0:0,0:0:0:0:
264,269,25757,1,2,0:0:0:0:
175,312,26112,1,8,0:0:0:0:
94,259,26467,2,0,P|82:198|86:143,2,100.000000596046,0|8|0,0:0|0:0|0:0,0:0:0:0:
186,238,27532,2,0,B|221:152|320:293|360:219,1,200.000001192093,8|2,0:0|0:0,0:0:0:0:
441,197,28952,6,0,P|462:280|466:313,2,100.000000596046,8|0|2,0:0|0:0|0:0,0:0:0:0:
320,156,30017,2,0,P|262:217|247:248,2,100.000000596046,8|0|2,0:0|0:0|0:0,0:0:0:0:
403,113,31082,1,8,0:0:0:0:
444,192,31437,1,2,0:0:0:0:
393,268,31792,2,0,P|328:310|288:318,1,100.000000596046,8|0,0:0|0:0,0:0:0:0:
212,302,32502,2,0,P|169:277|148:214,1,100.000000596046,8|0,0:0|0:0,0:0:0:0:
167,141,33212,1,8,0:0:0:0:
240,96,33567,1,2,0:0:0:0:
319,134,33922,2,0,P|369:182|375:228,1,100.000000596046,8|0,0:0|0:0,0:0:0:0:
348,288,34632,6,0,P|289:285|243:262,2,100.000000596046,8|0|2,0:0|0:0|0:0,0:0:0:0:
435,282,35697,2,0,P|439:197|430:164,1,100.000000596046,8|0,0:0|0:0,0:0:0:0:
401,113,36407,2,0,P|321:111|291:126,1,100.000000596046,8|0,0:0|0:0,0:0:0:0:
269,193,37118,2,0,P|209:177|172:142,2,100.000000596046,8|0|0,0:0|0:0|0:0,0:0:0:0:
342,242,38183,2,0,P|384:177|385:141,1,100.000000596046,8|2,0:0|0:0,0:0:0:0:
330,100,38893,2,0,B|231:197|252:83|151:193,1,200.000001192093,0|8,0:0|0:0,0:0:0:0:
61,146,39958,5,2,0:0:0:0:
136,79,40313,2,0,B|265:117|201:158|303:203,1,200.000001192093
295,286,41378,1,2,0:0:0:0:
207,306,41733,2,0,P|115:259|150:181,1,200.000001192093
222,133,42798,1,2,0:0:0:0:
305,85,43153,6,0,B|390:136|309:214|399:256,1,200.000001192093
356,338,44218,1,2,0:0:0:0:
261,322,44573,2,0,P|215:270|264:162,1,200.000001192093
348,192,45638,1,2,0:0:0:0:
334,282,45993,2,0,P|257:287|214:280,1,100.000000596046,2|0,0:0|0:0,0:0:0:0:
183,211,46703,2,0,P|236:136|253:124,1,100.000000596046,2|0,0:0|0:0,0:0:0:0:
335,119,47413,2,0,P|385:165|393:211,1,100.000000596046,2|0,0:0|0:0,0:0:0:0:
307,256,48123,1,2,0:0:0:0:
247,194,48478,6,0,P|216:107|202:81,2,100.000000596046,0|8|0,0:0|0:0|0:0,0:0:0:0:
199,275,49544,1,2,0:0:0:0:
122,216,49899,2,0,P|80:138|71:109,2,100.000000596046,0|8|0,0:0|0:0|0:0,0:0:0:0:
165,297,50964,2,0,P|234:321|270:322,1,100.000000596046,0|8,0:0|0:0,0:0:0:0:
354,284,51674,2,0,P|378:290|461:338,2,100.000000596046,8|0|8,0:0|0:0|0:0,0:0:0:0:
256,271,52739,1,2,0:0:0:0:
294,188,53094,2,0,P|365:171|393:146,1,100.000000596046,8|0,0:0|0:0,0:0:0:0:
311,95,53804,6,0,B|190:75|254:158|119:155,1,200.000001192093,2|8,0:0|0:0,0:0:0:0:
54,86,54869,1,2,0:0:0:0:
148,61,55224,2,0,P|235:44|269:47,1,100.000000596046,8|0,0:0|0:0,0:0:0:0:
322,81,55934,1,8,0:0:0:0:
365,156,56289,1,2,0:0:0:0:
356,239,56644,2,0,P|304:244|241:223,1,100.000000596046,8|0,0:0|0:0,0:0:0:0:
169,207,57354,2,0,P|155:140|163:106,1,100.000000596046,8|0,0:0|0:0,0:0:0:0:
241,54,58064,5,0,0:0:0:0:
320,95,58419,1,2,0:0:0:0:
373,161,58774,2,0,P|363:230|334:268,1,100.000000596046,8|0,0:0|0:0,0:0:0:0:
280,316,59484,2,0,P|202:320|167:309,1,100.000000596046,0|8,0:0|0:0,0:0:0:0:
112,259,60194,1,8,0:0:0:0:
67,182,60550,1,2,0:0:0:0:
55,96,60905,2,0,P|86:60|148:51,1,100.000000596046,8|0,0:0|0:0,0:0:0:0:
203,96,61615,2,0,P|245:132|269:180,1,100.000000596046,8|0,0:0|0:0,0:0:0:0:
319,243,62325,1,8,0:0:0:0:
368,332,62680,1,2,0:0:0:0:
448,288,63035,6,0,P|451:219|442:181,1,100.000000596046,8|0,0:0|0:0,0:0:0:0:
361,163,63745,2,0,P|337:111|305:78,1,100.000000596046,8|0,0:0|0:0,0:0:0:0:
264,170,64455,2,0,P|214:192|154:166,1,100.000000596046,8|0,0:0|0:0,0:0:0:0:
188,100,65165,2,0,P|311:111|366:164,1,200.000001192092,8|0,0:0|0:0,0:0:0:0:
356,252,66230,1,2,0:0:0:0:
282,295,66585,2,0,P|220:305|176:298,1,100.000000596046,8|0,0:0|0:0,0:0:0:0:
140,214,67295,1,8,0:0:0:0:
183,133,67650,1,2,0:0:0:0:
260,90,68005,2,0,P|328:76|366:89,1,100.000000596046,8|0,0:0|0:0,0:0:0:0:
410,168,68715,1,8,0:0:0:0:
429,259,69070,6,0,P|358:291|325:291,1,100.000000596046,0|8,0:0|0:0,0:0:0:0:
248,265,69780,1,2,0:0:0:0:
201,183,70135,2,0,P|227:138|278:98,1,100.000000596046,8|0,0:0|0:0,0:0:0:0:
356,131,70845,1,2,0:0:0:0:
400,209,71200,1,2,0:0:0:0:
376,292,71555,2,0,P|308:311|263:303,1,100.000000596046,8|0,0:0|0:0,0:0:0:0:
188,300,72265,1,2,0:0:0:0:
126,239,72621,1,2,0:0:0:0:
146,150,72976,2,0,P|196:77|296:111,1,200.000001192092,8|0,0:0|0:0,0:0:0:0:
339,178,74041,1,2,0:0:0:0:
426,215,74396,6,0,P|442:143|439:106,1,100.000000596046,8|0,0:0|0:0,0:0:0:0:
364,68,75106,1,0,0:0:0:0:
277,71,75461,1,8,0:0:0:0:
174,81,75816,2,0,P|116:88|77:111,2,100.000000596046,0|2|0,0:0|0:0|0:0,0:0:0:0:
284,188,77236,6,0,P|342:224|377:231,1,100.000000596046,0|2,0:0|0:0,0:0:0:0:
413,146,77946,2,0,P|344:90|318:83,1,100.000000596046,8|0,0:0|0:0,0:0:0:0:
253,101,78656,1,0,0:0:0:0:
171,134,79011,1,2,0:0:0:0:
89,161,79366,2,0,P|79:210|96:266,1,100.000000596046,8|0,0:0|0:0,0:0:0:0:
177,292,80076,1,8,0:0:0:0:
268,302,80431,38,8,P|342:244|353:226,1,100.000000596046,0|8,0:0|0:0,0:0:0:0:
354,151,81141,2,0,P|298:114|249:107,1,100.000000596046,0|8,0:0|0:0,0:0:0:0:
186,142,81851,1,2,0:0:0:0:
126,210,82206,2,0,P|201:303|288:317,1,200.000001192092,8|0,0:0|0:0,0:0:0:0:
358,293,83271,5,2,0:0:0:0:
419,220,83626,1,8,0:0:0:0:
407,131,83981,2,0,P|355:77|326:60,1,100.000000596046,0|8,0:0|0:0,0:0:0:0:
255,107,84692,1,2,0:0:0:0:
225,194,85047,1,8,0:0:0:0:
257,280,85403,1,2,0:0:0:0:
339,330,85757,6,0,P|376:305|407:242,1,100.000000596046,8|2,0:0|0:0,0:0:0:0:
423,170,86467,2,0,P|399:112|357:75,1,100.000000596046,8|2,0:0|0:0,0:0:0:0:
287,82,87177,2,0,P|240:99|206:135,1,100.000000596046,8|0,0:0|0:0,0:0:0:0:
158,213,87887,2,0,P|90:269|169:270,1,200.000001192092,8|2,0:0|0:0,0:0:0:0:
