osu file format v14

[General]
AudioFilename: AIMAI-Hz (TV Size).mp3
AudioLeadIn: 0
PreviewTime: 6052
Countdown: 0
SampleSet: Soft
StackLeniency: 0.7
Mode: 0
LetterboxInBreaks: 1
WidescreenStoryboard: 0

[Editor]
DistanceSpacing: 0.7
BeatDivisor: 4
GridSize: 4
TimelineZoom: 1.5

[Metadata]
Title:AIMAI-Hz (TV Size)
TitleUnicode:AIMAI-Hz (TV Size)
Artist:Toyama Nao, Hanazawa Kana, Komatsu Mikako, Asumi Kana
ArtistUnicode:Toyama Nao, Hanazawa Kana, Komatsu Mikako, Asumi Kana
Creator:Stone Gaze
Version:Insane
Source:Nisekoi
Tags:Toyama Nao, Hanazawa Kana, Komatsu Mikako, Asumi Kana Nisekoi Insane
BeatmapID:772903
BeatmapSetID:350593

[Difficulty]
HPDrainRate:6
CircleSize:4
OverallDifficulty:7
ApproachRate:9
SliderMultiplier:1.8
SliderTickRate:2

[Events]
//Background and Video events
0,0,"Bg.jpg",0,0
//Break Periods
//Storyboard Layer 0 (Background)
//Storyboard Layer 1 (Fail)
//Storyboard Layer 2 (Pass)
//Storyboard Layer 3 (Foreground)
//Storyboard Sound Samples

[TimingPoints]
550,355.029585798817,4,2,0,70,1,0
54514,-100,4,2,0,70,0,1
77058,-100,4,2,0,70,0,0

[Colours]
Combo1 : 255,255,89
Combo2 : 0,168,249
Combo3 : 126,126,190
Combo4 : 255,102,28

[HitObjects]
144,164,550,6,0,P|212:200|236:200,1,90
328,104,905,1,8,0:0:0:0:
364,288,1082,1,0,0:0:0:0:
208,248,1260,2,0,P|164:296|152:328,1,90
72,168,1615,2,0,P|96:96|96:60,1,90,8|0,0:0|0:0,0:0:0:0:
256,80,1970,5,0,0:0:0:0:
344,168,2147,1,0,0:0:0:0:
216,280,2325,1,8,0:0:0:0:
108,324,2502,1,0,0:0:0:0:
164,152,2680,1,0,0:0:0:0:
68,68,2857,1,0,0:0:0:0:
207,40,3035,1,8,0:0:0:0:
313,77,3213,5,6,0:0:0:0:
321,75,3301,1,0,0:0:0:0:
328,74,3390,2,8,P|388:118|410:147,1,90
342,274,3745,2,0,P|309:313|277:337,1,90
201,258,4100,1,0,0:0:0:0:
207,140,4277,2,8,P|154:108|115:97,1,90
88,253,4632,2,8,P|76:315|58:352,2,90
96,136,5165,2,8,P|148:80|177:69,1,90
300,76,5520,2,6,P|375:131|422:206,1,180,6|8,0:0|0:0,0:0:0:0:
199,301,6230,5,8,0:0:0:0:
369,220,6407,1,0,0:0:0:0:
294,301,6585,1,8,0:0:0:0:
121,236,6763,1,0,0:0:0:0:
128,111,6940,1,8,0:0:0:0:
306,55,7118,1,0,0:0:0:0:
206,47,7295,1,8,0:0:0:0:
384,118,7473,1,8,0:0:0:0:
423,264,7650,6,0,P|392:304|361:330,1,90,0|4,0:0|0:0,0:0:0:0:
218,234,8005,2,8,P|169:277|151:311,1,90,8|0,0:0|0:0,0:0:0:0:
176,128,8360,2,6,P|136:71|98:55,1,90,0|6,0:0|0:0,0:0:0:0:
150,309,8715,2,8,P|213:337|243:334,1,90,8|0,0:0|0:0,0:0:0:0:
306,240,9070,1,0,0:0:0:0:
367,74,9248,1,0,0:0:0:0:
371,79,9425,2,8,P|417:114|444:144,1,90,0|8,0:0|0:0,0:0:0:0:
252,175,9780,2,6,P|222:218|204:268,1,90,0|6,0:0|0:0,0:0:0:0:
434,313,10135,2,0,P|454:257|458:218,1,90,0|8,0:0|0:0,0:0:0:0:
301,121,10490,2,8,P|231:90|204:92,1,90
85,160,10845,5,6,0:0:0:0:
147,48,11023,1,8,0:0:0:0:
105,273,11200,1,8,0:0:0:0:
283,295,11555,1,6,0:0:0:0:
408,135,11733,1,6,0:0:0:0:
392,259,11910,2,8,P|415:324|440:356,1,90
249,177,12265,2,0,P|189:202|168:227,2,90,8|0|8,0:0|0:0|0:0,0:0:0:0:
317,74,12798,5,6,0:0:0:0:
125,141,12976,1,8,0:0:0:0:
207,37,13153,1,6,0:0:0:0:
306,184,13331,2,8,P|361:224|385:246,1,90,8|0,0:0|0:0,0:0:0:0:
216,279,13686,2,0,P|161:315|112:326,1,90,8|0,0:0|0:0,0:0:0:0:
76,173,14041,2,0,P|62:111|38:69,2,90,0|6|0,0:0|0:0|0:0,0:0:0:0:
267,111,14573,1,0,0:0:0:0:
277,113,14751,2,8,P|343:113|384:126,1,90,0|8,0:0|0:0,0:0:0:0:
412,256,15106,2,0,P|378:303|348:324,1,90,8|0,0:0|0:0,0:0:0:0:
174,256,15461,6,0,P|128:283|94:318,2,90,0|6|0,0:0|0:0|0:0,0:0:0:0:
132,143,15993,1,8,0:0:0:0:
271,103,16171,2,0,B|284:75|284:75|320:227|79:124|327:-55|328:177,1,360,0|4,0:0|0:0,0:0:0:0:
333,214,17591,2,0,P|397:254|475:335,2,180,0|0|4,0:0|0:0|0:0,0:0:0:0:
229,185,18478,1,0,0:0:0:0:
220,96,18656,2,0,P|154:94|57:154,1,180,0|4,0:0|0:0,0:0:0:0:
124,192,19366,2,0,P|179:262|149:352,1,180,0|4,0:0|0:0,0:0:0:0:
272,308,20076,1,0,0:0:0:0:
368,258,20431,5,8,0:0:0:0:
318,152,20609,1,0,0:0:0:0:
406,178,20786,2,0,P|423:119|421:79,1,90,4|0,0:0|0:0,0:0:0:0:
323,57,21141,2,0,P|273:50|218:61,1,90,0|4,0:0|0:0,0:0:0:0:
143,104,21496,1,0,0:0:0:0:
92,206,21674,1,4,0:0:0:0:
91,215,21851,2,0,P|85:284|74:308,1,90,8|0,0:0|0:0,0:0:0:0:
197,292,22206,2,0,P|279:312|320:308,1,90,8|0,0:0|0:0,0:0:0:0:
394,285,22561,2,0,P|440:221|439:111,1,180,4|8,0:0|0:0,0:0:0:0:
288,71,23271,6,0,P|221:84|193:100,1,90,8|0,0:0|0:0,0:0:0:0:
140,197,23626,1,4,0:0:0:0:
277,161,23804,1,8,0:0:0:0:
138,204,23981,2,0,P|103:251|88:284,1,90
255,266,24336,1,8,0:0:0:0:
149,340,24514,1,4,0:0:0:0:
263,264,24692,2,0,P|326:244|363:240,1,90,0|4,0:0|0:0,0:0:0:0:
402,126,25047,1,4,0:0:0:0:
396,118,25224,2,0,P|344:62|317:48,1,90,0|8,0:0|0:0,0:0:0:0:
196,68,25579,5,4,0:0:0:0:
125,138,25757,1,8,0:0:0:0:
129,240,25934,1,8,0:0:0:0:
226,176,26112,2,0,P|304:176|344:183,1,90
384,257,26467,2,0,P|414:318|432:333,2,90,8|0|0,0:0|0:0|0:0,0:0:0:0:
286,283,26999,1,4,0:0:0:0:
151,250,27177,1,8,0:0:0:0:
195,343,27354,1,4,0:0:0:0:
236,204,27532,2,0,P|231:155|215:109,1,90,8|0,0:0|0:0,0:0:0:0:
299,51,27887,2,0,P|364:88|432:172,1,180,0|4,0:0|0:0,0:0:0:0:
356,274,28419,6,0,P|383:312|395:323,2,45,8|6|0,0:0|0:0|0:0,0:0:0:0:
195,274,28774,1,4,0:0:0:0:
98,136,28952,2,0,P|163:95|194:90,1,90,4|4,0:0|0:0,0:0:0:0:
310,197,29307,2,0,P|340:130|340:100,1,90,8|2,0:0|0:0,0:0:0:0:
192,197,29662,2,0,P|177:261|178:302,1,90,4|4,0:0|0:0,0:0:0:0:
373,272,30017,2,8,P|411:200|419:159,1,90,8|2,0:0|0:0,0:0:0:0:
309,67,30372,2,0,P|238:67|219:73,1,90,4|4,0:0|0:0,0:0:0:0:
109,161,30727,1,8,0:0:0:0:
202,278,30905,2,0,P|199:328|196:336,2,45,4|8|4,0:0|0:0|0:0,0:0:0:0:
291,198,31260,5,8,0:0:0:0:
396,115,31437,2,4,P|420:78|423:67,2,45
237,89,31792,5,8,0:0:0:0:
143,154,31970,2,0,P|105:211|97:244,1,90,4|4,0:0|0:0,0:0:0:0:
260,295,32325,2,0,P|324:301|350:295,1,90,8|2,0:0|0:0,0:0:0:0:
326,127,32680,2,0,P|308:63|287:37,1,90,4|2,0:0|0:0,0:0:0:0:
152,169,33035,1,8,0:0:0:0:
300,209,33212,1,4,0:0:0:0:
172,256,33390,1,8,0:0:0:0:
233,127,33567,1,4,0:0:0:0:
253,283,33745,2,0,P|326:321|358:326,1,90,4|8,0:0|0:0,0:0:0:0:
420,238,34100,6,0,P|419:170|425:145,1,90,4|8,0:0|0:0,0:0:0:0:
293,85,34455,2,0,P|236:71|199:69,1,90,4|8,0:0|0:0,0:0:0:0:
78,134,34810,1,4,0:0:0:0:
74,141,34987,1,4,0:0:0:0:
226,182,35165,2,4,P|292:204|327:229,1,90,4|8,0:0|0:0,0:0:0:0:
236,296,35520,1,4,0:0:0:0:
393,270,35697,1,8,0:0:0:0:
319,320,35875,1,4,0:0:0:0:
430,193,36052,1,8,0:0:0:0:
358,96,36230,2,0,P|293:74|267:71,1,90,4|8,0:0|0:0,0:0:0:0:
140,93,36585,5,4,0:0:0:0:
136,102,36763,2,0,P|119:151|117:195,1,90,8|2,0:0|0:0,0:0:0:0:
209,267,37118,1,8,0:0:0:0:
297,142,37295,1,4,0:0:0:0:
301,150,37473,2,0,P|360:187|383:220,1,90,4|8,0:0|0:0,0:0:0:0:
317,302,37828,1,4,0:0:0:0:
398,234,38005,1,4,0:0:0:0:
252,227,38183,2,4,P|181:209|148:189,1,90,4|8,0:0|0:0,0:0:0:0:
76,155,38538,2,0,P|65:90|46:59,1,90,4|8,0:0|0:0,0:0:0:0:
163,58,38893,6,0,P|252:93|352:94,1,180,4|2,0:0|0:0,0:0:0:0:
397,173,39425,1,4,0:0:0:0:
368,279,39603,2,0,P|411:321|441:340,2,90,0|8|0,0:0|0:0|0:0,0:0:0:0:
248,232,40313,2,0,P|202:269|76:294,1,180,2|2,0:0|0:0,0:0:0:0:
74,195,40846,1,2,0:0:0:0:
110,108,41023,2,0,P|85:68|46:35,2,90,0|2|0,0:0|0:0|0:0,0:0:0:0:
216,128,41555,1,2,0:0:0:0:
321,121,41733,2,0,P|362:72|468:119,1,180
394,185,42265,1,2,0:0:0:0:
467,242,42443,2,4,P|426:292|317:246,1,180,0|2,0:0|0:0,0:0:0:0:
213,237,43153,6,0,P|153:262|129:268,1,90
51,182,43508,1,8,0:0:0:0:
100,66,43686,1,2,0:0:0:0:
171,153,43863,2,0,P|217:123|241:86,1,90,0|8,0:0|0:0,0:0:0:0:
345,54,44218,1,8,0:0:0:0:
325,180,44396,1,2,0:0:0:0:
440,125,44573,2,0,P|471:57|483:40,2,90,0|2|0,0:0|0:0|0:0,0:0:0:0:
422,242,45106,1,2,0:0:0:0:
348,318,45283,2,0,P|283:300|252:275,1,90,0|8,0:0|0:0,0:0:0:0:
138,256,45638,2,0,P|90:285|57:319,1,90,8|0,0:0|0:0,0:0:0:0:
84,155,45993,6,2,P|76:88|65:57,1,90
163,94,46348,1,4,0:0:0:0:
239,138,46526,2,0,P|293:87|318:80,1,90,2|4,0:0|0:0,0:0:0:0:
317,197,46881,2,0,P|269:238|238:244,1,90,0|8,0:0|0:0,0:0:0:0:
363,133,47236,2,0,P|333:72|309:52,1,90,2|0,0:0|0:0,0:0:0:0:
455,136,47591,2,0,P|442:182|409:223,1,90,0|4,0:0|0:0,0:0:0:0:
345,300,47946,1,2,0:0:0:0:
235,261,48123,2,0,P|187:205|145:182,1,90,0|8,0:0|0:0,0:0:0:0:
102,241,48478,2,0,P|60:174|54:144,1,90,0|8,0:0|0:0,0:0:0:0:
84,77,48834,1,4,0:0:0:0:
214,94,49011,5,4,0:0:0:0:
219,104,49189,2,0,P|245:159|274:184,1,90,8|0,0:0|0:0,0:0:0:0:
360,211,49544,1,4,0:0:0:0:
424,93,49721,1,4,0:0:0:0:
417,86,49899,2,0,P|350:56|316:48,1,90,8|0,0:0|0:0,0:0:0:0:
196,55,50254,1,4,0:0:0:0:
87,114,50431,2,0,P|54:186|50:222,1,90,8|0,0:0|0:0,0:0:0:0:
118,317,50786,1,8,0:0:0:0:
235,199,50964,1,4,0:0:0:0:
286,338,51141,1,8,0:0:0:0:
224,282,51319,6,0,P|158:234|167:131,1,180,0|2,0:0|0:0,0:0:0:0:
236,81,51851,1,4,0:0:0:0:
358,70,52029,2,0,P|409:80|447:96,1,90,8|2,0:0|0:0,0:0:0:0:
391,192,52384,2,0,P|417:262|423:296,1,90,8|4,0:0|0:0,0:0:0:0:
288,288,52739,1,4,0:0:0:0:
281,164,52916,1,8,0:0:0:0:
189,240,53094,2,0,P|134:278|102:286,1,90,8|2,0:0|0:0,0:0:0:0:
46,172,53449,1,8,0:0:0:0:
122,61,53626,1,4,0:0:0:0:
126,195,53804,2,2,B|296:18|253:245|446:94,1,360,2|8,0:0|0:0,0:0:0:0:
424,229,54692,5,8,0:0:0:0:
422,239,54780,1,4,0:0:0:0:
419,248,54869,2,0,P|396:302|369:331,1,90,8|4,0:0|0:0,0:0:0:0:
302,146,55224,2,0,P|267:113|222:90,1,90,8|2,0:0|0:0,0:0:0:0:
164,200,55579,1,4,0:0:0:0:
308,261,55757,1,8,0:0:0:0:
186,329,55934,2,0,P|112:303|80:281,1,90,4|8,0:0|0:0,0:0:0:0:
56,160,56289,5,4,0:0:0:0:
150,74,56467,2,0,P|237:63|259:68,1,90,8|4,0:0|0:0,0:0:0:0:
300,176,56822,2,0,P|377:174|397:166,1,90,2|2,0:0|0:0,0:0:0:0:
420,312,57177,2,0,P|346:311|326:305,1,90,4|8,0:0|0:0,0:0:0:0:
208,199,57532,1,4,0:0:0:0:
84,260,57709,2,0,P|93:316|114:350,1,90,4|8,0:0|0:0,0:0:0:0:
291,274,58064,2,0,P|346:258|382:238,1,90,8|2,0:0|0:0,0:0:0:0:
233,95,58419,2,4,P|172:99|140:111,1,90,4|8,0:0|0:0,0:0:0:0:
311,205,58774,2,0,P|373:191|408:170,1,90,2|8,0:0|0:0,0:0:0:0:
398,76,59129,1,4,0:0:0:0:
285,58,59307,6,4,P|203:56|191:59,1,90,4|8,0:0|0:0,0:0:0:0:
162,175,59662,1,8,0:0:0:0:
160,180,59751,1,2,0:0:0:0:
159,186,59839,2,0,P|133:244|133:272,1,90,8|2,0:0|0:0,0:0:0:0:
259,288,60194,2,0,P|320:323|345:330,1,90,8|4,0:0|0:0,0:0:0:0:
413,178,60550,2,0,P|451:216|469:263,2,90,0|4|0,0:0|0:0|0:0,0:0:0:0:
293,174,61082,1,4,0:0:0:0:
374,60,61260,1,8,0:0:0:0:
247,65,61437,2,0,P|202:56|140:66,1,90,4|8,0:0|0:0,0:0:0:0:
86,138,61792,2,0,P|70:181|40:215,1,90,4|8,0:0|0:0,0:0:0:0:
172,250,62147,5,4,0:0:0:0:
332,229,62325,1,8,0:0:0:0:
248,159,62502,1,4,0:0:0:0:
265,317,62680,2,0,P|331:331|368:327,1,90,8|2,0:0|0:0,0:0:0:0:
432,209,63035,2,0,P|391:152|388:124,1,90,4|8,0:0|0:0,0:0:0:0:
280,73,63390,1,4,0:0:0:0:
151,88,63567,1,4,0:0:0:0:
148,97,63656,1,8,0:0:0:0:
145,106,63745,2,0,P|121:158|116:199,1,90,4|2,0:0|0:0,0:0:0:0:
199,302,64100,2,0,P|238:241|266:227,1,90,8|8,0:0|0:0,0:0:0:0:
320,163,64455,5,4,0:0:0:0:
396,257,64632,2,0,P|445:294|460:332,2,90,2|8|2,0:0|0:0|0:0,0:0:0:0:
441,174,65165,2,2,P|333:64|151:129,1,360,2|8,0:0|0:0,0:0:0:0:
232,255,66052,1,4,0:0:0:0:
307,130,66230,2,0,P|248:104|204:97,1,90,8|4,0:0|0:0,0:0:0:0:
74,255,66585,2,4,P|98:322|116:347,1,90,4|8,0:0|0:0,0:0:0:0:
308,305,66940,2,0,P|382:251|389:240,1,90,8|4,0:0|0:0,0:0:0:0:
323,74,67295,2,0,P|249:80|168:147,1,180,2|4,0:0|0:0,0:0:0:0:
228,223,67828,1,4,0:0:0:0:
146,297,68005,2,0,P|90:329|57:341,1,90,0|8,0:0|0:0,0:0:0:0:
65,221,68360,5,8,0:0:0:0:
86,121,68538,2,0,P|49:63|37:25,2,90,2|8|2,0:0|0:0|0:0,0:0:0:0:
184,77,69070,2,0,P|247:73|276:81,1,90,8|4,0:0|0:0,0:0:0:0:
277,184,69425,2,0,P|331:224|386:246,1,90,4|8,0:0|0:0,0:0:0:0:
454,281,69780,2,0,P|462:196|440:94,1,180,8|2,0:0|0:0,0:0:0:0:
330,89,70313,2,0,P|295:55|292:47,2,45,4|8|4,0:0|0:0|0:0,0:0:0:0:
210,143,70668,1,4,0:0:0:0:
91,169,70845,2,0,P|84:102|88:74,2,90,2|8|2,0:0|0:0|0:0,0:0:0:0:
149,262,71378,1,4,0:0:0:0:
268,255,71555,2,0,P|318:301|332:323,1,90,8|4,0:0|0:0,0:0:0:0:
352,168,71910,6,0,P|374:104|372:59,1,90,8|2,0:0|0:0,0:0:0:0:
223,136,72265,1,8,0:0:0:0:
109,106,72443,1,4,0:0:0:0:
155,192,72621,1,8,0:0:0:0:
190,57,72798,1,4,0:0:0:0:
309,69,72976,2,0,P|379:89|463:164,1,180,8|2,0:0|0:0,0:0:0:0:
382,221,73508,1,4,0:0:0:0:
298,304,73686,2,0,P|241:247|154:303,1,180,8|4,0:0|0:0,0:0:0:0:
44,280,74218,1,4,0:0:0:0:
69,169,74396,2,0,P|121:135|158:128,1,90,8|2,0:0|0:0,0:0:0:0:
242,94,74751,5,8,0:0:0:0:
372,86,74928,1,4,0:0:0:0:
427,183,75106,2,2,P|446:244|465:273,2,90,2|8|2,0:0|0:0|0:0,0:0:0:0:
301,214,75638,1,4,0:0:0:0:
210,249,75816,2,0,P|197:294|200:342,1,90,8|2,0:0|0:0,0:0:0:0:
108,230,76171,1,4,0:0:0:0:
132,121,76348,2,0,P|74:78|53:57,2,90,4|8|4,0:0|0:0|0:0,0:0:0:0:
235,71,76881,2,0,P|301:65|334:75,1,90,8|0,0:0|0:0,0:0:0:0:
408,161,77236,5,2,0:0:0:0:
412,171,77325,1,4,0:0:0:0:
415,181,77413,2,0,P|419:251|415:275,1,90,2|4,0:0|0:0,0:0:0:0:
293,303,77768,1,4,0:0:0:0:
178,242,77946,2,0,P|142:295|126:332,2,90,2|2|2,0:0|0:0|0:0,0:0:0:0:
185,124,78478,1,4,0:0:0:0:
97,73,78656,2,2,P|79:130|79:164,1,90
274,197,79011,2,2,P|277:115|270:94,1,90
374,55,79366,2,2,P|441:63|471:74,1,90
437,211,79721,2,2,P|445:269|460:312,2,90,2|4|2,0:0|0:0|0:0,0:0:0:0:
300,297,80254,5,4,0:0:0:0:
186,278,80431,2,2,P|127:229|118:191,1,90
187,131,80786,1,4,0:0:0:0:
275,180,80964,2,2,P|294:124|299:85,2,90
368,234,81496,2,2,P|388:159|384:41,1,180,2|4,0:0|0:0,0:0:0:0:
277,46,82029,1,4,0:0:0:0:
179,71,82206,2,2,P|117:91|41:186,1,180
156,249,82916,6,0,P|199:264|243:266,1,90,8|2,0:0|0:0,0:0:0:0:
409,178,83271,2,0,P|365:169|320:168,1,90,8|2,0:0|0:0,0:0:0:0:
195,330,83626,2,0,P|233:307|261:272,1,90,8|2,0:0|0:0,0:0:0:0:
312,81,83981,2,0,P|285:116|270:159,1,90,8|2,0:0|0:0,0:0:0:0:
294,233,84336,1,8,0:0:0:0:
300,240,84514,2,0,P|355:273|385:284,1,90,4|8,0:0|0:0,0:0:0:0:
231,143,84869,1,4,0:0:0:0:
226,148,85047,2,0,P|149:148|122:160,1,90,8|2,0:0|0:0,0:0:0:0:
75,241,85402,2,0,P|74:298|62:331,1,90,8|2,0:0|0:0,0:0:0:0:
191,276,85757,2,0,P|246:307|276:312,1,90,8|2,0:0|0:0,0:0:0:0:
350,236,86112,5,8,0:0:0:0:
445,327,86289,1,4,0:0:0:0:
354,229,86467,2,0,P|351:173|359:125,1,90,8|4,0:0|0:0,0:0:0:0:
203,69,86822,2,2,P|157:106|138:134,1,90
222,257,87177,2,8,P|281:301|303:303,1,90,8|2,0:0|0:0,0:0:0:0:
418,182,87532,2,2,P|382:131|356:113,1,90
250,155,87887,1,0,0:0:0:0:
256,192,88064,12,0,89662,0:0:0:0:
