osu file format v14

[General]
AudioFilename: Toyama Nao - True Destiny.mp3
AudioLeadIn: 0
PreviewTime: 45197
Countdown: 0
SampleSet: Normal
StackLeniency: 0.7
Mode: 1
LetterboxInBreaks: 0
WidescreenStoryboard: 0

[Editor]
DistanceSpacing: 0.8
BeatDivisor: 4
GridSize: 32
TimelineZoom: 1

[Metadata]
Title:True Destiny
TitleUnicode:True Destiny
Artist:Toyama Nao
ArtistUnicode:東山奈央
Creator:Nardoxyribonucleic
Version:Kantan
Source:チェインクロニクル~ヘクセイタスの閃~
Tags:Taiko Chain Chronicle The Light of Haecceitas Ending TV Size Touyama Heart's Cry Jerry
BeatmapID:1185144
BeatmapSetID:559266

[Difficulty]
HPDrainRate:8
CircleSize:5
OverallDifficulty:3
ApproachRate:3
SliderMultiplier:1.4
SliderTickRate:1

[Events]
//Background and Video events
0,0,"cced1.jpg",0,125
//Break Periods
//Storyboard Layer 0 (Background)
//Storyboard Layer 1 (Fail)
//Storyboard Layer 2 (Pass)
//Storyboard Layer 3 (Foreground)
//Storyboard Sound Samples

[TimingPoints]
2364,333.333333333333,4,1,0,80,1,0
13030,-100,4,1,0,50,0,0
23697,-100,4,1,0,70,0,0
34363,-100,4,1,0,60,0,0
39697,-100,4,1,0,75,0,0
45030,333.333333333333,4,1,0,75,1,8
45697,333.333333333333,4,1,0,90,1,1
72363,-100,4,1,0,80,0,0
83030,-100,4,1,0,40,0,0
83863,-100,4,1,0,30,0,0
84696,-100,4,1,0,20,0,0
85530,-100,4,1,0,10,0,0

[HitObjects]
256,192,2030,5,8,0:0:0:0:
256,192,2363,1,4,0:0:0:0:
256,192,3030,1,0,0:0:0:0:
256,192,3697,1,8,0:0:0:0:
256,192,4363,1,0,0:0:0:0:
256,192,4697,1,0,0:0:0:0:
256,192,5030,1,8,0:0:0:0:
256,192,5697,1,0,0:0:0:0:
256,192,6197,1,8,0:0:0:0:
256,192,7697,1,0,0:0:0:0:
256,192,8363,1,8,0:0:0:0:
256,192,9030,1,0,0:0:0:0:
256,192,9697,1,8,0:0:0:0:
256,192,10030,1,8,0:0:0:0:
256,192,10363,1,0,0:0:0:0:
256,192,11030,1,0,0:0:0:0:
256,192,11530,1,8,0:0:0:0:
256,192,12197,1,8,0:0:0:0:
256,192,13030,1,0,0:0:0:0:
256,192,15697,1,8,0:0:0:0:
256,192,18363,1,0,0:0:0:0:
256,192,21030,1,8,0:0:0:0:
256,192,22363,1,8,0:0:0:0:
256,192,23363,1,0,0:0:0:0:
256,192,23697,1,4,0:0:0:0:
256,192,24363,1,0,0:0:0:0:
256,192,25030,1,8,0:0:0:0:
256,192,25363,1,8,0:0:0:0:
256,192,25697,1,0,0:0:0:0:
256,192,26363,1,8,0:0:0:0:
256,192,27030,1,0,0:0:0:0:
256,192,27697,1,8,0:0:0:0:
256,192,28697,1,8,0:0:0:0:
256,192,29030,1,0,0:0:0:0:
256,192,29697,1,8,0:0:0:0:
256,192,30197,1,0,0:0:0:0:
256,192,30697,1,8,0:0:0:0:
256,192,31530,1,12,0:0:0:0:
256,192,32363,1,0,0:0:0:0:
256,192,32697,1,0,0:0:0:0:
256,192,33030,1,12,0:0:0:0:
256,192,33697,1,8,0:0:0:0:
256,192,34363,1,0,0:0:0:0:
256,192,37030,1,0,0:0:0:0:
256,192,39030,1,0,0:0:0:0:
256,192,39363,1,8,0:0:0:0:
256,192,39697,1,4,0:0:0:0:
256,192,40363,1,8,0:0:0:0:
256,192,41030,1,0,0:0:0:0:
256,192,41697,1,8,0:0:0:0:
256,192,42363,1,4,0:0:0:0:
256,192,43030,1,8,0:0:0:0:
256,192,43363,1,8,0:0:0:0:
256,192,43697,1,12,0:0:0:0:
256,192,45697,1,4,0:0:0:0:
256,192,46363,1,8,0:0:0:0:
256,192,47030,1,8,0:0:0:0:
256,192,47697,1,0,0:0:0:0:
256,192,48030,1,8,0:0:0:0:
256,192,48363,1,0,0:0:0:0:
256,192,49030,1,0,0:0:0:0:
256,192,49696,1,8,0:0:0:0:
256,192,50363,1,8,0:0:0:0:
256,192,50696,1,8,0:0:0:0:
256,192,51030,1,0,0:0:0:0:
256,192,51696,1,0,0:0:0:0:
256,192,52363,1,8,0:0:0:0:
256,192,53696,1,4,0:0:0:0:
256,192,54863,1,12,0:0:0:0:
256,192,55696,1,8,0:0:0:0:
256,192,56030,1,8,0:0:0:0:
256,192,56363,1,4,0:0:0:0:
256,192,57030,1,8,0:0:0:0:
256,192,57696,1,8,0:0:0:0:
256,192,58363,1,0,0:0:0:0:
256,192,58696,1,8,0:0:0:0:
256,192,59030,1,0,0:0:0:0:
256,192,59696,1,0,0:0:0:0:
256,192,60363,1,8,0:0:0:0:
256,192,61030,1,8,0:0:0:0:
256,192,61363,1,0,0:0:0:0:
256,192,61696,1,0,0:0:0:0:
256,192,62363,1,8,0:0:0:0:
256,192,63030,1,0,0:0:0:0:
256,192,64363,1,12,0:0:0:0:
256,192,65530,1,4,0:0:0:0:
256,192,66363,1,0,0:0:0:0:
256,192,66696,1,8,0:0:0:0:
256,192,67030,1,12,0:0:0:0:
256,192,68363,1,4,0:0:0:0:
256,192,69696,1,8,0:0:0:0:
256,192,70196,1,8,0:0:0:0:
256,192,70696,1,8,0:0:0:0:
256,192,71030,1,8,0:0:0:0:
256,192,71363,1,8,0:0:0:0:
256,192,72363,1,4,0:0:0:0:
256,192,73030,1,0,0:0:0:0:
256,192,73696,1,8,0:0:0:0:
256,192,74363,1,0,0:0:0:0:
256,192,74696,1,0,0:0:0:0:
256,192,75030,1,8,0:0:0:0:
256,192,75696,1,0,0:0:0:0:
256,192,76196,1,8,0:0:0:0:
256,192,77696,1,0,0:0:0:0:
256,192,78363,1,8,0:0:0:0:
256,192,79030,1,0,0:0:0:0:
256,192,79696,1,8,0:0:0:0:
256,192,80030,1,8,0:0:0:0:
256,192,80363,1,0,0:0:0:0:
256,192,81030,1,0,0:0:0:0:
256,192,81530,1,8,0:0:0:0:
256,192,82196,1,8,0:0:0:0:
256,192,83030,12,0,85530,0:0:0:0:
