osu file format v14

[General]
AudioFilename: Toyama Nao - True Destiny.mp3
AudioLeadIn: 0
PreviewTime: 45197
Countdown: 0
SampleSet: Normal
StackLeniency: 0.7
Mode: 1
LetterboxInBreaks: 0
WidescreenStoryboard: 0

[Editor]
DistanceSpacing: 0.8
BeatDivisor: 4
GridSize: 32
TimelineZoom: 1

[Metadata]
Title:True Destiny
TitleUnicode:True Destiny
Artist:Toyama Nao
ArtistUnicode:東山奈央
Creator:Nardoxyribonucleic
Version:Inner Oni
Source:チェインクロニクル~ヘクセイタスの閃~
Tags:Taiko Chain Chronicle The Light of Haecceitas Ending TV Size Touyama Heart's Cry Jerry
BeatmapID:1182839
BeatmapSetID:559266

[Difficulty]
HPDrainRate:7
CircleSize:5
OverallDifficulty:6
ApproachRate:7
SliderMultiplier:1.4
SliderTickRate:1

[Events]
//Background and Video events
0,0,"cced5.jpg",0,75
//Break Periods
//Storyboard Layer 0 (Background)
//Storyboard Layer 1 (Fail)
//Storyboard Layer 2 (Pass)
//Storyboard Layer 3 (Foreground)
//Storyboard Sound Samples

[TimingPoints]
2364,333.333333333333,4,1,0,80,1,0
13030,-125,4,1,0,50,0,0
23697,-100,4,1,0,70,0,0
34363,-100,4,1,0,60,0,0
35030,-125,4,1,0,60,0,0
39030,-111.111111111111,4,1,0,60,0,0
39697,-100,4,1,0,75,0,0
45030,333.333333333333,4,1,0,75,1,8
45697,333.333333333333,4,1,0,90,1,1
72363,-100,4,1,0,80,0,0
83030,-100,4,1,0,40,0,0
83863,-100,4,1,0,30,0,0
84696,-100,4,1,0,20,0,0
85530,-100,4,1,0,10,0,0

[HitObjects]
256,192,2030,5,8,0:0:0:0:
256,192,2363,1,4,0:0:0:0:
256,192,2697,1,8,0:0:0:0:
256,192,2863,1,0,0:0:0:0:
256,192,2947,1,0,0:0:0:0:
256,192,3030,1,0,0:0:0:0:
256,192,3197,1,8,0:0:0:0:
256,192,3280,1,8,0:0:0:0:
256,192,3363,1,0,0:0:0:0:
256,192,3530,1,8,0:0:0:0:
256,192,3863,1,0,0:0:0:0:
256,192,4030,1,8,0:0:0:0:
256,192,4197,1,0,0:0:0:0:
256,192,4280,1,8,0:0:0:0:
256,192,4363,1,0,0:0:0:0:
256,192,4530,1,0,0:0:0:0:
256,192,4613,1,0,0:0:0:0:
256,192,4697,1,8,0:0:0:0:
256,192,4780,1,0,0:0:0:0:
256,192,4863,1,8,0:0:0:0:
256,192,4947,1,8,0:0:0:0:
256,192,5030,1,0,0:0:0:0:
256,192,5197,1,0,0:0:0:0:
256,192,5363,1,8,0:0:0:0:
256,192,5530,1,0,0:0:0:0:
256,192,5613,1,0,0:0:0:0:
256,192,5697,1,0,0:0:0:0:
256,192,5863,1,8,0:0:0:0:
256,192,5947,1,8,0:0:0:0:
256,192,6030,1,8,0:0:0:0:
256,192,6113,1,8,0:0:0:0:
256,192,6197,1,0,0:0:0:0:
256,192,6530,1,0,0:0:0:0:
256,192,6697,1,8,0:0:0:0:
256,192,6863,1,0,0:0:0:0:
256,192,6947,1,8,0:0:0:0:
256,192,7030,1,0,0:0:0:0:
256,192,7113,1,0,0:0:0:0:
256,192,7197,1,8,0:0:0:0:
256,192,7280,1,8,0:0:0:0:
256,192,7363,1,0,0:0:0:0:
256,192,7530,1,8,0:0:0:0:
256,192,7613,1,8,0:0:0:0:
256,192,7697,1,0,0:0:0:0:
256,192,8030,1,8,0:0:0:0:
256,192,8197,1,0,0:0:0:0:
256,192,8280,1,0,0:0:0:0:
256,192,8363,1,8,0:0:0:0:
256,192,8530,1,8,0:0:0:0:
256,192,8613,1,0,0:0:0:0:
256,192,8697,1,8,0:0:0:0:
256,192,8863,1,0,0:0:0:0:
256,192,9197,1,0,0:0:0:0:
256,192,9363,1,8,0:0:0:0:
256,192,9530,1,0,0:0:0:0:
256,192,9613,1,0,0:0:0:0:
256,192,9697,1,8,0:0:0:0:
256,192,9780,1,0,0:0:0:0:
256,192,9863,1,8,0:0:0:0:
256,192,9947,1,8,0:0:0:0:
256,192,10030,1,0,0:0:0:0:
256,192,10113,1,0,0:0:0:0:
256,192,10197,1,8,0:0:0:0:
256,192,10280,1,0,0:0:0:0:
256,192,10363,1,8,0:0:0:0:
256,192,10530,1,0,0:0:0:0:
256,192,10613,1,0,0:0:0:0:
256,192,10697,1,0,0:0:0:0:
256,192,10863,1,0,0:0:0:0:
256,192,11030,1,8,0:0:0:0:
256,192,11197,1,0,0:0:0:0:
256,192,11280,1,0,0:0:0:0:
256,192,11363,1,8,0:0:0:0:
256,192,11530,1,4,0:0:0:0:
256,192,11863,1,12,0:0:0:0:
256,192,12030,1,12,0:0:0:0:
256,192,12197,1,12,0:0:0:0:
256,192,13030,1,0,0:0:0:0:
256,192,13530,1,0,0:0:0:0:
256,192,13697,1,8,0:0:0:0:
256,192,13863,1,8,0:0:0:0:
256,192,14197,1,0,0:0:0:0:
256,192,14697,1,0,0:0:0:0:
256,192,14863,1,8,0:0:0:0:
256,192,15197,1,8,0:0:0:0:
256,192,15530,1,0,0:0:0:0:
256,192,16030,1,8,0:0:0:0:
256,192,16197,1,0,0:0:0:0:
256,192,16530,1,8,0:0:0:0:
256,192,16863,1,0,0:0:0:0:
256,192,17863,1,0,0:0:0:0:
256,192,18030,1,0,0:0:0:0:
256,192,18197,1,8,0:0:0:0:
256,192,18697,1,0,0:0:0:0:
256,192,18863,1,8,0:0:0:0:
256,192,19197,1,8,0:0:0:0:
256,192,19530,1,0,0:0:0:0:
256,192,20530,1,0,0:0:0:0:
256,192,20697,1,0,0:0:0:0:
256,192,20863,1,8,0:0:0:0:
256,192,21030,1,0,0:0:0:0:
256,192,21363,1,0,0:0:0:0:
256,192,21530,1,8,0:0:0:0:
256,192,21863,1,8,0:0:0:0:
256,192,22197,1,0,0:0:0:0:
256,192,22363,1,8,0:0:0:0:
256,192,22863,1,8,0:0:0:0:
256,192,23197,1,0,0:0:0:0:
256,192,23363,1,0,0:0:0:0:
256,192,23697,1,4,0:0:0:0:
256,192,24030,1,8,0:0:0:0:
256,192,24197,1,0,0:0:0:0:
256,192,24280,1,0,0:0:0:0:
256,192,24363,1,0,0:0:0:0:
256,192,24530,1,0,0:0:0:0:
256,192,24697,1,8,0:0:0:0:
256,192,24863,1,0,0:0:0:0:
256,192,24947,1,0,0:0:0:0:
256,192,25030,1,8,0:0:0:0:
256,192,25197,1,0,0:0:0:0:
256,192,25363,1,8,0:0:0:0:
256,192,25530,1,0,0:0:0:0:
256,192,25863,1,0,0:0:0:0:
256,192,26030,1,8,0:0:0:0:
256,192,26197,1,8,0:0:0:0:
256,192,26280,1,8,0:0:0:0:
256,192,26363,1,0,0:0:0:0:
256,192,26530,1,0,0:0:0:0:
256,192,26697,1,8,0:0:0:0:
256,192,26863,1,0,0:0:0:0:
256,192,26947,1,0,0:0:0:0:
256,192,27030,1,0,0:0:0:0:
256,192,27197,1,8,0:0:0:0:
256,192,27363,1,8,0:0:0:0:
256,192,27530,1,0,0:0:0:0:
256,192,27863,1,0,0:0:0:0:
256,192,28030,1,8,0:0:0:0:
256,192,28197,1,0,0:0:0:0:
256,192,28280,1,0,0:0:0:0:
256,192,28363,1,8,0:0:0:0:
256,192,28447,1,8,0:0:0:0:
256,192,28530,1,0,0:0:0:0:
256,192,28697,1,8,0:0:0:0:
256,192,28863,1,0,0:0:0:0:
256,192,28947,1,0,0:0:0:0:
256,192,29030,1,0,0:0:0:0:
256,192,29197,1,0,0:0:0:0:
256,192,29363,1,8,0:0:0:0:
256,192,29530,1,0,0:0:0:0:
256,192,29613,1,0,0:0:0:0:
256,192,29697,1,8,0:0:0:0:
256,192,29863,1,8,0:0:0:0:
256,192,30030,1,0,0:0:0:0:
256,192,30197,1,8,0:0:0:0:
256,192,30530,1,0,0:0:0:0:
256,192,30697,1,8,0:0:0:0:
256,192,30863,1,0,0:0:0:0:
256,192,30947,1,0,0:0:0:0:
256,192,31030,1,0,0:0:0:0:
256,192,31197,1,8,0:0:0:0:
256,192,31280,1,8,0:0:0:0:
256,192,31363,1,8,0:0:0:0:
256,192,31447,1,8,0:0:0:0:
256,192,31530,1,0,0:0:0:0:
256,192,31697,1,0,0:0:0:0:
256,192,31863,1,0,0:0:0:0:
256,192,31947,1,0,0:0:0:0:
256,192,32030,1,8,0:0:0:0:
256,192,32197,1,8,0:0:0:0:
256,192,32280,1,8,0:0:0:0:
256,192,32363,1,8,0:0:0:0:
256,192,32447,1,8,0:0:0:0:
256,192,32530,1,0,0:0:0:0:
256,192,32613,1,0,0:0:0:0:
256,192,32697,1,8,0:0:0:0:
256,192,32780,1,0,0:0:0:0:
256,192,32863,1,0,0:0:0:0:
256,192,32947,1,0,0:0:0:0:
256,192,33030,1,8,0:0:0:0:
256,192,33280,1,0,0:0:0:0:
256,192,33363,1,8,0:0:0:0:
256,192,33530,1,0,0:0:0:0:
256,192,33697,1,8,0:0:0:0:
256,192,33780,1,8,0:0:0:0:
256,192,33863,1,0,0:0:0:0:
256,192,33947,1,0,0:0:0:0:
256,192,34030,1,8,0:0:0:0:
256,192,34363,1,0,0:0:0:0:
256,192,35030,1,8,0:0:0:0:
256,192,35697,1,8,0:0:0:0:
256,192,36363,1,0,0:0:0:0:
256,192,37030,1,0,0:0:0:0:
256,192,37697,1,8,0:0:0:0:
256,192,38363,1,8,0:0:0:0:
256,192,39030,1,0,0:0:0:0:
256,192,39113,1,0,0:0:0:0:
256,192,39197,1,0,0:0:0:0:
256,192,39280,1,0,0:0:0:0:
256,192,39363,1,8,0:0:0:0:
256,192,39697,1,4,0:0:0:0:
256,192,40030,1,0,0:0:0:0:
256,192,40197,1,8,0:0:0:0:
256,192,40363,1,0,0:0:0:0:
256,192,40530,1,0,0:0:0:0:
256,192,40613,1,0,0:0:0:0:
256,192,40697,1,8,0:0:0:0:
256,192,40863,1,8,0:0:0:0:
256,192,40947,1,0,0:0:0:0:
256,192,41030,1,8,0:0:0:0:
256,192,41113,1,8,0:0:0:0:
256,192,41197,1,0,0:0:0:0:
256,192,41363,1,0,0:0:0:0:
256,192,41530,1,8,0:0:0:0:
256,192,41697,1,0,0:0:0:0:
256,192,41780,1,8,0:0:0:0:
256,192,41863,1,0,0:0:0:0:
256,192,41947,1,0,0:0:0:0:
256,192,42030,1,8,0:0:0:0:
256,192,42197,1,0,0:0:0:0:
256,192,42280,1,0,0:0:0:0:
256,192,42363,1,8,0:0:0:0:
256,192,42530,1,0,0:0:0:0:
256,192,42613,1,0,0:0:0:0:
256,192,42697,1,8,0:0:0:0:
256,192,42780,1,0,0:0:0:0:
256,192,42863,1,8,0:0:0:0:
256,192,42947,1,8,0:0:0:0:
256,192,43030,1,0,0:0:0:0:
256,192,43113,1,0,0:0:0:0:
256,192,43197,1,0,0:0:0:0:
256,192,43280,1,0,0:0:0:0:
256,192,43363,1,8,0:0:0:0:
256,192,43447,1,8,0:0:0:0:
256,192,43530,1,0,0:0:0:0:
256,192,43697,1,12,0:0:0:0:
256,192,43863,1,12,0:0:0:0:
256,192,45363,1,0,0:0:0:0:
256,192,45697,1,4,0:0:0:0:
256,192,46030,1,8,0:0:0:0:
256,192,46197,1,0,0:0:0:0:
256,192,46280,1,0,0:0:0:0:
256,192,46363,1,8,0:0:0:0:
256,192,46530,1,0,0:0:0:0:
256,192,46697,1,8,0:0:0:0:
256,192,46863,1,0,0:0:0:0:
256,192,46947,1,0,0:0:0:0:
256,192,47030,1,8,0:0:0:0:
256,192,47113,1,8,0:0:0:0:
256,192,47197,1,0,0:0:0:0:
256,192,47363,1,8,0:0:0:0:
256,192,47530,1,8,0:0:0:0:
256,192,47613,1,8,0:0:0:0:
256,192,47697,1,0,0:0:0:0:
256,192,47863,1,0,0:0:0:0:
256,192,48030,1,8,0:0:0:0:
256,192,48363,1,0,0:0:0:0:
256,192,48530,1,0,0:0:0:0:
256,192,48613,1,0,0:0:0:0:
256,192,48697,1,8,0:0:0:0:
256,192,48863,1,8,0:0:0:0:
256,192,49030,1,0,0:0:0:0:
256,192,49113,1,0,0:0:0:0:
256,192,49196,1,0,0:0:0:0:
256,192,49363,1,0,0:0:0:0:
256,192,49530,1,8,0:0:0:0:
256,192,49613,1,8,0:0:0:0:
256,192,49696,1,0,0:0:0:0:
256,192,49780,1,0,0:0:0:0:
256,192,49863,1,8,0:0:0:0:
256,192,49946,1,0,0:0:0:0:
256,192,50030,1,8,0:0:0:0:
256,192,50196,1,8,0:0:0:0:
256,192,50363,1,0,0:0:0:0:
256,192,50446,1,0,0:0:0:0:
256,192,50530,1,0,0:0:0:0:
256,192,50613,1,0,0:0:0:0:
256,192,50696,1,8,0:0:0:0:
256,192,50780,1,8,0:0:0:0:
256,192,50863,1,8,0:0:0:0:
256,192,50946,1,8,0:0:0:0:
256,192,51030,1,0,0:0:0:0:
256,192,51363,1,8,0:0:0:0:
256,192,51530,1,0,0:0:0:0:
256,192,51613,1,0,0:0:0:0:
256,192,51696,1,8,0:0:0:0:
256,192,51863,1,8,0:0:0:0:
256,192,52030,1,0,0:0:0:0:
256,192,52113,1,0,0:0:0:0:
256,192,52196,1,8,0:0:0:0:
256,192,52280,1,0,0:0:0:0:
256,192,52363,1,8,0:0:0:0:
256,192,52446,1,8,0:0:0:0:
256,192,52530,1,0,0:0:0:0:
256,192,52696,1,8,0:0:0:0:
256,192,52780,1,8,0:0:0:0:
256,192,52863,1,0,0:0:0:0:
256,192,52946,1,0,0:0:0:0:
256,192,53030,1,8,0:0:0:0:
256,192,53196,1,8,0:0:0:0:
256,192,53280,1,8,0:0:0:0:
256,192,53363,1,0,0:0:0:0:
256,192,53530,1,0,0:0:0:0:
256,192,53696,1,12,0:0:0:0:
256,192,53863,1,0,0:0:0:0:
256,192,53946,1,0,0:0:0:0:
256,192,54030,1,0,0:0:0:0:
256,192,54196,1,12,0:0:0:0:
256,192,54530,1,12,0:0:0:0:
256,192,54696,1,0,0:0:0:0:
256,192,54863,1,12,0:0:0:0:
256,192,55030,1,0,0:0:0:0:
256,192,55113,1,8,0:0:0:0:
256,192,55196,1,0,0:0:0:0:
256,192,55280,1,0,0:0:0:0:
256,192,55363,1,8,0:0:0:0:
256,192,55530,1,8,0:0:0:0:
256,192,55613,1,8,0:0:0:0:
256,192,55696,1,0,0:0:0:0:
256,192,55780,1,0,0:0:0:0:
256,192,55863,1,0,0:0:0:0:
256,192,55946,1,0,0:0:0:0:
256,192,56030,1,8,0:0:0:0:
256,192,56113,1,0,0:0:0:0:
256,192,56196,1,8,0:0:0:0:
256,192,56280,1,8,0:0:0:0:
256,192,56363,1,0,0:0:0:0:
256,192,56696,1,8,0:0:0:0:
256,192,56863,1,0,0:0:0:0:
256,192,56946,1,0,0:0:0:0:
256,192,57030,1,8,0:0:0:0:
256,192,57196,1,0,0:0:0:0:
256,192,57363,1,8,0:0:0:0:
256,192,57530,1,8,0:0:0:0:
256,192,57613,1,8,0:0:0:0:
256,192,57696,1,0,0:0:0:0:
256,192,57780,1,8,0:0:0:0:
256,192,57863,1,0,0:0:0:0:
256,192,58030,1,8,0:0:0:0:
256,192,58196,1,8,0:0:0:0:
256,192,58280,1,8,0:0:0:0:
256,192,58363,1,0,0:0:0:0:
256,192,58530,1,0,0:0:0:0:
256,192,58696,1,8,0:0:0:0:
256,192,59030,1,0,0:0:0:0:
256,192,59196,1,0,0:0:0:0:
256,192,59363,1,8,0:0:0:0:
256,192,59530,1,8,0:0:0:0:
256,192,59613,1,8,0:0:0:0:
256,192,59696,1,8,0:0:0:0:
256,192,59863,1,0,0:0:0:0:
256,192,60030,1,8,0:0:0:0:
256,192,60196,1,8,0:0:0:0:
256,192,60280,1,8,0:0:0:0:
256,192,60363,1,0,0:0:0:0:
256,192,60446,1,0,0:0:0:0:
256,192,60530,1,0,0:0:0:0:
256,192,60696,1,8,0:0:0:0:
256,192,60863,1,0,0:0:0:0:
256,192,60946,1,0,0:0:0:0:
256,192,61030,1,8,0:0:0:0:
256,192,61113,1,0,0:0:0:0:
256,192,61196,1,8,0:0:0:0:
256,192,61280,1,8,0:0:0:0:
256,192,61363,1,0,0:0:0:0:
256,192,61446,1,0,0:0:0:0:
256,192,61530,1,8,0:0:0:0:
256,192,61613,1,8,0:0:0:0:
256,192,61696,1,0,0:0:0:0:
256,192,62030,1,8,0:0:0:0:
256,192,62196,1,0,0:0:0:0:
256,192,62280,1,0,0:0:0:0:
256,192,62363,1,8,0:0:0:0:
256,192,62530,1,0,0:0:0:0:
256,192,62696,1,8,0:0:0:0:
256,192,62863,1,8,0:0:0:0:
256,192,62946,1,8,0:0:0:0:
256,192,63030,1,0,0:0:0:0:
256,192,63113,1,8,0:0:0:0:
256,192,63196,1,0,0:0:0:0:
256,192,63280,1,0,0:0:0:0:
256,192,63363,1,8,0:0:0:0:
256,192,63530,1,0,0:0:0:0:
256,192,63613,1,0,0:0:0:0:
256,192,63696,1,8,0:0:0:0:
256,192,63780,1,0,0:0:0:0:
256,192,63863,1,8,0:0:0:0:
256,192,63946,1,8,0:0:0:0:
256,192,64030,1,0,0:0:0:0:
256,192,64113,1,8,0:0:0:0:
256,192,64196,1,0,0:0:0:0:
256,192,64363,1,12,0:0:0:0:
256,192,64530,1,0,0:0:0:0:
256,192,64613,1,0,0:0:0:0:
256,192,64696,1,0,0:0:0:0:
256,192,64863,1,12,0:0:0:0:
256,192,65030,1,0,0:0:0:0:
256,192,65113,1,0,0:0:0:0:
256,192,65196,1,8,0:0:0:0:
256,192,65363,1,8,0:0:0:0:
256,192,65530,1,4,0:0:0:0:
256,192,65863,1,0,0:0:0:0:
256,192,65946,1,0,0:0:0:0:
256,192,66030,1,8,0:0:0:0:
256,192,66113,1,0,0:0:0:0:
256,192,66196,1,0,0:0:0:0:
256,192,66280,1,0,0:0:0:0:
256,192,66363,1,8,0:0:0:0:
256,192,66446,1,8,0:0:0:0:
256,192,66530,1,0,0:0:0:0:
256,192,66613,1,0,0:0:0:0:
256,192,66696,1,8,0:0:0:0:
256,192,66863,1,0,0:0:0:0:
256,192,67030,1,12,0:0:0:0:
256,192,67196,1,0,0:0:0:0:
256,192,67280,1,0,0:0:0:0:
256,192,67363,1,0,0:0:0:0:
256,192,67530,1,8,0:0:0:0:
256,192,67696,1,0,0:0:0:0:
256,192,67780,1,0,0:0:0:0:
256,192,67863,1,0,0:0:0:0:
256,192,67946,1,0,0:0:0:0:
256,192,68030,1,8,0:0:0:0:
256,192,68196,1,0,0:0:0:0:
256,192,68280,1,0,0:0:0:0:
256,192,68363,1,8,0:0:0:0:
256,192,68530,1,0,0:0:0:0:
256,192,68613,1,0,0:0:0:0:
256,192,68696,1,0,0:0:0:0:
256,192,68863,1,8,0:0:0:0:
256,192,69030,1,0,0:0:0:0:
256,192,69113,1,0,0:0:0:0:
256,192,69196,1,0,0:0:0:0:
256,192,69280,1,0,0:0:0:0:
256,192,69363,1,8,0:0:0:0:
256,192,69446,1,8,0:0:0:0:
256,192,69530,1,0,0:0:0:0:
256,192,69696,1,8,0:0:0:0:
256,192,69780,1,8,0:0:0:0:
256,192,69863,1,0,0:0:0:0:
256,192,69946,1,0,0:0:0:0:
256,192,70030,1,8,0:0:0:0:
256,192,70113,1,0,0:0:0:0:
256,192,70196,1,8,0:0:0:0:
256,192,70280,1,8,0:0:0:0:
256,192,70363,1,0,0:0:0:0:
256,192,70446,1,0,0:0:0:0:
256,192,70530,1,0,0:0:0:0:
256,192,70613,1,0,0:0:0:0:
256,192,70696,1,8,0:0:0:0:
256,192,70863,1,0,0:0:0:0:
256,192,71030,1,12,0:0:0:0:
256,192,71196,1,12,0:0:0:0:
256,192,71363,1,12,0:0:0:0:
256,192,71530,1,0,0:0:0:0:
256,192,71863,1,0,0:0:0:0:
256,192,71946,1,0,0:0:0:0:
256,192,72030,1,8,0:0:0:0:
256,192,72113,1,0,0:0:0:0:
256,192,72196,1,0,0:0:0:0:
256,192,72363,1,4,0:0:0:0:
256,192,72696,1,8,0:0:0:0:
256,192,72863,1,0,0:0:0:0:
256,192,72946,1,0,0:0:0:0:
256,192,73030,1,0,0:0:0:0:
256,192,73196,1,8,0:0:0:0:
256,192,73280,1,8,0:0:0:0:
256,192,73363,1,0,0:0:0:0:
256,192,73530,1,8,0:0:0:0:
256,192,73863,1,0,0:0:0:0:
256,192,74030,1,8,0:0:0:0:
256,192,74196,1,0,0:0:0:0:
256,192,74280,1,8,0:0:0:0:
256,192,74363,1,0,0:0:0:0:
256,192,74530,1,0,0:0:0:0:
256,192,74613,1,0,0:0:0:0:
256,192,74696,1,8,0:0:0:0:
256,192,74780,1,0,0:0:0:0:
256,192,74863,1,8,0:0:0:0:
256,192,74946,1,8,0:0:0:0:
256,192,75030,1,0,0:0:0:0:
256,192,75196,1,0,0:0:0:0:
256,192,75363,1,8,0:0:0:0:
256,192,75530,1,0,0:0:0:0:
256,192,75613,1,0,0:0:0:0:
256,192,75696,1,0,0:0:0:0:
256,192,75863,1,8,0:0:0:0:
256,192,75946,1,8,0:0:0:0:
256,192,76030,1,8,0:0:0:0:
256,192,76113,1,8,0:0:0:0:
256,192,76196,1,0,0:0:0:0:
256,192,76530,1,0,0:0:0:0:
256,192,76696,1,8,0:0:0:0:
256,192,76863,1,0,0:0:0:0:
256,192,76946,1,8,0:0:0:0:
256,192,77030,1,0,0:0:0:0:
256,192,77113,1,0,0:0:0:0:
256,192,77196,1,8,0:0:0:0:
256,192,77280,1,8,0:0:0:0:
256,192,77363,1,0,0:0:0:0:
256,192,77530,1,8,0:0:0:0:
256,192,77613,1,8,0:0:0:0:
256,192,77696,1,0,0:0:0:0:
256,192,78030,1,8,0:0:0:0:
256,192,78196,1,0,0:0:0:0:
256,192,78280,1,0,0:0:0:0:
256,192,78363,1,8,0:0:0:0:
256,192,78530,1,8,0:0:0:0:
256,192,78613,1,0,0:0:0:0:
256,192,78696,1,8,0:0:0:0:
256,192,78863,1,0,0:0:0:0:
256,192,79196,1,0,0:0:0:0:
256,192,79363,1,8,0:0:0:0:
256,192,79530,1,0,0:0:0:0:
256,192,79613,1,0,0:0:0:0:
256,192,79696,1,8,0:0:0:0:
256,192,79780,1,0,0:0:0:0:
256,192,79863,1,8,0:0:0:0:
256,192,79946,1,8,0:0:0:0:
256,192,80030,1,0,0:0:0:0:
256,192,80113,1,0,0:0:0:0:
256,192,80196,1,8,0:0:0:0:
256,192,80280,1,0,0:0:0:0:
256,192,80363,1,8,0:0:0:0:
256,192,80530,1,0,0:0:0:0:
256,192,80613,1,0,0:0:0:0:
256,192,80696,1,0,0:0:0:0:
256,192,80863,1,0,0:0:0:0:
256,192,81030,1,8,0:0:0:0:
256,192,81196,1,0,0:0:0:0:
256,192,81280,1,0,0:0:0:0:
256,192,81363,1,8,0:0:0:0:
256,192,81530,1,4,0:0:0:0:
256,192,81863,1,12,0:0:0:0:
256,192,82030,1,12,0:0:0:0:
256,192,82196,1,12,0:0:0:0:
256,192,83030,12,0,85530,0:0:0:0:
