osu file format v9

[General]
AudioFilename: Natsuiro Surprise (Short Ver.).mp3
AudioLeadIn: 1500
PreviewTime: 53387
Countdown: 0
SampleSet: Normal
StackLeniency: 0.7
Mode: 1
LetterboxInBreaks: 0

[Editor]
DistanceSpacing: 1
BeatDivisor: 4
GridSize: 32

[Metadata]
Title:Natsuiro Surprise (Short Ver.)
Artist:Toyama Nao
Creator:DJPop
Version:Taiko Oni
Source:Kami Nomi zo Shiru Sekai OVA
Tags:Opening Nakagawa Kanon

[Difficulty]
HPDrainRate:5
CircleSize:5
OverallDifficulty:5
ApproachRate:5
SliderMultiplier:1.4
SliderTickRate:4

[Events]
//Background and Video events
0,0,"Taiko BG.jpg"
//Break Periods
//Storyboard Layer 0 (Background)
//Storyboard Layer 1 (Fail)
//Storyboard Layer 2 (Pass)
//Storyboard Layer 3 (Foreground)
//Storyboard Sound Samples
//Background Colour Transformations
3,100,255,0,255

[TimingPoints]
-710,357.142857142857,4,1,0,100,1,0
53397,-100,4,1,0,100,0,1
91968,-100,4,1,0,100,0,0

[Colours]
Combo1 : 0,255,0
Combo2 : 0,255,255
Combo3 : 255,0,255
Combo4 : 255,255,0

[HitObjects]
224,192,539,21,0
224,192,897,1,0
288,192,1076,1,8
288,192,1254,1,0
224,192,1432,1,0
288,192,1611,1,8
288,192,1789,1,8
224,192,1968,1,0
224,192,2325,1,0
288,192,2504,1,8
224,192,2682,1,0
224,192,2860,1,0
288,192,3039,1,8
288,192,3217,1,8
224,192,3396,1,0
224,192,3754,1,0
288,192,3933,1,8
224,192,4111,1,0
224,192,4289,1,0
288,192,4468,1,8
288,192,4646,1,8
224,192,4825,1,0
288,192,5004,1,8
288,192,5093,1,8
288,192,5182,1,8
288,192,5361,1,8
224,192,5539,1,0
288,192,5718,1,8
288,192,5807,1,8
224,192,5897,1,0
288,192,6075,1,8
224,128,6254,1,4
224,192,6611,1,0
224,192,6700,1,0
288,192,6789,1,8
224,192,6968,1,0
288,192,7147,1,8
224,192,7325,1,0
224,192,7414,1,0
288,192,7504,1,8
224,128,7682,1,4
224,192,8039,1,0
224,192,8129,1,0
288,192,8218,1,8
224,192,8397,1,0
288,192,8575,1,8
224,192,8754,1,0
224,192,8843,1,0
288,192,8932,1,8
224,128,9111,1,4
224,192,9468,1,0
224,192,9557,1,0
288,192,9646,1,8
224,192,9825,1,0
288,192,10004,1,8
224,192,10182,1,0
224,192,10272,1,0
288,192,10361,1,8
224,128,10539,1,4
224,192,10896,1,0
224,192,10986,1,0
288,192,11075,1,8
224,192,11254,1,0
288,192,11432,1,8
288,192,11611,1,8
288,192,11700,1,8
288,192,11789,1,8
224,128,11968,1,4
288,192,12325,1,8
224,192,12414,1,0
288,192,12504,1,8
288,192,12682,1,8
224,192,12861,1,0
224,192,12950,1,0
288,192,13039,1,8
224,192,13218,1,0
288,192,13397,1,8
288,192,13486,1,8
224,192,13575,1,0
224,192,13754,1,0
224,192,13843,1,0
288,192,13932,1,8
224,192,14111,1,0
288,192,14468,1,8
288,192,14647,1,8
224,128,15004,1,4
224,192,15361,1,0
288,192,15718,1,8
224,192,16075,1,0
288,192,16254,1,8
224,192,16432,1,0
288,192,16611,1,8
224,192,16789,1,0
224,192,16968,1,0
288,192,17147,1,8
224,192,17325,1,0
224,192,17504,1,0
224,192,17861,1,0
224,192,18218,1,0
288,192,18575,1,8
224,192,18932,1,0
288,192,19111,1,8
224,192,19289,1,0
288,192,19468,1,8
224,192,19647,1,0
224,192,19825,1,0
288,192,20004,1,8
224,192,20182,1,0
224,192,20361,1,0
288,192,20539,1,8
224,192,20718,1,0
224,192,21075,1,0
288,192,21432,1,8
224,192,21789,1,0
288,192,21968,1,8
224,192,22147,1,0
288,192,22325,1,8
224,192,22504,1,0
224,192,22682,1,0
288,192,22861,1,8
224,192,23039,1,0
224,192,23218,1,0
224,192,23575,1,0
224,192,23932,1,0
288,192,24289,1,8
224,192,24647,1,0
288,192,24825,1,8
224,192,25004,1,0
288,192,25182,1,8
224,192,25361,1,0
224,192,25539,1,0
288,128,25897,1,12
288,128,26075,1,12
224,192,26432,1,0
224,192,26611,1,0
288,192,26789,1,8
224,192,26968,1,0
224,192,27057,1,0
224,192,27147,1,0
224,192,27325,1,0
288,192,27504,1,8
224,192,27682,1,0
224,192,27772,1,0
224,192,27861,1,0
224,192,28039,1,0
288,192,28218,1,8
160,256,28397,2,0,B|384:256,1,210
224,192,29289,1,0
224,192,29468,1,0
288,192,29647,1,8
224,192,29825,1,0
224,192,29914,1,0
224,192,30004,1,0
224,192,30182,1,0
288,192,30361,1,8
224,192,30539,1,0
224,192,30629,1,0
224,192,30718,1,0
224,192,30897,1,0
288,192,31075,1,8
224,192,31254,1,0
224,192,31343,1,0
224,192,31432,1,0
288,192,31611,1,8
288,192,31700,1,8
224,192,31789,1,0
288,192,31968,1,8
224,192,32147,1,0
288,192,32504,1,8
224,192,32682,1,0
224,192,33039,1,0
288,192,33218,1,8
224,192,33397,1,0
224,192,33486,1,0
224,192,33575,1,0
224,192,33754,1,0
224,192,33843,1,0
288,192,33932,1,8
224,192,34111,1,0
288,192,34468,1,8
288,192,34557,1,8
288,192,34647,1,8
224,192,34825,1,0
224,192,34914,1,0
224,192,35004,1,0
288,192,35361,1,8
224,192,35718,1,0
224,192,35897,1,0
288,192,36075,1,8
224,192,36254,1,0
224,192,36343,1,0
224,192,36432,1,0
224,192,36611,1,0
224,192,36700,1,0
288,192,36789,1,8
224,192,36968,1,0
288,192,37325,1,8
288,192,37504,1,8
224,128,37861,1,4
224,128,38039,1,4
288,128,38575,1,12
224,192,38932,1,0
224,192,39111,1,0
288,192,39468,1,8
224,192,39647,1,0
288,192,40004,1,8
224,192,40182,1,0
288,192,40539,1,8
224,128,40718,1,4
224,128,40897,1,4
224,128,41075,1,4
288,128,41432,1,12
224,192,41789,1,0
224,192,41968,1,0
288,192,42325,1,8
224,192,42504,1,0
288,192,42861,1,8
224,192,43039,1,0
224,192,43129,1,0
224,192,43218,1,0
224,192,43397,1,0
224,128,43575,1,4
224,128,43754,1,4
288,128,44289,1,12
224,192,44647,1,0
224,192,44825,1,0
288,192,45182,1,8
224,192,45361,1,0
288,192,45718,1,8
288,192,45897,1,8
288,192,46075,1,8
288,192,46254,1,8
224,128,46432,1,4
288,192,46789,1,8
224,192,46968,1,0
224,192,47057,1,0
288,192,47147,1,8
224,192,47325,1,0
288,192,47504,1,8
288,192,47593,1,8
224,192,47682,1,0
224,192,47861,1,0
288,192,48039,1,8
224,192,48218,1,0
288,192,48397,1,8
288,192,48575,1,8
288,192,48664,1,8
224,192,48754,1,0
288,192,48932,1,8
224,192,49022,1,0
224,192,49111,1,0
224,128,49289,1,4
288,192,49647,1,8
288,192,49736,1,8
288,192,49825,1,8
224,192,49914,1,0
224,192,50004,1,0
224,192,50182,1,0
224,192,50272,1,0
288,192,50361,1,8
224,128,50539,1,4
224,192,50897,1,0
288,192,51075,1,8
288,192,51343,1,8
224,192,51432,1,0
224,192,51611,1,0
288,192,51789,1,8
288,128,52147,1,12
288,128,52325,1,12
288,128,52504,1,12
288,128,52682,1,12
224,128,53397,1,4
224,192,53754,1,0
224,192,53843,1,0
288,192,53932,1,8
224,192,54111,1,0
224,192,54200,1,0
224,192,54289,1,0
288,192,54379,1,8
224,192,54468,1,0
288,192,54647,1,8
224,192,54825,1,0
224,192,55182,1,0
224,192,55272,1,0
288,192,55361,1,8
224,192,55539,1,0
288,192,55629,1,8
224,192,55718,1,0
224,192,55807,1,0
288,192,55897,1,8
288,192,56075,1,8
224,192,56254,1,0
224,192,56611,1,0
224,192,56700,1,0
288,192,56789,1,8
224,192,56968,1,0
224,192,57057,1,0
224,192,57147,1,0
288,192,57236,1,8
224,192,57325,1,0
288,192,57504,1,8
224,192,57682,1,0
224,192,58039,1,0
224,192,58129,1,0
288,192,58218,1,8
224,192,58397,1,0
288,192,58486,1,8
224,192,58575,1,0
224,192,58664,1,0
288,192,58754,1,8
288,192,58932,1,8
224,128,59111,1,4
224,192,59468,1,0
288,192,59647,1,8
224,192,59825,1,0
224,192,59914,1,0
224,192,60004,1,0
224,192,60182,1,0
288,192,60361,1,8
224,192,60539,1,0
224,192,60629,1,8
224,192,60718,1,0
224,192,60897,1,0
288,192,61075,1,8
224,192,61254,1,0
288,192,61343,1,8
224,192,61432,1,0
288,192,61611,1,8
288,192,61789,1,8
224,192,62147,1,0
288,192,62504,1,8
224,192,62682,1,0
224,192,62772,1,8
224,192,62861,1,0
224,192,63039,1,0
224,192,63129,1,0
288,192,63218,1,8
224,192,63397,1,0
224,192,63486,1,0
288,192,63575,1,8
288,192,63664,1,8
288,192,63754,1,8
288,192,63843,1,8
288,192,63932,1,8
288,192,64022,1,8
224,192,64111,1,0
288,128,64289,1,12
224,128,64468,1,4
224,128,64825,1,4
224,192,65182,1,0
224,192,65272,1,0
288,192,65360,1,8
224,192,65539,1,0
224,192,65629,1,0
224,192,65717,1,0
288,192,65807,1,8
224,192,65896,1,0
224,192,65986,1,0
288,192,66075,1,8
224,192,66253,1,0
224,192,66610,1,0
224,192,66700,1,0
288,192,66789,1,8
224,192,66967,1,0
288,192,67057,1,8
224,192,67146,1,0
224,192,67236,1,0
288,192,67325,1,8
288,192,67414,1,8
288,192,67503,1,8
224,192,67682,1,0
224,192,68039,1,0
224,192,68129,1,0
288,192,68217,1,8
224,192,68396,1,0
224,192,68486,1,0
224,192,68575,1,0
288,192,68664,1,8
224,192,68753,1,0
224,192,68843,1,0
288,192,68932,1,8
224,192,69110,1,0
224,192,69467,1,0
224,192,69557,1,0
288,192,69646,1,8
224,192,69825,1,0
288,192,69914,1,8
224,192,70003,1,0
224,192,70093,1,0
288,192,70182,1,8
288,192,70272,1,8
288,192,70360,1,8
224,128,70539,1,4
224,192,70896,1,0
224,192,70986,1,0
288,192,71075,1,8
224,192,71254,1,0
288,192,71343,1,8
224,192,71432,1,0
224,192,71610,1,0
288,192,71789,1,8
224,192,71967,1,0
288,192,72057,1,8
224,192,72147,1,0
224,192,72325,1,0
224,192,72414,1,0
288,192,72503,1,8
288,192,72682,1,8
288,192,72771,1,8
224,192,72860,1,0
288,192,73039,1,8
288,192,73217,1,8
224,192,73575,1,0
288,192,73932,1,8
224,192,74110,1,0
224,192,74200,1,0
224,192,74289,1,0
288,192,74379,1,8
224,192,74467,1,0
288,192,74646,1,8
224,192,74825,1,0
224,192,74914,1,0
224,192,75003,1,0
288,192,75092,1,8
288,192,75182,1,8
288,192,75271,1,8
288,192,75360,1,8
224,192,75539,1,0
288,192,75718,1,8
224,192,75897,1,0
288,192,76075,1,8
224,128,76254,1,4
224,192,76611,1,0
288,192,76789,1,8
224,192,76968,1,0
288,192,77147,1,8
224,192,77325,1,0
288,192,77504,1,8
224,128,77682,1,4
288,192,78039,1,8
288,192,78129,1,8
224,192,78218,1,0
224,192,78307,1,0
288,192,78397,1,8
288,192,78486,1,8
224,192,78575,1,0
224,192,78754,1,0
288,192,78932,1,8
224,128,79111,1,4
224,192,79468,1,0
288,192,79647,1,8
224,192,79825,1,0
288,192,80004,1,8
288,192,80182,1,8
288,192,80361,1,8
224,128,80539,1,4
224,192,80897,1,0
288,192,80986,1,8
288,192,81075,1,8
224,128,81254,1,4
288,192,81611,1,8
288,192,81789,1,8
288,192,81968,1,8
288,128,82147,1,12
224,128,82325,1,4
288,128,82682,1,12
224,128,82861,1,4
288,128,83218,1,12
224,128,83397,1,4
288,192,83754,1,8
288,192,83932,1,8
224,192,84111,1,0
288,192,84289,1,8
224,192,84468,1,0
128,256,84825,2,0,B|416:256|416:256|416:320|416:320|128:320,1,630
288,192,86789,1,8
224,192,87147,1,0
224,192,87325,1,0
224,192,87414,1,0
288,192,87504,1,8
224,128,87682,1,4
288,192,88039,1,8
224,192,88218,1,0
288,192,88397,1,8
288,192,88575,1,8
224,192,88754,1,0
224,192,88932,1,0
128,256,89111,2,0,B|416:256|416:256|416:320|416:320|160:320,1,595
288,192,90897,1,8
288,192,91075,1,8
288,192,91254,1,8
288,192,91432,1,8
288,192,91611,1,8
288,192,91789,1,8
224,128,91968,1,4
224,192,92325,1,0
224,192,92414,1,0
288,192,92504,1,8
288,192,92682,1,8
224,192,92861,1,0
224,192,92950,1,0
288,192,93039,1,8
224,192,93218,1,0
224,128,93397,1,4
224,192,93754,1,0
224,192,93843,1,0
288,192,93932,1,8
288,192,94111,1,8
288,192,94200,1,8
224,192,94289,1,0
224,192,94468,1,0
224,192,94557,1,0
288,192,94647,1,8
224,128,94825,1,4
224,192,95182,1,0
224,192,95272,1,0
288,192,95361,1,8
288,192,95539,1,8
224,192,95718,1,0
224,192,95807,1,0
288,192,95897,1,8
224,192,96075,1,0
224,128,96254,1,4
224,192,96611,1,0
224,192,96700,1,0
288,192,96789,1,8
288,192,96879,1,8
224,192,96968,1,0
288,192,97147,1,8
288,192,97236,1,8
288,192,97325,1,8
288,192,97414,1,8
288,192,97504,1,8
224,128,97682,1,4
224,192,98039,1,0
224,192,98129,1,0
288,192,98218,1,8
288,192,98397,1,8
224,192,98575,1,0
224,192,98664,1,0
288,192,98754,1,8
224,192,98932,1,0
224,128,99111,1,4
224,192,99468,1,0
224,192,99557,1,0
288,192,99647,1,8
288,192,99825,1,8
288,192,99914,1,8
224,192,100004,1,0
224,192,100182,1,0
224,192,100272,1,0
288,192,100361,1,8
224,128,100539,1,4
224,192,100897,1,0
224,192,100986,1,0
288,192,101075,1,8
224,128,101254,1,4
224,192,101611,1,0
288,192,101700,1,8
288,192,101789,1,8
224,128,101968,1,4
224,192,102325,1,0
224,192,102414,1,0
288,192,102504,1,8
288,192,102593,1,8
224,192,102682,1,0
288,192,102861,1,8
288,192,102950,1,8
288,192,103039,1,8
288,192,103129,1,8
288,192,103218,1,8
224,128,103397,1,4
224,192,103754,1,0
224,192,103843,1,0
288,192,103932,1,8
288,192,104111,1,8
288,192,104200,1,8
224,192,104289,1,0
224,192,104379,1,0
288,192,104468,1,8
224,192,104557,1,0
288,192,104647,1,8
224,128,104825,1,4
224,192,105182,1,0
224,192,105272,1,0
288,192,105361,1,8
288,192,105450,1,8
224,192,105539,1,0
288,192,105629,1,8
224,192,105718,1,0
288,192,105897,1,8
224,192,105986,1,0
288,192,106075,1,8
224,128,106254,1,4
224,192,106611,1,8
224,192,106700,1,0
288,192,106789,1,8
224,192,106879,1,0
288,192,106968,1,8
224,192,107147,1,0
288,192,107236,1,8
288,192,107325,1,8
288,192,107414,1,8
224,192,107504,1,0
224,128,107682,1,4
224,192,108039,1,0
224,192,108129,1,0
288,192,108218,1,8
288,192,108307,1,8
224,192,108397,1,0
288,192,108575,1,8
288,192,108664,1,8
288,192,108754,1,8
288,192,108843,1,8
288,192,108932,1,8
224,128,109111,1,4
224,192,109468,1,0
224,192,109557,1,0
288,192,109646,1,8
288,192,109825,1,8
288,192,109914,1,8
224,192,110003,1,0
224,192,110093,1,0
288,192,110182,1,8
224,192,110271,1,0
288,192,110361,1,8
224,128,110539,1,4
224,192,110897,1,0
224,192,110987,1,0
288,192,111076,1,8
288,192,111165,1,8
224,192,111254,1,0
288,192,111344,1,8
224,192,111433,1,0
288,192,111612,1,8
224,192,111701,1,0
288,192,111790,1,8
224,128,111968,1,4
224,192,112325,1,0
224,192,112414,1,0
288,192,112504,1,8
288,192,112593,1,8
224,192,112682,1,0
288,192,112861,1,8
288,192,112950,1,8
224,192,113039,1,0
224,192,113129,1,0
288,192,113218,1,8
224,192,113397,1,0
224,192,113575,1,0
288,192,113754,1,8
288,192,113843,1,8
288,192,113932,1,8
224,192,114022,1,0
224,192,114111,1,0
224,192,114289,1,0
224,192,114379,1,0
288,192,114468,1,8
288,192,114557,1,8
288,192,114647,1,8
224,128,114825,1,4
256,192,115004,12,0,120718
