osu file format v9

[General]
AudioFilename: Natsuiro Surprise (Short Ver.).mp3
AudioLeadIn: 1500
PreviewTime: 53387
Countdown: 0
SampleSet: Normal
StackLeniency: 0.7
Mode: 0
LetterboxInBreaks: 0

[Editor]
DistanceSpacing: 1
BeatDivisor: 4
GridSize: 4

[Metadata]
Title:Natsuiro Surprise (Short Ver.)
Artist:Toyama Nao
Creator:DJPop
Version:Insane
Source:Kami Nomi zo Shiru Sekai OVA
Tags:Opening Nakagawa Kanon

[Difficulty]
HPDrainRate:7
CircleSize:4
OverallDifficulty:7
ApproachRate:8
SliderMultiplier:1.92
SliderTickRate:1

[Events]
//Background and Video events
0,0,"Natsuiro Surprise (Short Ver.).jpg"
Video,-900,"Natsuiro Surprise (Short Ver.).avi"
//Break Periods
//Storyboard Layer 0 (Background)
//Storyboard Layer 1 (Fail)
//Storyboard Layer 2 (Pass)
//Storyboard Layer 3 (Foreground)
//Storyboard Sound Samples
//Background Colour Transformations
3,100,255,0,255

[TimingPoints]
-710,357.142857142857,4,1,1,65,1,0
5450,-100,4,1,2,65,0,0
5629,-100,4,1,1,65,0,0
5807,-100,4,1,2,65,0,0
6164,-100,4,2,1,75,0,0
14022,-100,4,1,2,75,0,0
14825,-100,4,2,1,70,0,0
25807,-100,4,2,2,70,0,0
26254,-100,4,2,1,70,0,0
28307,-100,4,2,1,70,0,0
28664,-100,4,2,2,70,0,0
29111,-100,4,2,1,70,0,0
31164,-120.481927710843,4,2,1,70,0,0
31522,-100,4,2,2,70,0,0
31879,-100,4,2,1,70,0,0
34379,-100,4,2,2,70,0,0
34736,-100,4,2,1,70,0,0
37147,-100,4,2,2,70,0,0
37682,-100,4,2,1,70,0,0
42950,-100,4,1,2,70,0,0
43486,-100,4,2,1,70,0,0
46700,-100,4,2,1,40,0,0
46879,-100,4,1,2,70,0,0
47236,-100,4,1,2,40,0,0
47414,-100,4,2,1,40,0,0
47593,-100,4,1,2,70,0,0
48129,-100,4,2,1,40,0,0
48307,-100,4,1,2,70,0,0
48843,-100,4,2,1,40,0,0
49022,-100,4,1,2,70,0,0
49200,-100,4,2,1,70,0,0
49468,-100,4,1,1,70,0,0
49736,-100,4,1,2,70,0,0
50272,-100,4,1,1,70,0,0
50450,-100,4,2,1,70,0,0
51968,-100,4,1,1,85,0,0
53218,-100,4,2,1,75,0,0
53397,-100,4,2,1,75,0,1
53575,-100,4,2,2,75,0,1
59022,-100,4,2,1,75,0,1
59289,-100,4,2,2,75,0,1
63307,-100,4,1,1,45,0,1
63486,-100,4,1,1,60,0,1
63575,-100,4,1,1,75,0,1
64111,-100,4,1,2,75,0,1
64379,-100,4,1,1,75,0,1
64647,-100,4,2,1,75,0,0
64825,-100,4,2,1,75,0,1
65004,-100,4,2,2,75,0,1
70450,-100,4,2,1,75,0,1
70718,-100,4,2,2,75,0,1
74736,-100,4,1,1,45,0,1
74914,-100,4,1,1,60,0,1
75004,-100,4,1,1,75,0,1
76164,-100,4,2,1,75,0,1
76254,-100,4,2,1,75,0,0
77861,-100,4,1,2,75,0,0
78843,-100,4,1,1,75,0,0
79022,-100,4,2,1,75,0,0
82057,-100,4,1,1,85,0,0
82236,-100,4,2,1,75,0,0
82504,-100,4,1,1,85,0,0
82772,-100,4,2,1,75,0,0
83039,-100,4,1,1,85,0,0
83307,-100,4,2,1,75,0,0
83575,-100,4,1,2,75,0,0
84200,-100,4,1,1,75,0,0
84379,-100,4,2,1,75,0,0
87861,-100,4,1,1,75,0,0
88129,-100,4,1,2,75,0,0
89022,-100,4,2,1,75,0,0
89200,-100,4,1,1,75,0,0
90807,-100,4,1,1,50,0,0
90986,-100,4,1,1,55,0,0
91164,-100,4,1,1,60,0,0
91343,-100,4,1,1,65,0,0
91522,-100,4,1,1,70,0,0
91700,-100,4,1,1,75,0,0
91879,-100,4,2,1,75,0,0
97057,-100,4,1,1,75,0,0
97593,-100,4,2,1,75,0,0
102772,-100,4,1,1,75,0,0
103307,-100,4,2,1,75,0,0
108486,-100,4,1,1,75,0,0
109022,-100,4,2,1,75,0,0
113664,-100,4,1,1,75,0,0
114022,-100,4,1,2,75,0,0
114200,-100,4,1,1,75,0,0
114736,-100,4,2,1,75,0,0
114825,-100,4,2,1,75,0,1
114914,-100,4,1,1,75,0,1
120718,-100,4,1,1,75,0,0

[Colours]
Combo1 : 0,255,0
Combo2 : 0,255,255
Combo3 : 255,0,255
Combo4 : 255,255,0

[HitObjects]
250,26,1075,21,2
253,29,1611,1,2
256,32,1789,1,2
58,346,2504,5,2
61,349,3039,1,2
64,352,3218,1,2
442,346,3932,5,2
445,349,4468,1,2
448,352,4647,1,2
256,32,5093,5,8
256,32,5182,1,8
208,116,5361,1,10
304,116,5539,1,8
352,200,5718,1,8
256,200,5897,1,6
160,200,6075,1,6
104,124,6254,6,0,B|60:144|32:200|60:256|104:276,1,192,6|2
192,316,6789,2,0,B|280:352,1,96,8|2
372,316,7147,2,0,B|460:352,2,96,8|2|8
436,244,7682,6,0,B|484:212|491:164|484:116|436:84,1,192,6|2
352,32,8218,1,8
256,32,8397,2,0,B|208:32,2,48,2|2|8
304,116,8754,2,0,B|302:165|284:208,1,96,2|8
244,296,9111,6,0,B|220:344|168:364|116:344|92:296,1,192,6|2
52,209,9647,2,0,B|34:165|32:116,1,96,8|2
128,128,10004,2,0,B|126:79|107:34,2,96,8|2|8
204,68,10539,6,0,B|240:28|288:17|336:28|372:68,1,192,6|2
408,104,10986,1,2
440,140,11075,1,8
480,228,11254,1,2
394,268,11432,2,0,B|400:292|417:310|439:320|465:319,2,96,8|10|10
364,176,11968,6,0,B|340:128|288:108|236:128|212:176,1,192,6|2
180,268,12504,1,8
108,204,12682,2,0,B|61:209|24:244,1,96,0|2
95,308,13039,2,0,B|142:303|180:268,1,96,2|8
216,176,13397,2,0,B|241:180|260:195|273:215|274:241,2,96,0|2|2
124,132,13932,5,8
36,92,14111,1,8
388,132,14468,5,4
476,92,14647,1,4
256,352,15004,5,6
256,32,15361,1,2
256,258,15718,2,0,B|281:256|302:243|317:224|321:199,1,96,10|0
256,126,16075,2,0,B|230:127|209:140|194:159|190:184,1,96,2|0
168,280,16432,5,2
104,352,16611,1,8
40,280,16789,1,2
56,184,16968,2,0,B|66:136|32:96,2,96,0|10|0
152,184,17504,2,0,B|142:136|176:96,1,96,2|0
256,32,17861,5,2
256,352,18218,1,2
335,95,18575,2,0,B|370:136|360:184,1,96,10|0
480,95,18932,2,0,B|446:136|456:184,1,96,2|0
472,280,19289,5,2
408,352,19468,1,8
344,280,19647,1,2
324,184,19825,2,0,B|321:158|307:138|287:124|261:121,1,96,0|10
184,184,20182,1,0
256,252,20361,1,2
188,321,20539,2,0,B|162:318|142:304|128:284|125:258,1,96,0|2
128,32,21075,5,2
31,32,21254,2,0,B|27:57|34:80|49:99|73:109,1,96,0|10
181,110,21611,2,0,B|206:99|221:80|228:57|224:32,1,96,0|2
320,32,21968,2,0,B|416:32,2,96,0|2|8
304,128,22504,5,2
400,128,22682,2,0,B|479:184,1,96,0|10
400,240,23039,2,0,B|479:296,1,96,0|2
400,352,23397,1,0
336,280,23575,6,0,B|304:328|256:335|208:328|176:280,2,192,2|2|10
256,224,24468,1,0
256,128,24647,1,2
188,60,24825,2,0,B|144:29|100:60,1,96,0|2
32,128,25182,6,0,B|111:184,1,96,8|2
32,240,25539,2,0,B|111:296,1,96,0|2
32,352,25897,1,12
32,352,26075,1,12
256,335,26433,5,6
340,308,26611,1,0
392,236,26790,1,10
392,147,26969,1,0
340,75,27147,1,2
256,48,27326,1,0
171,75,27504,1,10
119,147,27683,1,0
119,236,27861,5,2
171,308,28039,1,0
256,335,28218,1,10
256,240,28397,2,0,B|256:144,1,96,0|2
256,48,28754,1,4
256,48,28932,1,14
352,336,29289,5,2
431,282,29467,1,0
464,192,29646,1,10
431,102,29825,1,0
352,48,30003,1,2
256,32,30182,1,0
160,48,30360,1,10
81,102,30539,1,0
48,192,30717,5,2
81,282,30896,1,0
160,336,31074,1,10
256,352,31253,2,0,B|256:272,1,79.6799970554353,0|2
256,192,31610,1,4
256,192,31788,1,14
176,136,31968,6,0,B|208:88|256:81|304:88|336:136,1,192
392,216,32504,1,10
448,136,32682,2,0,B|449:83|398:64,1,96,0|2
304,32,33039,2,0,B|256:20|208:32,1,96,0|10
114,63,33397,2,0,B|62:83|64:136,2,96,0|2|0
176,136,33932,5,10
115,212,34111,2,0,B|111:260|64:288,1,96,0|2
144,352,34468,1,4
200,272,34647,1,14
256,192,34825,1,0
312,272,35004,6,0,B|344:320|392:327|440:320|472:272,2,192,2|10|2
392,216,35897,1,0
472,160,36075,1,10
392,104,36254,1,0
312,48,36432,6,0,B|327:99|293:137,1,96,2|0
200,48,36789,2,0,B|184:99|218:137,1,96,10|8
256,336,37325,1,4
256,336,37504,1,4
80,48,37861,5,6
128,128,38039,1,2
80,208,38218,2,0,B|32:176|25:128|32:80|80:48,1,192,0|8
304,188,38932,5,2
336,280,39111,1,2
256,336,39289,1,0
176,280,39468,1,8
208,188,39647,1,2
432,48,40004,6,0,B|445:97|480:128,1,96,8|2
383,160,40361,2,0,B|419:191|432:240,1,96,0|8
448,336,40718,5,2
352,352,40897,1,2
256,336,41075,1,2
176,280,41254,1,0
136,192,41432,1,8
376,192,41789,5,2
336,104,41968,1,2
256,48,42147,1,0
160,32,42325,1,8
64,48,42504,2,0,B|16:80|9:128|16:176|64:208,1,192,2|8
48,304,43039,5,8
72,338,43129,1,8
112,344,43218,1,4
184,280,43397,1,4
184,184,43575,6,0,B|160:136|124:112,2,96,6|2|0
256,352,44289,1,8
256,32,44647,1,2
292,116,44825,1,2
328,200,45004,2,0,B|352:248|388:272,2,96,0|8|2
440,40,45718,5,8
478,128,45897,1,8
384,144,46075,1,8
430,228,46254,1,8
336,248,46432,6,0,B|308:288|256:315|204:288|176:248,1,192,6|2
256,192,46968,1,8
200,112,47147,2,0,B|160:112|152:80|112:80,2,96,4|4|2
256,32,47682,1,0
312,112,47861,2,0,B|352:112|360:80|400:80,2,96,4|8|0
255,192,48397,5,8
288,285,48575,2,0,B|332:297,2,48,8|8|4
208,340,48932,1,2
128,284,49111,1,0
160,192,49289,1,6
332,112,49647,5,8
388,32,49825,1,8
480,64,50003,1,8
480,160,50182,1,4
388,192,50361,1,8
332,112,50539,1,6
144,56,50897,6,0,B|72:120,1,96,2|8
72,264,51343,1,2
72,264,51432,2,0,B|144:328,2,96,2|2|8
368,192,52147,5,8
256,192,52325,1,8
144,192,52504,1,8
32,192,52682,1,8
480,192,53397,5,6
352,32,53754,5,2
304,116,53932,1,12
208,116,54111,1,0
160,32,54289,2,0,B|124:36|116:76|80:80,2,96,2|2|12
256,32,54825,1,0
472,244,55182,6,0,B|428:275|384:244,1,96,2|12
383,141,55539,1,0
383,141,55629,1,8
383,141,55718,2,0,B|428:109|472:140,2,96,2|6|12
296,192,56254,1,0
160,352,56611,5,0
208,268,56789,1,12
304,268,56968,1,0
352,352,57146,2,0,B|388:348|396:308|432:304,2,96,2|2|12
256,352,57682,1,0
32,192,58039,5,2
96,120,58218,2,0,B|128:76|180:44,1,96,12|0
209,36,58486,1,8
256,32,58575,1,2
348,55,58754,1,6
416,120,58932,2,0,B|452:152|480:192,1,96,12|6
256,152,59468,5,2
336,208,59647,2,0,B|304:256|256:263|208:256|176:208,2,192,12|2|12
416,260,60539,2,0,B|404:284|364:336|296:348|256:348,1,192,0|2
164,324,61075,1,12
96,260,61254,1,0
96,260,61343,1,8
96,260,61432,2,0,B|32:352,2,96,2|6|12
32,80,62147,6,0,B|64:32|112:25|160:32|192:80,1,192,2|12
288,80,62682,2,0,B|321:44|368:32,1,96,0|2
436,104,63039,2,0,B|403:140|356:152,1,96,2|12
424,224,63397,2,0,B|456:260,8,48,8|8|12|8|8|8|10|8|4
352,292,64289,5,4
352,292,64468,1,4
160,292,64825,6,0,B|107:308|61:290|31:251|34:193,1,192,6|2
32,96,65361,1,12
104,32,65539,1,0
176,96,65718,2,0,B|156:142|176:188,1,96,2|2
256,254,66075,1,12
352,292,66254,6,0,B|404:308|450:290|480:251|477:193,1,192,0|2
480,96,66789,1,12
408,32,66968,1,0
361,42,67057,1,8
320,68,67147,2,0,B|284:96|272:151,1,96,2|6
256,254,67504,1,12
256,352,67682,6,0,B|156:352|92:268,1,192
32,192,68218,1,12
48,96,68397,1,0
144,112,68575,2,0,B|197:116|217:164,1,96,2|2
256,254,68932,1,12
256,352,69111,6,0,B|356:352|420:268,1,192,0|2
480,192,69647,1,12
464,96,69825,1,0
464,96,69914,1,8
464,96,70004,2,0,B|453:42|400:36,1,96,2|6
300,32,70361,1,12
208,64,70539,6,0,B|200:120|256:136|256:136|256:136|312:152|304:209,1,192,6|2
208,208,71075,2,0,B|200:264|256:280|256:280|256:280|312:296|304:353,1,192,12|2
208,353,71611,1,2
122,313,71789,1,12
36,274,71968,6,0,B|27:217|83:201|83:201|83:201|139:185|131:129,1,192,0|2
132,32,72504,1,12
216,80,72682,2,0,B|264:80,2,48,0|8|2
131,129,73039,1,6
48,80,73218,1,12
296,320,73575,6,0,B|336:352|384:363|432:352|472:320,1,192,2|12
384,272,74111,2,0,B|336:264|300:228,1,96,0|2
384,272,74468,2,0,B|432:264|468:228,1,96,2|12
384,176,74825,5,8
384,133,74914,1,8
376,90,75004,1,8
348,57,75093,1,8
308,40,75182,1,8
265,30,75272,1,8
221,30,75361,6,0,B|167:33|144:80,1,96,10|4
148,171,75718,2,0,B|172:123|144:80,1,96,8|6
63,39,76075,2,0,B|92:84|144:80,1,96,10|6
336,348,76611,5,2
432,348,76790,1,8
480,264,76969,1,2
432,180,77147,1,8
336,180,77326,1,2
288,264,77504,1,8
384,264,77683,1,6
208,116,78039,6,0,B|160:92,4,48,8|4|8|4|4
304,116,78575,2,0,B|392:76,2,96,4|4|8
256,32,79111,1,4
176,348,79468,5,2
80,348,79647,1,8
32,264,79826,1,2
80,180,80004,1,8
176,180,80183,1,8
224,264,80361,1,8
128,264,80540,1,6
128,32,80897,6,0,B|82:32|48:76,2,96,2|8|6
384,32,81611,2,0,B|430:32|464:76,2,96,8|8|8
256,32,82147,5,8
256,128,82325,1,2
48,352,82682,5,8
128,300,82861,1,2
464,352,83218,5,8
383,300,83397,1,6
124,112,83754,5,8
164,200,83932,1,4
256,232,84111,1,4
348,200,84289,1,8
388,112,84468,1,2
44,72,84825,6,0,B|70:32|124:6|178:32|204:72,1,192,6|2
307,73,85361,2,0,B|333:33|387:7|441:33|467:73,1,192,8|2
388,112,85897,1,2
428,200,86075,1,8
256,352,86432,6,0,B|256:256,2,96,2|2|8
103,88,87147,2,0,B|186:136,1,96,2|2
325,136,87504,2,0,B|408:88,1,96,8|6
481,353,88039,5,8
406,294,88218,1,8
331,235,88397,1,8
256,176,88575,1,4
181,235,88754,1,4
106,294,88932,1,4
31,353,89111,1,6
256,192,89200,12,0,90718
207,108,90897,37,8
159,192,91075,1,8
207,275,91254,1,8
304,275,91432,1,8
352,192,91611,1,8
304,108,91789,1,8
208,109,91968,6,0,B|170:78|116:66|68:94|42:135,1,192,6|2
32,232,92504,1,8
72,320,92682,2,0,B|88:340|112:352|136:340|152:320,1,96,0|2
192,232,93039,2,0,B|208:212|232:200|256:212|272:232,1,96,2|8
320,320,93397,6,0,B|342:358|374:360|403:364|430:352|460:339|470:297,1,192,6|2
480,200,93932,2,0,B|480:83|376:60,1,192,8|2
280,40,94468,1,2
184,32,94647,1,8
88,48,94825,6,0,B|32:56|4:112|32:168|88:176,1,192,6|2
184,192,95361,1,8
120,264,95539,2,0,B|72:264|32:296,1,96,0|2
112,352,95897,2,0,B|160:352|200:320,1,96,2|8
272,256,96254,6,0,B|302:218|340:186|389:176|437:175,1,192,6|2
433,270,96789,2,0,B|377:270|349:314,1,96,8|2
264,352,97147,1,8
221,345,97236,1,8
181,327,97325,1,8
146,302,97414,1,8
124,264,97504,1,8
80,176,97682,6,0,B|54:125|72:80|102:42|160:38,1,192,6|2
256,32,98218,1,8
352,36,98397,2,0,B|412:44|430:85,1,96,0|2
400,176,98754,2,0,B|418:217|478:225,1,96,2|8
448,316,99111,6,0,B|411:268|360:266|318:291|308:351,1,192,6|2
203,352,99647,2,0,B|193:291|151:266|100:268|64:316,1,192,8|2
34,224,100182,1,2
84,140,100361,1,8
164,192,100539,6,0,B|206:220|254:228|302:220|344:192,1,192,6|2
428,140,101075,1,8
344,89,101254,2,0,B|302:59|256:47|206:58|166:88,1,192,6|2
84,140,101789,1,8
34,224,101968,6,0,B|49:336|160:344,1,192,6|2
256,352,102504,1,8
352,336,102682,1,2
336,240,102861,1,8
296,224,102950,1,8
256,208,103039,1,8
216,224,103129,1,8
176,240,103218,2,0,B|123:251|95:205,1,96,8|6
48,32,103754,5,2
120,104,103932,2,0,B|184:32,1,96,8|0
256,104,104289,1,2
328,32,104468,2,0,B|392:104,1,96,2|8
464,32,104825,1,6
304,216,105182,5,2
312,312,105361,2,0,B|344:360|392:367|440:360|472:312,1,192,8|2
480,216,105897,1,2
392,176,106075,1,8
304,216,106254,1,6
44,312,106611,5,2
140,312,106789,1,8
92,228,106968,2,0,B|148:152,1,96,0|2
92,228,107325,2,0,B|36:152,1,96,2|8
92,72,107682,1,6
384,128,108039,5,2
428,216,108218,2,0,B|384:247|340:216,1,96,8|0
296,128,108575,1,8
307,85,108664,1,8
338,52,108754,1,8
382,41,108843,1,8
427,50,108932,2,0,B|472:79|472:129,1,96,8|6
468,352,109468,5,2
368,352,109647,2,0,B|312:272,1,96,8|0
256,192,110004,1,2
199,274,110182,2,0,B|144:352,1,96,2|8
44,352,110539,1,6
128,128,110897,5,2
179,48,111075,2,0,B|130:18|83:31|42:57|32:114,1,192,8|2
69,203,111611,1,2
163,209,111789,1,8
222,135,111968,1,6
480,48,112325,6,0,B|416:120,1,96,2|8
480,336,112861,1,2
416,264,113039,1,2
352,192,113218,2,0,B|256:192,1,96,8|6
232,284,113575,5,2
144,320,113754,1,8
56,284,113932,1,8
32,192,114111,1,4
56,100,114289,1,8
97,74,114379,1,8
144,64,114468,1,8
191,74,114557,1,8
232,100,114647,1,8
256,192,114825,5,6
256,192,114914,12,0,120718
