osu file format v9

[General]
AudioFilename: Natsuiro Surprise (Short Ver.).mp3
AudioLeadIn: 1500
PreviewTime: 53387
Countdown: 0
SampleSet: Normal
StackLeniency: 0.7
Mode: 0
LetterboxInBreaks: 0

[Editor]
DistanceSpacing: 1.15
BeatDivisor: 4
GridSize: 16

[Metadata]
Title:Natsuiro Surprise (Short Ver.)
Artist:Toyama Nao
Creator:DJPop
Version:Hard
Source:Kami Nomi zo Shiru Sekai OVA
Tags:Opening Nakagawa Kanon

[Difficulty]
HPDrainRate:6
CircleSize:4
OverallDifficulty:6
ApproachRate:7
SliderMultiplier:1.28
SliderTickRate:1

[Events]
//Background and Video events
0,0,"Natsuiro Surprise (Short Ver.).jpg"
Video,-900,"Natsuiro Surprise (Short Ver.).avi"
//Break Periods
//Storyboard Layer 0 (Background)
//Storyboard Layer 1 (Fail)
//Storyboard Layer 2 (Pass)
//Storyboard Layer 3 (Foreground)
//Storyboard Sound Samples
//Background Colour Transformations
3,100,255,0,255

[TimingPoints]
-710,357.142857142857,4,1,1,65,1,0
6164,-100,4,2,1,75,0,0
14022,-100,4,1,2,75,0,0
14825,-100,4,2,1,70,0,0
25718,-100,4,2,2,70,0,0
26254,-100,4,2,1,70,0,0
28575,-100,4,2,2,70,0,0
29111,-100,4,2,1,70,0,0
31522,-100,4,2,2,70,0,0
31879,-100,4,2,1,70,0,0
34289,-100,4,2,2,70,0,0
34736,-100,4,2,1,70,0,0
37147,-100,4,2,2,70,0,0
37682,-100,4,2,1,70,0,0
42950,-100,4,1,2,70,0,0
43397,-100,4,2,1,70,0,0
46700,-100,4,2,1,40,0,0
46879,-100,4,1,2,70,0,0
47414,-100,4,2,1,40,0,0
47593,-100,4,1,2,70,0,0
48129,-100,4,2,1,40,0,0
48486,-100,4,1,2,70,0,0
48843,-100,4,2,1,40,0,0
49022,-100,4,1,2,70,0,0
49200,-100,4,2,1,70,0,0
49468,-100,4,1,1,70,0,0
49825,-100,4,1,2,70,0,0
50182,-100,4,1,1,70,0,0
50450,-100,4,2,1,70,0,0
51968,-100,4,1,1,85,0,0
53218,-100,4,2,1,75,0,0
53397,-100,4,2,1,75,0,1
53575,-100,4,2,2,75,0,1
59022,-100,4,2,1,75,0,1
59289,-100,4,2,2,75,0,1
63664,-100,4,1,1,75,0,1
64022,-100,4,1,2,75,0,1
64379,-100,4,1,1,75,0,1
64647,-100,4,2,1,75,0,0
64825,-100,4,2,1,75,0,1
65004,-100,4,2,2,75,0,1
70450,-100,4,2,1,75,0,1
70718,-100,4,2,2,75,0,1
74914,-100,4,1,1,75,0,1
76164,-100,4,2,1,75,0,1
76254,-100,4,2,1,75,0,0
77861,-100,4,1,2,75,0,0
78843,-100,4,1,1,75,0,0
79022,-100,4,2,1,75,0,0
82057,-100,4,1,1,85,0,0
82236,-100,4,2,1,75,0,0
82504,-100,4,1,1,85,0,0
82772,-100,4,2,1,75,0,0
83039,-100,4,1,1,85,0,0
83307,-100,4,2,1,75,0,0
84111,-100,4,1,1,75,0,0
84379,-100,4,2,1,75,0,0
87861,-100,4,1,1,75,0,0
88129,-100,4,1,2,75,0,0
89022,-100,4,2,1,75,0,0
89200,-100,4,1,1,75,0,0
90807,-100,4,1,1,50,0,0
90986,-100,4,1,1,55,0,0
91164,-100,4,1,1,60,0,0
91343,-100,4,1,1,65,0,0
91522,-100,4,1,1,70,0,0
91700,-100,4,1,1,75,0,0
91879,-100,4,2,1,75,0,0
96968,-100,4,1,1,75,0,0
97593,-100,4,2,1,75,0,0
102861,-100,4,1,1,75,0,0
103218,-100,4,2,1,75,0,0
108486,-100,4,1,1,75,0,0
109022,-100,4,2,1,75,0,0
113664,-100,4,1,1,75,0,0
114022,-100,4,1,2,75,0,0
114200,-100,4,1,1,75,0,0
114736,-100,4,2,1,75,0,0
114825,-100,4,2,1,75,0,1
114914,-100,4,1,1,75,0,1
120718,-100,4,1,1,75,0,0

[Colours]
Combo1 : 0,255,0
Combo2 : 0,255,255
Combo3 : 255,0,255
Combo4 : 255,255,0

[HitObjects]
250,26,1075,21,2
253,29,1611,1,2
256,32,1789,1,2
410,186,2504,5,2
413,189,3039,1,2
416,192,3218,1,2
250,346,3932,5,2
253,349,4468,1,2
256,352,4647,1,2
90,186,5361,5,2
93,189,5897,1,2
96,192,6075,1,2
48,136,6254,6,0,B|24:156|10:192|24:228|48:248,1,128,6|2
96,304,6789,1,8
256,352,7147,1,8
328,224,7504,6,0,B|312:164,1,64,8|6
184,224,8039,2,0,B|200:164,1,64,2|8
256,32,8575,1,8
416,80,8932,1,8
464,136,9111,6,0,B|488:156|502:192|488:228|464:248,1,128,6|2
416,304,9647,1,8
256,352,10004,1,8
184,224,10361,6,0,B|200:164,1,64,8|6
328,224,10896,2,0,B|312:164,1,64,2|8
256,32,11432,1,8
256,32,11611,1,8
256,32,11789,1,8
256,32,11968,1,6
144,128,12325,6,0,B|80:128,2,64,2|8|0
256,224,13039,2,0,B|256:288,2,64,2|8|0
368,128,13754,2,0,B|432:128,2,64,2|8|8
256,32,14468,1,4
256,32,14647,1,4
176,160,15004,6,0,B|138:208|80:208|64:208,1,128,6|2
68,61,15718,1,10
176,160,16075,1,2
256,284,16432,6,0,B|256:348,2,64,2|8|2
336,160,17147,2,0,B|374:208|432:208|448:208,1,128,10|2
444,61,17861,5,2
336,160,18218,1,2
256,32,18575,2,0,B|240:32|177:32|144:80,1,128,10|2
48,192,19289,5,2
95,248,19468,1,8
143,303,19647,2,0,B|177:352|240:352|256:352,1,128,2|10
256,192,20361,1,2
256,32,20718,6,0,B|272:32|335:32|368:80,1,128,2|2
464,192,21432,1,10
368,304,21789,1,2
212,352,22147,6,0,B|212:288,2,64,2|8|2
268,208,22861,2,0,B|245:184|212:171|179:184|156:208,1,128,10|2
32,312,23575,5,2
32,164,23932,1,2
136,60,24289,2,0,B|160:84|192:97|224:84|248:60,1,128,10|2
384,120,25004,5,2
448,156,25182,1,8
448,228,25361,1,2
384,264,25539,1,0
256,192,25897,1,12
256,192,26075,1,12
280,352,26432,6,0,B|216:352,1,64,6|0
153,316,26789,2,0,B|97:284,1,64,10|0
62,221,27147,2,0,B|30:165,1,64,2|0
30,94,27504,2,0,B|30:30,1,64,10|0
104,32,27861,6,0,B|168:32,2,64,2|0|10
104,104,28397,2,0,B|112:179|184:188,1,128,0|4
184,188,28932,1,14
232,32,29289,6,0,B|296:32,1,64,2|0
359,68,29646,2,0,B|414:100,1,64,10|0
450,163,30004,2,0,B|482:218,1,64,2|0
482,290,30361,2,0,B|482:354,1,64,10|0
408,352,30718,6,0,B|344:352,2,64,2|0|10
408,280,31254,2,0,B|400:205|328:196,1,128,0|4
327,195,31789,1,14
256,192,31968,6,0,B|224:182|189:188|166:216|159:248,1,128
231,261,32503,1,10
256,192,32682,2,0,B|280:170|292:135|280:102|256:80,1,128
208,136,33217,1,10
256,192,33397,2,0,B|263:223|286:251|321:257|352:248,1,128
328,178,33932,5,10
392,144,34111,2,0,B|422:133|447:107|450:71|437:41,1,128,0|4
370,72,34646,1,14
302,42,34825,1,0
234,72,35004,6,0,B|206:88|174:98|142:88|114:72,2,128,2|10|2
246,145,35897,1,0
174,160,36075,1,10
102,145,36254,1,0
108,296,36611,6,0,B|44:296,2,64,0|10|8
256,296,37325,1,4
256,296,37504,1,4
404,296,37861,5,6
464,252,38039,1,2
404,208,38218,1,0
480,88,38575,2,0,B|436:40|365:39,1,128,8|2
292,40,39111,2,0,B|221:40|177:88,1,128,2|8
131,32,39647,2,0,B|73:62|55:130,1,128,2|8
32,256,40361,1,0
120,352,40718,5,2
188,324,40897,1,2
256,352,41075,2,0,B|280:328|312:315|344:328|368:352,1,128,2|8
396,208,41789,1,2
396,208,41968,1,2
256,160,42325,2,0,B|256:224,1,64,8|2
116,208,42861,1,8
116,208,43039,1,8
116,208,43218,1,4
32,88,43575,5,6
80,32,43754,1,2
152,32,43932,1,0
296,32,44289,2,0,B|360:31|412:76,1,128,8|2
460,132,44825,2,0,B|476:160|488:192|476:224|460:252,1,128,2|8
412,307,45361,1,2
272,352,45718,2,0,B|224:312,1,64,8|8
284,272,46075,2,0,B|236:232,1,64,8|8
296,192,46432,6,0,B|368:88,1,128,6|2
320,32,46968,1,8
320,32,47147,2,0,B|192:32,1,128,4|2
143,86,47682,1,0
143,86,47861,2,0,B|216:192,2,128,4|0|8
88,224,48932,2,0,B|40:264,2,64,2|0|6
160,352,49647,6,0,B|239:352|248:280,1,128,8|8
256,128,50361,1,8
256,128,50539,1,6
400,76,50897,6,0,B|448:116,1,64,2|8
449,267,51432,2,0,B|400:308,2,64,2|2|8
320,192,52147,5,8
248,192,52325,1,8
176,192,52504,1,8
104,192,52682,1,8
32,192,53397,5,6
144,96,53754,2,0,B|127:34,1,64,2|12
57,52,54111,2,0,B|73:113,1,64,0|2
220,128,54647,1,12
292,128,54825,1,0
384,34,55182,2,0,B|368:96,1,64,2|12
438,113,55539,2,0,B|455:52,1,64,0|2
480,192,56075,1,12
480,192,56253,5,0
455,332,56611,2,0,B|438:270,1,64,0|12
368,288,56968,2,0,B|384:349,1,64,0|2
292,256,57504,1,12
220,256,57682,1,0
127,349,58039,2,0,B|144:288,1,64,2|12
73,270,58396,2,0,B|57:332,1,64,0|2
32,192,58932,1,12
32,192,59110,5,6
132,84,59468,1,2
196,48,59647,2,0,B|224:32|256:22|288:32|316:48,2,128,12|2|12
196,120,60539,2,0,B|177:148|170:182|189:210|217:229,1,128,0|2
293,230,61075,2,0,B|322:210|341:182|334:148|316:120,1,128,12|2
256,164,61611,1,6
256,164,61789,1,12
112,128,62147,6,0,B|112:144|112:213|144:248,1,128,2|12
196,304,62682,2,0,B|220:320|256:328|292:320|316:304,1,128,0|2
367,248,63218,1,12
367,248,63397,2,0,B|400:213|400:144|400:128,1,128,2|8
359,67,63932,5,14
293,34,64111,1,4
219,34,64289,1,4
153,67,64468,1,4
56,176,64825,6,0,B|32:200|19:232|32:264|56:288,1,128,6|2
115,332,65361,1,12
184,352,65539,1,0
256,352,65718,1,2
312,212,66075,1,12
312,212,66254,6,0,B|292:188|256:177|220:188|200:212,1,128,0|2
188,284,66789,1,12
256,260,66968,1,0
324,284,67147,1,2
456,208,67504,1,12
456,208,67682,6,0,B|480:184|493:152|480:120|456:96,1,128
397,52,68218,1,12
328,32,68396,1,0
256,32,68575,1,2
200,172,68932,1,12
200,172,69111,6,0,B|220:196|256:207|292:196|312:172,1,128,0|2
324,100,69646,1,12
256,124,69825,1,0
188,100,70004,2,0,B|120:76,2,64,2|6|12
200,172,70539,5,6
52,172,70897,1,2
80,240,71075,2,0,B|112:312|168:328,1,128,12|2
220,276,71611,1,2
292,276,71789,1,12
344,328,71968,2,0,B|400:312|432:240,1,128,0|2
448,168,72504,2,0,B|471:94|408:60,1,128,12|2
340,32,73039,1,6
340,32,73218,1,12
172,32,73575,6,0,B|112:40|55:80,1,128,2|12
112,128,74111,2,0,B|56:160,1,64,0|2
112,208,74468,2,0,B|168:176,1,64,2|12
224,224,74825,1,2
162,264,75004,5,8
350,264,75361,1,8
256,100,75718,1,8
256,288,76075,1,8
256,288,76254,1,6
396,204,76611,6,0,B|452:172,1,64,2|8
452,100,76968,2,0,B|396:68,1,64,2|8
368,136,77325,2,0,B|304:136,1,64,2|8
256,192,77682,2,0,B|232:168|219:136|232:104|256:80,2,128,6|8|4
316,232,78575,1,4
316,304,78754,1,4
256,344,78932,1,8
182,352,79111,6,8,B|100:352|100:276,1,128,6|2
100,204,79647,2,0,B|44:172,1,64,8|2
44,100,80004,2,0,B|100:68,1,64,8|8
128,136,80361,2,0,B|192:136,1,64,8|6
296,32,80897,5,2
368,32,81075,1,8
332,96,81254,1,6
332,288,81611,1,8
296,352,81790,1,8
368,352,81968,1,8
404,288,82147,6,0,B|404:224,1,64,8|2
260,288,82682,6,0,B|260:224,1,64,8|2
108,288,83218,6,0,B|108:224,1,64,8|6
256,32,84289,5,8
256,32,84468,1,2
120,88,84825,2,0,B|152:156|220:156,1,128,6|2
292,156,85361,2,0,B|360:156|392:88,2,128,8|2|8
174,247,86432,6,0,B|159:274|162:311|185:341|216:352,1,128,2|8
337,247,87147,2,0,B|352:274|349:311|326:341|296:352,1,128,2|8
256,276,87682,1,6
256,32,88039,5,8
189,65,88218,1,8
189,140,88397,1,8
256,173,88575,1,4
322,140,88754,1,4
322,65,88932,1,4
256,102,89111,1,6
256,192,89200,12,0,90718
256,272,90897,6,0,B|308:308,5,64,8|8|8|8|8|8
375,341,91968,38,0,B|407:349|441:345|463:317|471:285,1,128,6|2
400,272,92504,1,8
280,184,92861,2,0,B|224:216,1,64,2|2
280,264,93218,2,0,B|224:296,1,64,8|4
88,352,93754,5,2
32,304,93932,1,8
96,168,94289,2,0,B|32:168,2,64,2|2|8
127,100,94825,6,0,B|136:65|157:38|191:33|224:42,1,128,6|2
200,112,95361,1,8
340,148,95718,2,0,B|396:116,1,64,2|2
340,68,96075,2,0,B|396:36,1,64,8|6
480,156,96611,5,2
480,228,96789,1,8
340,272,97147,1,8
340,272,97325,1,8
340,272,97504,1,8
340,272,97682,6,0,B|331:344|256:352,1,128,6|2
180,352,98218,1,8
216,208,98575,2,0,B|160:176,1,64,2|2
144,248,98932,2,0,B|88:216,1,64,8|6
116,72,99468,5,2
116,72,99647,1,8
256,32,100004,2,0,B|256:96,2,64,2|2|8
328,32,100539,6,0,B|406:32|440:80,1,128,6|2
480,144,101075,1,8
466,216,101254,2,0,B|453:293|401:319,1,128,6|2
329,340,101790,1,8
256,332,101968,6,0,B|178:319|152:267,1,128,6|2
126,198,102504,1,8
184,152,102682,1,2
328,152,103039,1,8
256,332,103397,6,0,B|256:204,1,128,6|2
256,128,103932,1,8
243,56,104111,2,0,B|183:40,1,64,0|2
107,40,104468,2,0,B|45:56,1,64,2|8
32,128,104825,1,6
64,296,105182,6,0,B|32:240,1,64,2|8
192,284,105718,1,2
220,352,105897,1,2
292,352,106075,1,8
320,284,106254,1,6
205,189,106611,6,0,B|159:143,2,64,2|8|0
256,240,107147,1,2
306,189,107325,2,0,B|351:143,2,64,2|8|6
412,292,108039,5,2
464,344,108218,1,8
464,192,108575,1,8
439,124,108754,1,8
380,84,108932,1,8
316,52,109111,6,0,B|288:36|256:26|224:36|196:52,1,128,6|2
132,84,109647,1,8
64,112,109825,2,0,B|104:160,1,64,0|2
48,208,110182,2,0,B|88:256,1,64,2|8
32,304,110539,1,6
220,220,110897,6,0,B|284:220,1,64,2|8
164,304,111432,1,2
220,352,111611,1,2
292,352,111789,1,8
348,304,111968,1,6
373,139,112325,6,0,B|428:170,2,64,2|8|0
312,104,112861,1,2
373,67,113039,2,0,B|428:35,2,64,2|8|6
312,104,113575,6,0,B|248:104,1,64,2|8
216,40,113932,2,0,B|160:68,1,64,8|4
156,140,114289,2,0,B|212:168,2,64,8|8|8
92,104,114825,1,6
256,192,114914,12,0,120718
