osu file format v9

[General]
AudioFilename: Natsuiro Surprise (Short Ver.).mp3
AudioLeadIn: 1500
PreviewTime: 53387
Countdown: 0
SampleSet: Normal
StackLeniency: 0.7
Mode: 0
LetterboxInBreaks: 0

[Editor]
DistanceSpacing: 1
BeatDivisor: 4
GridSize: 4

[Metadata]
Title:Natsuiro Surprise (Short Ver.)
Artist:Toyama Nao
Creator:DJPop
Version:Easy
Source:Kami Nomi zo Shiru Sekai OVA
Tags:Opening Nakagawa Kanon

[Difficulty]
HPDrainRate:1
CircleSize:3
OverallDifficulty:2
ApproachRate:3
SliderMultiplier:0.64
SliderTickRate:1

[Events]
//Background and Video events
0,0,"Natsuiro Surprise (Short Ver.).jpg"
Video,-900,"Natsuiro Surprise (Short Ver.).avi"
//Break Periods
//Storyboard Layer 0 (Background)
//Storyboard Layer 1 (Fail)
//Storyboard Layer 2 (Pass)
//Storyboard Layer 3 (Foreground)
//Storyboard Sound Samples
//Background Colour Transformations
3,100,255,0,255

[TimingPoints]
-710,357.142857142857,4,1,1,65,1,0
6075,-100,4,2,1,75,0,0
6522,-100,4,1,2,75,0,0
6700,-100,4,2,1,75,0,0
7236,-100,4,1,2,75,0,0
7414,-100,4,2,1,75,0,0
9379,-100,4,1,2,75,0,0
9557,-100,4,2,1,75,0,0
10093,-100,4,1,2,75,0,0
10272,-100,4,2,1,75,0,0
12236,-100,4,1,2,75,0,0
12593,-100,4,2,2,75,0,0
12950,-100,4,1,2,75,0,0
13129,-100,4,2,1,75,0,0
14647,-100,4,2,1,70,0,0
16700,-100,4,1,2,70,0,0
16879,-100,4,2,1,70,0,0
19557,-100,4,1,2,70,0,0
19736,-100,4,2,1,70,0,0
23843,-100,4,1,2,70,0,0
24022,-100,4,2,1,70,0,0
24557,-100,4,1,2,70,0,0
24736,-100,4,2,1,70,0,0
26700,-100,4,1,1,70,0,0
26879,-100,4,2,1,70,0,0
27414,-100,4,1,1,70,0,0
27593,-100,4,2,1,70,0,0
28129,-100,4,1,1,70,0,0
28307,-100,4,2,1,70,0,0
29557,-100,4,1,1,70,0,0
29736,-100,4,2,1,70,0,0
30272,-100,4,1,1,70,0,0
30450,-100,4,2,1,70,0,0
30986,-100,4,1,1,70,0,0
31164,-100,4,2,1,70,0,0
35272,-100,4,1,1,70,0,0
35450,-100,4,2,1,70,0,0
36700,-100,4,1,1,70,0,0
36879,-100,4,2,1,70,0,0
39557,-100,4,1,2,70,0,0
39736,-100,4,2,1,70,0,0
42414,-100,4,1,2,70,0,0
42593,-100,4,2,1,70,0,0
45272,-100,4,1,2,70,0,0
45450,-100,4,2,1,70,0,0
46789,-100,4,1,2,70,0,0
48932,-100,4,2,1,70,0,0
50182,-100,4,1,2,70,0,0
53218,-100,4,2,1,75,0,0
53397,-100,4,2,1,75,0,1
53754,-100,4,2,2,75,0,1
54200,-100,4,1,2,75,0,1
54379,-100,4,2,2,75,0,1
54914,-100,4,1,2,75,0,1
55093,-100,4,2,2,75,0,1
55629,-100,4,1,2,75,0,1
55807,-100,4,2,2,75,0,1
57057,-100,4,1,2,75,0,1
57236,-100,4,2,2,75,0,1
57772,-100,4,1,2,75,0,1
57950,-100,4,2,2,75,0,1
58486,-100,4,1,2,75,0,1
58664,-100,4,2,2,75,0,1
59289,-100,4,2,1,75,0,1
61789,-100,4,1,2,75,0,1
64647,-100,4,2,1,75,0,0
64825,-100,4,2,1,75,0,1
65182,-100,4,2,2,75,0,1
65629,-100,4,1,2,75,0,1
65807,-100,4,2,2,75,0,1
67057,-100,4,1,2,75,0,1
67236,-100,4,2,2,75,0,1
68486,-100,4,1,2,75,0,1
68664,-100,4,2,2,75,0,1
69914,-100,4,1,2,75,0,1
70093,-100,4,2,2,75,0,1
70718,-100,4,2,1,75,0,1
76254,-100,4,2,1,75,0,0
80807,-100,4,1,2,75,0,0
80986,-100,4,2,1,75,0,0
81968,-100,4,1,1,85,0,0
82414,-100,4,2,2,85,0,0
82593,-100,4,1,1,85,0,0
82772,-100,4,1,2,85,0,0
82950,-100,4,1,1,85,0,0
83932,-100,4,1,1,75,0,0
87504,-100,4,2,1,75,0,0
87950,-100,4,1,1,75,0,0
88307,-100,4,2,2,75,0,0
88486,-100,4,1,2,75,0,0
91789,-100,4,2,1,75,0,0
92772,-100,4,1,2,75,0,0
92950,-100,4,2,1,75,0,0
94200,-100,4,1,2,75,0,0
94379,-100,4,2,1,75,0,0
95629,-100,4,1,2,75,0,0
95807,-100,4,2,1,75,0,0
96968,-100,4,1,1,75,0,0
97504,-100,4,2,1,75,0,0
98486,-100,4,1,2,75,0,0
98664,-100,4,2,1,75,0,0
99914,-100,4,1,2,75,0,0
100093,-100,4,2,1,75,0,0
103664,-100,4,1,2,75,0,0
103843,-100,4,2,1,75,0,0
104379,-100,4,1,2,75,0,0
104557,-100,4,2,1,75,0,0
106522,-100,4,1,2,75,0,0
106700,-100,4,2,1,75,0,0
107236,-100,4,1,2,75,0,0
107414,-100,4,2,1,75,0,0
108397,-100,4,1,1,75,0,0
108932,-100,4,2,1,75,0,0
109379,-100,4,1,2,75,0,0
109557,-100,4,2,1,75,0,0
110093,-100,4,1,2,75,0,0
110272,-100,4,2,1,75,0,0
112772,-100,4,1,2,75,0,0
112950,-100,4,2,1,75,0,0
113754,-100,4,1,1,75,0,0
114825,-100,4,1,1,75,0,1
120718,-100,4,1,1,75,0,0

[Colours]
Combo1 : 0,255,0
Combo2 : 0,255,255
Combo3 : 255,0,255
Combo4 : 255,255,0

[HitObjects]
256,32,1075,21,2
416,192,2504,1,2
256,352,3932,1,2
96,192,5361,1,2
204,72,6254,6,0,B|181:48|148:35|115:48|92:72,2,128,6|2|6
256,192,8397,1,2
308,72,9111,2,0,B|331:48|364:35|397:48|420:72,2,128,6|2|6
256,192,11254,1,2
152,268,11968,6,0,B|184:328|256:356|328:328|360:268,1,256,6|0
136,88,15004,5,6
256,40,15718,1,10
376,88,16432,2,0,B|434:124|440:192,1,128,2|10
376,296,17861,5,2
256,344,18575,1,10
136,296,19289,2,0,B|78:260|72:192,1,128,2|10
134,80,20718,5,2
256,40,21432,1,10
378,80,22147,1,2
440,192,22861,1,10
316,224,23575,6,0,B|256:261|196:224,2,128,2|10|2
432,168,25718,1,2
432,296,26432,6,0,B|384:352|320:352,3,128,6|2|2|2
192,352,29289,2,0,B|128:352|80:296,3,128,2|2|2|2
40,176,32147,5,2
84,56,32861,1,2
212,56,33575,1,2
256,176,34289,1,2
304,328,35004,6,0,B|382:328|416:280,1,128,2|2
360,168,36432,2,0,B|394:120|472:120,1,128,2|0
384,32,37861,5,6
256,32,38575,1,8
168,124,39289,2,0,B|84:220,1,128,0|8
128,352,40718,5,2
256,352,41432,1,8
344,260,42147,2,0,B|428:164,1,128,0|8
320,96,43575,5,6
192,96,44289,1,8
256,208,45004,2,0,B|256:336,1,128,0|8
384,164,46432,5,6
336,316,47147,1,4
176,316,47861,1,4
128,164,48575,1,8
256,68,49289,1,6
256,192,50361,12,0,52147
48,208,53397,5,6
84,296,53932,6,0,B|101:325|129:346|163:341|193:324,3,128,12|12|12|12
319,324,56789,2,0,B|350:341|384:346|412:325|428:296,3,128,12|12|12|12
352,192,59647,5,8
352,128,60004,1,2
160,128,61075,1,8
160,192,61432,1,2
256,192,62147,12,0,63932
464,224,64825,5,6
464,128,65361,6,0,B|464:92|451:60|419:47|385:47,1,128,12|12
384,176,66789,2,0,B|391:210|383:244|354:263|320:269,1,128,12|12
193,269,68218,2,0,B|159:263|130:244|122:210|128:176,1,128,12|12
128,47,69647,2,0,B|94:47|62:60|49:92|48:128,1,128,12|12
160,192,71075,5,8
160,256,71432,1,2
352,256,72504,1,8
352,192,72861,1,2
256,192,73575,12,6,76254
384,320,77682,5,6
128,320,79111,1,6
196,72,80539,2,0,B|256:35|316:72,1,128,6|6
256,240,82147,6,0,B|256:336,2,96,8|8|8
256,48,84289,5,8
256,192,84825,12,0,86432
320,224,87682,22,0,B|300:264|256:277|212:264|192:224,1,160,6|4
256,192,89111,12,0,90718
256,220,91968,5,6
325,296,92504,2,0,B|358:287|386:266|390:232|381:199,1,128,8|8
312,80,93932,2,0,B|288:56|256:43|224:56|200:80,1,128,8|8
132,199,95361,2,0,B|123:232|127:266|155:287|188:296,1,128,8|8
256,192,96789,5,8
256,192,97147,1,8
320,120,97682,1,6
384,48,98218,2,0,B|418:48|450:61|464:93|464:127,1,128,8|8
465,256,99647,2,0,B|465:289|452:321|420:335|385:335,1,128,8|8
256,320,101075,5,8
256,192,101789,1,8
256,64,102504,1,8
128,160,103397,6,0,B|95:160|63:146|49:114|49:80,2,128,6|0|6
144,64,105361,1,8
200,216,106254,6,0,B|224:192|256:179|289:192|313:216,2,128,6|0|6
256,292,108218,1,8
256,292,108575,1,8
384,224,109111,6,0,B|418:224|450:237|464:269|464:303,2,128,6|0|6
368,320,111075,1,8
256,264,111789,1,8
144,208,112504,6,0,B|120:183|107:152|120:119|144:95,1,128,8|8
256,152,113932,2,0,B|320:152,1,64,8|8
256,192,114825,12,0,120718
