osu file format v11

[General]
AudioFilename: 08 - Love Call.mp3
AudioLeadIn: 0
PreviewTime: 80768
Countdown: 0
SampleSet: Soft
StackLeniency: 0.6
Mode: 0
LetterboxInBreaks: 0

[Editor]
Bookmarks: 182517,189754,214195
DistanceSpacing: 1
BeatDivisor: 4
GridSize: 8

[Metadata]
Title:Love Call
TitleUnicode:
Artist:Toyama Nao
ArtistUnicode:
Creator:Yuki-kun
Version:True Love
Source:Kami Nomi zo Shiru Sekai
Tags:Nagakawa Kanon
BeatmapID:106089
BeatmapSetID:32042

[Difficulty]
HPDrainRate:6
CircleSize:4
OverallDifficulty:8
ApproachRate:8
SliderMultiplier:1.69999990463257
SliderTickRate:2

[Events]
//Background and Video events
0,0,"bg3.jpg"
//Break Periods
2,130059,134894
//Storyboard Layer 0 (Background)
//Storyboard Layer 1 (Fail)
//Storyboard Layer 2 (Pass)
//Storyboard Layer 3 (Foreground)
//Storyboard Sound Samples
//Background Colour Transformations
3,100,163,162,255

[TimingPoints]
629,419.58041958042,4,2,1,60,1,0
15733,-100,4,2,1,65,0,0
49300,-100,4,2,1,75,0,0
79510,-100,4,2,2,75,0,0
82866,-100,4,2,2,75,0,1
104265,-100,4,2,1,80,0,1
104684,-100,4,2,1,85,0,0
106363,-100,4,1,1,40,0,0
106468,-100,4,2,1,65,0,0
114754,-100,4,2,1,40,0,0
116433,-100,4,2,1,70,0,0
129859,-100,4,2,2,85,0,0
136573,-100,4,2,1,85,0,0
136992,-100,4,2,1,65,0,0
149999,-100,4,1,0,65,0,0
150419,-100,4,2,1,65,0,0
170139,-100,4,2,2,80,0,1
170559,-100,4,2,1,75,0,1
180209,-100,4,2,2,40,0,1
182517,-100,4,2,1,60,0,1
183566,-100,4,2,2,65,0,1
183985,-100,4,2,1,75,0,1
190279,-100,4,2,1,65,0,1
191957,-100,4,2,2,70,0,0
193635,-100,4,1,1,40,0,0
194055,-100,4,2,1,70,0,0
198461,-100,4,2,1,40,0,0
199090,-100,4,2,1,70,0,0
200349,-100,4,2,2,70,0,1
200768,-100,4,2,1,70,0,1
206223,-100,4,2,2,70,0,1
207062,-100,4,2,1,60,0,1
207901,-100,4,2,1,50,0,1
208740,-100,4,2,1,40,0,1
209580,-100,4,2,1,30,0,1
213670,-100,4,2,1,20,0,0
213775,-100,4,2,1,10,0,1
213880,-100,4,2,1,15,0,0

[Colours]
Combo1 : 172,172,172
Combo2 : 128,0,255
Combo3 : 5,5,240
Combo4 : 255,0,255
Combo5 : 128,0,128
SliderBorder : 255,255,255

[HitObjects]
476,40,15733,2,0,B|400:8|309:47,1,169.999990463257,0|0,0:0|0:0,0:0:0
225,46,16363,1,0,0:0:0
140,44,16573,2,0,B|140:142|242:191,1,169.999990463257,2|0,0:0|0:0,0:0:0
392,168,17412,5,0,0:0:0
494,306,17831,1,0,0:0:0
408,306,18041,1,0,0:0:0
323,306,18251,2,0,B|249:372|168:301,1,169.999990463257,2|0,0:0|0:0,0:0:0
16,80,19090,5,0,0:0:0
140,196,19510,1,0,0:0:0
80,136,19719,1,0,0:0:0
16,80,19929,2,0,B|56:20|132:104|200:40,1,169.999990463257,2|0,0:0|0:0,0:0:0
346,56,20768,2,0,B|376:128|336:184|268:190,1,169.999990463257,0|0,0:0|0:0,0:0:0
296,272,21398,1,0,0:0:0
223,311,21608,1,2,0:0:0
53,311,22027,1,0,0:0:0
53,140,22447,6,0,B|29:24|149:24,2,169.999990463257,0|0|2,0:0|0:0|0:0,0:0:0
104,208,23496,1,0,0:0:0
173,260,23705,1,0,0:0:0
248,300,23915,1,0,0:0:0
412,340,24335,1,0,0:0:0
439,260,24545,2,0,B|480:208|456:128|393:104,1,169.999990463257,0|2,0:0|0:0,0:0:0
230,110,25384,5,0,0:0:0
180,40,25594,1,0,0:0:0
133,110,25803,1,0,0:0:0
133,280,26223,1,0,0:0:0
180,208,26433,1,0,0:0:0
228,280,26642,1,2,0:0:0
376,192,27062,6,0,B|352:136|416:88|385:26,2,169.999990463257
376,192,28321,2,0,B|352:248|416:296|385:357,2,169.999990463257,2|0|0,0:0|0:0|0:0,0:0:0
206,193,29580,5,0,0:0:0
206,193,29999,1,2,0:0:0
206,193,30419,2,0,B|110:193,2,84.9999952316285
337,81,31258,5,0,0:0:0
336,80,31677,2,0,B|424:56|416:184|328:152,1,169.999990463257,2|0,0:0|0:0,0:0:0
252,156,32307,1,0,0:0:0
186,206,32517,1,0,0:0:0
186,206,32936,5,0,0:0:0
248,264,33146,1,0,0:0:0
333,264,33356,2,0,B|421:288|413:160|325:192,2,169.999990463257,2|0|0,0:0|0:0|0:0,0:0:0
216,144,34615,5,0,0:0:0
176,218,34824,2,0,P|160:312|232:336,2,169.999990463257
80,192,35873,2,0,B|32:160|48:96,1,84.9999952316285,2|0,0:0|0:0,0:0:0
81,40,36293,5,0,0:0:0
80,40,36503,1,0,0:0:0
81,40,36712,1,0,0:0:0
80,42,37132,2,0,B|144:104|264:80,1,169.999990463257,0|0,0:0|0:0,0:0:0
400,32,37971,2,0,B|448:112|400:200,1,169.999990463257,0|2,0:0|0:0,0:0:0
368,272,38601,5,0,0:0:0
288,296,38810,1,0,0:0:0
224,240,39020,1,0,0:0:0
152,200,39230,2,0,B|136:288,1,84.9999952316285
48,256,39649,2,0,B|8:160|80:72,2,169.999990463257,0|0|0,0:0|0:0|0:0,0:0:0
136,112,40908,1,0,0:0:0
397,147,41747,5,0,0:0:0
226,147,42167,1,0,0:0:0
226,147,42377,1,0,0:0:0
225,147,42587,2,0,B|125:147,2,84.9999952316285,4|0|0,0:0|0:0|0:0,0:0:0
310,147,43216,1,2,0:0:0
129,330,43635,5,0,0:0:0
68,269,43845,1,0,0:0:0
72,184,44055,2,0,B|48:120|56:64|124:25,1,169.999990463257
262,43,44894,5,2,0:0:0
382,163,45314,1,0,0:0:0
456,204,45524,1,0,0:0:0
357,223,45733,1,0,0:0:0
432,264,45943,1,0,0:0:0
264,284,46363,1,0,0:0:0
264,284,46573,6,0,B|183:333|100:280,1,169.999990463257,2|0,0:0|0:0,0:0:0
76,198,47202,1,0,0:0:0
76,198,47412,1,0,0:0:0
76,197,47622,1,0,0:0:0
208,92,48041,6,0,B|303:92,2,84.9999952316285,0|0|2,0:0|0:0|0:0,0:0:0
208,92,48880,1,0,0:0:0
356,184,49300,5,4,0:0:0
208,92,49719,1,0,0:0:0
208,264,50139,1,8,0:0:0
35,334,50559,2,0,B|124:264|24:180,1,169.999990463257
37,191,51398,2,0,B|221:191,1,169.999990463257,0|8,0:0|0:0,0:0:0
326,311,52237,5,0,0:0:0
408,280,52447,1,0,0:0:0
472,224,52656,1,0,0:0:0
274,190,53076,1,0,0:0:0
208,136,53286,1,0,0:0:0
176,56,53496,1,8,0:0:0
274,189,53915,5,0,0:0:0
188,189,54125,1,0,0:0:0
102,189,54335,1,0,0:0:0
224,72,54754,1,0,0:0:0
288,128,54964,1,0,0:0:0
264,208,55174,2,0,B|304:248|368:248,1,84.9999952316285,8|0,0:0|0:0,0:0:0
304,328,55594,6,0,B|336:251,2,84.9999952316285
492,207,56433,1,0,0:0:0
432,147,56642,1,0,0:0:0
371,207,56852,1,8,0:0:0
371,207,57062,1,0,0:0:0
371,207,57272,2,0,B|288:256|208:192,2,169.999990463257
149,76,58531,6,0,B|60:76,1,84.9999952316285,8|0,0:0|0:0,0:0:0
64,161,58950,1,0,0:0:0
124,221,59160,1,0,0:0:0
184,160,59370,1,0,0:0:0
352,192,59789,6,0,B|412:240|412:240|520:240,1,169.999990463257,0|8,0:0|0:0,0:0:0
352,192,60629,2,0,B|292:144|292:144|184:144,1,169.999990463257
78,23,61468,6,0,B|169:23,2,84.9999952316285,0|0|8,0:0|0:0|0:0,0:0:0
136,88,62097,1,0,0:0:0
64,128,62307,2,0,B|64:224|160:280,1,169.999990463257,0|4,0:0|0:0,0:0:0
258,167,63146,6,0,B|357:167,2,84.9999952316285,0|0|8,0:0|0:0|0:0,0:0:0
378,287,63985,1,0,0:0:0
292,287,64195,1,0,0:0:0
206,287,64405,1,0,0:0:0
326,166,64824,1,0,0:0:0
205,45,65244,1,8,0:0:0
84,165,65663,6,0,B|187:165,2,84.9999952316285
84,335,66503,1,0,0:0:0
169,335,66712,1,0,0:0:0
254,335,66922,1,8,0:0:0
424,335,67342,6,0,B|448:288|448:240|416:208|368:192,1,169.999990463257,0|0,0:0|0:0,0:0:0
185,195,68181,2,0,B|140:160|192:112,2,84.9999952316285,0|0|8,0:0|0:0|0:0,0:0:0
336,120,69020,2,0,B|384:84|324:36,2,84.9999952316285,0|0|0,0:0|0:0|0:0,0:0:0
404,276,69859,1,0,0:0:0
404,276,70069,1,0,0:0:0
404,276,70279,1,8,0:0:0
256,196,70698,6,0,B|256:292,1,84.9999952316285,0|0,0:0|0:0,0:0:0
256,281,71118,1,0,0:0:0
88,320,71538,1,0,0:0:0
88,64,71957,1,8,0:0:0
253,109,72377,1,0,0:0:0
313,169,72587,1,0,0:0:0
253,228,72796,5,0,0:0:0
82,228,73216,2,0,B|82:136,2,84.9999952316285,0|0|8,0:0|0:0|0:0,0:0:0
208,344,74055,1,0,0:0:0
304,40,74475,1,0,0:0:0
183,160,74894,1,0,0:0:0
243,99,75104,1,0,0:0:0
328,99,75314,5,8,0:0:0
423,226,75733,1,0,0:0:0
362,286,75943,1,0,0:0:0
256,192,76153,12,4,79510,0:0:0
256,192,80768,5,0,0:0:0
80,192,81188,1,2,0:0:0
256,356,81608,1,0,0:0:0
432,192,82027,1,2,0:0:0
256,28,82447,1,0,0:0:0
256,192,82866,5,4,0:0:0
256,192,83286,2,0,B|256:100,2,84.9999952316285,0|0|10,0:0|0:0|0:0,0:0:0
256,192,83915,1,0,0:0:0
256,192,84125,1,0,0:0:0
376,71,84545,5,0,0:0:0
496,191,84964,2,0,B|448:280|336:236,1,169.999990463257,0|10,0:0|0:0,0:0:0
301,181,85594,1,0,0:0:0
301,350,86013,1,0,0:0:0
240,288,86223,6,0,B|144:288,2,84.9999952316285,0|0|2,0:0|0:0|0:0,0:0:0
154,288,86852,1,0,0:0:0
93,227,87062,2,0,B|34:205|61:141,2,84.9999952316285,8|0|2,0:0|0:0|0:0,0:0:0
160,176,87691,1,0,0:0:0
200,104,87901,1,4,0:0:0
118,47,88321,5,0,0:0:0
287,47,88740,1,10,0:0:0
347,107,88950,1,0,0:0:0
407,167,89160,2,0,B|320:224|240:156,1,169.999990463257,0|0,0:0|0:0,0:0:0
132,288,89999,5,0,0:0:0
252,167,90419,1,10,0:0:0
372,287,90838,1,0,0:0:0
286,287,91048,1,0,0:0:0
372,288,91258,2,0,B|488:292|488:192,1,169.999990463257,0|0,0:0|0:0,0:0:0
367,75,92097,1,10,0:0:0
246,195,92517,5,0,0:0:0
186,135,92726,1,0,0:0:0
120,80,92936,2,0,B|40:72|0:128|40:208,1,169.999990463257,12|0,0:0|0:0,0:0:0
64,254,93566,1,0,0:0:0
128,312,93775,2,0,B|224:320|272:232,1,169.999990463257,12|0,0:0|0:0,0:0:0
312,160,94405,1,0,0:0:0
320,72,94615,2,0,B|224:64|160:128,2,169.999990463257,12|2|8,0:0|0:0|0:0,0:0:0
328,152,95663,1,0,0:0:0
392,208,95873,1,8,0:0:0
367,287,96083,1,8,0:0:0
296,332,96293,1,4,0:0:0
126,332,96712,5,0,0:0:0
246,211,97132,1,10,0:0:0
366,331,97552,1,0,0:0:0
306,271,97761,1,0,0:0:0
366,210,97971,1,0,0:0:0
195,210,98391,5,0,0:0:0
74,89,98810,1,10,0:0:0
194,209,99230,1,0,0:0:0
73,88,99649,5,0,0:0:0
158,88,99859,1,0,0:0:0
328,88,100279,1,0,0:0:0
413,88,100489,1,10,0:0:0
413,257,100908,1,0,0:0:0
328,256,101118,1,0,0:0:0
242,257,101328,1,0,0:0:0
72,257,101747,5,0,0:0:0
96,176,101957,1,0,0:0:0
168,136,102167,1,10,0:0:0
290,13,102587,5,0,0:0:0
349,72,102796,1,0,0:0:0
288,132,103006,2,0,B|187:132,1,84.9999952316285,0|0,0:0|0:0,0:0:0
117,132,103426,2,0,B|80:176|120:216,1,84.9999952316285,0|0,0:0|0:0,0:0:0
173,269,103845,2,0,B|268:269,1,84.9999952316285,10|0,0:0|0:0,0:0:0
342,269,104265,2,0,B|392:304|360:352,1,84.9999952316285,0|0,0:0|0:0,0:0:0
288,376,104684,1,4,0:0:0
24,168,105943,5,0,0:0:0
84,107,106153,1,0,0:0:0
144,168,106363,2,0,B|184:249|288:249,1,169.999990463257,4|0,0:0|0:0,0:0:0
384,166,107202,6,0,B|384:72,1,84.9999952316285,8|0,0:0|0:0,0:0:0
384,80,107622,1,0,0:0:0
224,32,108041,1,0,0:0:0
152,80,108251,1,0,0:0:0
112,152,108461,6,0,B|88:248|176:320,2,169.999990463257,0|8|0,0:0|0:0|0:0,0:0:0
192,168,109510,1,0,0:0:0
263,200,109719,2,0,B|328:120|256:40,1,169.999990463257,0|0,0:0|0:0,0:0:0
176,24,110349,1,0,0:0:0
90,45,110559,1,8,0:0:0
56,120,110768,1,0,0:0:0
72,200,110978,6,0,B|47:248|86:285,2,84.9999952316285,0|0|0,0:0|0:0|0:0,0:0:0
196,336,111817,1,0,0:0:0
256,275,112027,1,0,0:0:0
316,335,112237,2,0,B|422:335,1,84.9999952316285,8|0,0:0|0:0,0:0:0
472,272,112656,6,0,B|500:216|484:152|420:120,1,169.999990463257,0|0,0:0|0:0,0:0:0
344,104,113286,1,0,0:0:0
272,144,113496,2,0,B|256:203|192:227|133:198,1,169.999990463257,0|8,0:0|0:0,0:0:0
192,128,114125,1,0,0:0:0
240,56,114335,2,0,B|181:27|117:51|97:123,1,169.999990463257,0|4,0:0|0:0,0:0:0
135,277,115174,5,8,0:0:0
208,328,115384,1,8,0:0:0
296,336,115594,1,8,0:0:0
376,320,115803,1,8,0:0:0
488,88,116433,6,0,B|432:40|384:40|328:88,1,169.999990463257,2|0,0:0|0:0,0:0:0
232,216,117272,1,0,0:0:0
168,272,117482,1,0,0:0:0
80,272,117691,2,0,B|56:208|72:144|136:112,1,169.999990463257
288,80,118531,2,0,B|376:80,1,84.9999952316285
433,140,118950,2,0,B|417:196|353:228|273:196,2,169.999990463257
462,289,120209,5,2,0:0:0
48,288,120629,1,2,0:0:0
132,48,122097,6,0,B|232:48,1,84.9999952316285
273,110,122517,1,0,0:0:0
332,50,122726,1,0,0:0:0
452,170,123146,1,4,0:0:0
256,192,123566,12,4,129859,0:0:0
81,38,136573,5,12,0:0:0
250,38,136992,1,0,0:0:0
420,38,137412,1,8,0:0:0
404,208,137831,5,0,0:0:0
404,293,138041,1,0,0:0:0
344,352,138251,1,0,0:0:0
173,353,138670,1,0,0:0:0
112,292,138880,1,0,0:0:0
112,208,139090,2,0,B|176:136|280:120,1,169.999990463257,8|0,0:0|0:0,0:0:0
451,206,139929,5,0,0:0:0
416,280,140139,1,0,0:0:0
328,272,140349,2,0,B|296:208|368:168|336:96,1,169.999990463257,0|8,0:0|0:0,0:0:0
170,107,141188,5,0,0:0:0
126,35,141398,1,0,0:0:0
84,106,141608,1,0,0:0:0
232,184,142027,1,0,0:0:0
216,272,142237,1,0,0:0:0
200,352,142447,1,8,0:0:0
256,48,143286,5,0,0:0:0
164,192,143705,1,0,0:0:0
336,192,144125,1,8,0:0:0
256,344,144545,1,0,0:0:0
256,259,144754,1,0,0:0:0
256,88,145174,5,0,0:0:0
256,173,145384,1,0,0:0:0
256,173,145594,1,0,0:0:0
256,88,145803,1,8,0:0:0
421,33,146223,6,0,B|421:119,2,84.9999952316285,0|0|0,0:0|0:0|0:0,0:0:0
421,202,147062,1,0,0:0:0
421,287,147272,1,0,0:0:0
360,347,147482,1,8,0:0:0
360,348,147901,1,0,0:0:0
299,287,148111,1,0,0:0:0
299,201,148321,1,0,0:0:0
178,80,148740,6,0,B|92:80,1,84.9999952316285,0|0,0:0|0:0,0:0:0
54,155,149160,2,0,B|114:155,2,42.4999976158143,8|0|0,0:0|0:0|0:0,0:0:0
54,155,149580,1,8,0:0:0
54,155,149789,1,8,0:0:0
54,155,149999,1,4,0:0:0
174,275,150419,5,0,0:0:0
296,152,150838,2,0,B|186:158|162:38,1,169.999990463257,8|0,0:0|0:0,0:0:0
256,48,151468,1,0,0:0:0
343,33,151677,1,0,0:0:0
343,33,152097,5,0,0:0:0
236,164,152517,1,8,0:0:0
404,164,152936,1,0,0:0:0
404,78,153146,1,0,0:0:0
404,78,153356,2,0,B|312:112|312:240,1,169.999990463257,0|0,0:0|0:0,0:0:0
282,284,153985,1,0,0:0:0
216,232,154195,2,0,B|160:320,1,84.9999952316285,8|0,0:0|0:0,0:0:0
100,343,154615,5,0,0:0:0
100,258,154824,1,0,0:0:0
100,172,155034,1,0,0:0:0
220,51,155454,2,0,B|314:51,1,84.9999952316285
390,51,155873,1,8,0:0:0
390,221,156293,6,0,B|296:220,1,84.9999952316285
219,220,156712,1,0,0:0:0
219,305,156922,2,0,B|128:305,1,84.9999952316285,0|0,0:0|0:0,0:0:0
64,256,157342,1,0,0:0:0
40,176,157552,1,8,0:0:0
112,60,157971,5,0,0:0:0
172,120,158181,1,0,0:0:0
232,64,158391,2,0,B|264:96|328:96,1,84.9999952316285,0|0,0:0|0:0,0:0:0
384,144,158810,2,0,B|352:176|307:176,1,84.9999952316285,0|0,0:0|0:0,0:0:0
240,224,159230,1,8,0:0:0
320,256,159440,1,0,0:0:0
384,312,159649,1,0,0:0:0
387,140,160069,5,4,0:0:0
266,19,160489,1,0,0:0:0
145,139,160908,1,8,0:0:0
112,216,161118,1,0,0:0:0
187,267,161328,2,0,B|208:312|288:304,2,84.9999952316285,0|0|0,0:0|0:0|0:0,0:0:0
168,184,161957,1,0,0:0:0
187,97,162167,2,0,B|248:32|344:64,2,169.999990463257,0|8|0,0:0|0:0|0:0,0:0:0
247,157,163216,6,0,B|276:195|323:183,1,84.9999952316285,0|0,0:0|0:0,0:0:0
392,144,163635,1,0,0:0:0
464,184,163845,2,0,B|448:288|328:288,1,169.999990463257,0|8,0:0|0:0,0:0:0
251,112,164684,6,0,B|148:112,1,84.9999952316285,0|0,0:0|0:0,0:0:0
166,112,165104,1,0,0:0:0
45,231,165524,1,0,0:0:0
104,290,165733,1,0,0:0:0
165,351,165943,1,8,0:0:0
44,230,166363,1,0,0:0:0
104,169,166573,1,0,0:0:0
188,169,166782,5,4,0:0:0
165,351,167202,2,0,B|256:351,1,84.9999952316285,0|0,0:0|0:0,0:0:0
335,351,167622,1,2,0:0:0
472,248,168041,5,0,0:0:0
416,88,168461,1,2,0:0:0
256,32,168880,1,0,0:0:0
96,80,169300,1,2,0:0:0
32,240,169719,1,0,0:0:0
160,352,170139,5,4,0:0:0
253,234,170559,1,0,0:0:0
253,318,170768,1,0,0:0:0
313,378,170978,1,10,0:0:0
488,240,171398,1,0,0:0:0
406,234,171608,1,0,0:0:0
346,293,171817,5,0,0:0:0
488,240,172237,1,0,0:0:0
488,154,172447,1,0,0:0:0
428,94,172656,1,10,0:0:0
307,214,173076,2,0,B|203:214,2,84.9999952316285,0|0|0,0:0|0:0|0:0,0:0:0
223,139,173915,6,0,B|183:177|235:229,1,84.9999952316285,2|0,0:0|0:0,0:0:0
222,215,174335,2,0,B|286:269|230:295,1,84.9999952316285,10|0,0:0|0:0,0:0:0
192,352,174754,1,2,0:0:0
106,352,174964,1,8,0:0:0
45,291,175174,1,4,0:0:0
80,120,175594,5,0,0:0:0
240,56,176013,1,10,0:0:0
366,163,176433,1,0,0:0:0
306,222,176642,1,0,0:0:0
245,282,176852,1,0,0:0:0
245,111,177272,5,0,0:0:0
124,231,177691,1,10,0:0:0
244,351,178111,1,0,0:0:0
304,290,178321,1,0,0:0:0
364,229,178531,1,0,0:0:0
468,96,178950,6,0,B|432:56|392:96,1,84.9999952316285,0|0,0:0|0:0,0:0:0
307,93,179370,1,10,0:0:0
137,93,179789,2,0,B|99:128|139:192,1,84.9999952316285,0|0,0:0|0:0,0:0:0
176,244,180209,1,12,0:0:0
296,364,180629,6,0,B|344:336|320:288,1,84.9999952316285,0|0,0:0|0:0,0:0:0
264,232,181048,1,12,0:0:0
336,80,181468,2,0,B|361:37|411:37,2,84.9999952316285,0|0|12,0:0|0:0|0:0,0:0:0
95,228,182517,5,10,0:0:0
154,287,182726,1,10,0:0:0
214,226,182936,2,2,B|214:168,2,42.4999976158143,10|10|10,0:0|0:0|0:0,0:0:0
274,286,183356,1,10,0:0:0
334,225,183566,1,4,0:0:0
256,76,183985,6,0,B|352:76|352:76,2,84.9999952316285,0|0|10,0:0|0:0|0:0,0:0:0
256,248,184824,2,0,B|161:248,1,84.9999952316285,0|0,0:0|0:0,0:0:0
171,248,185244,1,0,0:0:0
256,100,185663,2,0,B|192:32|80:32,1,169.999990463257,0|10,0:0|0:0,0:0:0
256,100,186503,2,0,B|320:32|432:32,1,169.999990463257,0|0,0:0|0:0,0:0:0
408,200,187342,5,0,0:0:0
336,248,187552,1,0,0:0:0
256,216,187761,1,10,0:0:0
104,200,188181,1,0,0:0:0
176,248,188391,1,0,0:0:0
256,216,188601,1,0,0:0:0
256,74,189020,6,0,B|207:10|157:44,1,84.9999952316285,0|0,0:0|0:0,0:0:0
125,92,189440,1,10,0:0:0
256,74,189859,6,0,B|305:10|355:44,1,84.9999952316285,0|0,0:0|0:0,0:0:0
387,92,190279,1,0,0:0:0
340,164,190489,6,0,B|340:248,1,84.9999952316285,0|0,0:0|0:0,0:0:0
400,309,190908,1,10,0:0:0
314,309,191118,2,0,B|270:330,2,42.4999976158143,10|10|10,0:0|0:0|0:0,0:0:0
352,232,191538,1,10,0:0:0
408,168,191747,1,10,0:0:0
352,104,191957,1,4,0:0:0
256,248,193216,6,8,B|256:336,2,84.9999952316285,0|0|4,0:0|0:0|0:0,0:0:0
256,77,194055,1,0,0:0:0
204,240,194475,1,8,0:0:0
256,172,194684,1,0,0:0:0
308,240,194894,1,0,0:0:0
256,76,195314,5,0,0:0:0
320,132,195524,1,0,0:0:0
256,188,195733,1,0,0:0:0
256,358,196153,5,8,0:0:0
328,312,196363,1,0,0:0:0
392,256,196573,2,0,B|464:176|392:96,1,169.999990463257,0|0,0:0|0:0,0:0:0
352,176,197202,1,0,0:0:0
264,176,197412,2,0,B|216:240|144:160|104:216,2,169.999990463257,0|8|0,0:0|0:0|0:0,0:0:0
288,96,198461,1,8,0:0:0
328,72,198566,1,8,0:0:0
368,80,198670,1,8,0:0:0
432,136,198880,1,8,0:0:0
448,216,199090,1,8,0:0:0
408,288,199300,5,8,0:0:0
344,344,199510,2,0,B|248:360|192:272,1,169.999990463257,8|0,0:0|0:0,0:0:0
160,200,200139,1,8,0:0:0
224,144,200349,6,0,B|272:96|352:128|352:200,2,169.999990463257,4|0|8,0:0|0:0|0:0,0:0:0
216,312,201608,1,2,0:0:0
296,72,202027,1,2,0:0:0
256,192,202237,12,4,206223,0:0:0
56,336,207062,5,2,0:0:0
256,32,207901,1,8,0:0:0
440,344,208740,1,2,0:0:0
256,192,209580,1,8,0:0:0
256,192,210419,12,0,213775,0:0:0
