osu file format v9

[General]
AudioFilename: 08 - Love Call.mp3
AudioLeadIn: 0
PreviewTime: 80768
Countdown: 0
SampleSet: Soft
StackLeniency: 0.7
Mode: 0
LetterboxInBreaks: 0

[Editor]
DistanceSpacing: 1
BeatDivisor: 4
GridSize: 8

[Metadata]
Title:Love Call
Artist:Toyama Nao
Creator:Yuki-kun
Version:Stranger
Source:Kami Nomi zo Shiru Sekai
Tags:Nagakawa Kanon

[Difficulty]
HPDrainRate:2
CircleSize:3
OverallDifficulty:2
ApproachRate:3
SliderMultiplier:0.59999990463257
SliderTickRate:1

[Events]
//Background and Video events
0,0,"bg1.jpg"
//Break Periods
2,43006,47622
2,130279,135133
//Storyboard Layer 0 (Background)
//Storyboard Layer 1 (Fail)
//Storyboard Layer 2 (Pass)
//Storyboard Layer 3 (Foreground)
//Storyboard Sound Samples
//Background Colour Transformations
3,100,163,162,255

[TimingPoints]
629,419.58041958042,4,2,1,100,1,0
15733,-100,4,2,1,70,0,0
82866,-100,4,2,1,100,0,1
87901,-100,4,2,1,65,0,1
88740,-100,4,2,1,100,0,1
104684,-100,4,2,1,100,0,0
105943,-100,4,2,1,65,0,0
170139,-100,4,2,1,100,0,1
191957,-100,4,2,1,70,0,0
200349,-100,4,2,1,70,0,1
213670,-100,4,2,1,70,0,0
213775,-100,4,2,1,15,0,1
213880,-100,4,2,1,70,0,0

[Colours]
Combo1 : 172,172,172
Combo2 : 128,0,255
Combo3 : 5,5,240
Combo4 : 255,0,255
Combo5 : 128,0,128
SliderBorder : 255,255,255

[HitObjects]
104,88,15733,2,0,B|166:54|227:88,1,119.999980926514,0|0
320,148,17412,2,0,B|354:210|320:273,1,119.999980926514,0|0
216,316,19090,6,0,B|161:354|96:312,3,119.999980926514,0|2|0|2
101,204,22447,5,0
184,120,23286,1,0
304,104,24125,1,0
411,68,24964,6,0,B|444:124|412:184,3,119.999980926514,2|0|0|0
331,267,28321,2,0,B|276:300|212:263,1,119.999980926514,2|0
132,180,29999,6,0,B|92:115|133:52,1,119.999980926514,0|0
244,65,31677,1,0
340,136,32517,1,2
380,248,33356,1,0
272,300,34195,6,0,B|217:348|160:296,1,119.999980926514,0|0
76,224,35873,2,0,B|49:169|81:105,2,119.999980926514,2|0|0
172,152,38391,1,0
256,67,39230,5,2
340,151,40069,1,0
255,235,40908,1,0
170,150,41747,2,0,B|47:150,1,119.999980926514,0|4
111,301,49300,5,2
230,301,50139,1,0
336,248,50978,2,0,B|358:188|336:120,1,119.999980926514,0|2
236,188,52656,2,0,B|205:126|242:52,3,119.999990463257,0|0|0|2
120,32,56013,5,0
120,151,56852,2,0,B|99:210|123:274,2,119.999990463257,0|0|2
196,56,59370,6,0,B|316:17|435:56,1,239.999961853028,0|0
432,175,61887,2,0,B|360:175,2,59.999990463257,2|0|4
360,272,63566,6,0,B|304:308|248:268,1,119.999980926514,0|0
128,268,65244,2,0,B|64:140|136:32,1,239.999961853028,2|0
216,124,67761,6,0,B|272:172|328:124,2,119.999980926514,0|2|0
95,124,70279,1,0
95,243,71118,1,2
179,327,71957,6,0,B|237:363|301:325,2,119.999980926514,0|4|0
263,242,74475,1,0
383,242,75314,2,0,B|400:208|376:176,1,59.999990463257
256,192,76153,12,4,79510
368,56,81188,6,0,B|308:12|244:56,1,119.999980926514,0|2
184,144,82866,2,0,B|210:214|282:214,1,119.999980926514,4|2
204,319,84545,2,0,B|132:308|104:248,2,119.999980926514,0|2|0
216,200,87062,1,2
300,284,87901,1,4
402,226,88740,6,0,B|450:275|408:336,2,119.999980926514,2|0|2
282,226,91258,1,0
162,226,92097,2,0,B|118:282|162:342,2,119.999980926514,2|4|0
246,141,94615,2,0,B|306:93|362:149,2,119.999990463257,2|0|4
126,141,97132,5,2
152,256,97971,1,0
264,208,98810,6,0,B|390:208,2,119.999990463257,2|0|2
147,212,101328,2,0,B|146:148,2,59.999990463257,0|0|2
231,127,103006,6,0,B|355:127,2,119.999980926514,2|2|4
358,254,105943,6,0,B|358:320,1,59.999990463257,0|2
237,314,107202,2,0,B|237:247,1,59.999990463257,0|2
237,73,108880,6,0,B|293:41|357:81,2,119.999980926514,0|2|0
370,115,112237,6,2,B|385:187|333:235,1,119.999990463257
224,251,113915,2,0,B|168:304|112:244,2,119.999980926514,2|0|2
224,130,116433,5,0
403,130,117691,1,0
403,310,118950,1,0
222,310,120209,2,0,B|221:238,1,59.999990463257,2|2
401,220,122307,6,0,B|348:186|288:218,1,119.999980926514,0|4
256,192,123566,12,4,129859
129,72,136573,5,4
248,72,137412,1,0
368,72,138251,1,2
452,156,139090,1,0
368,252,139929,2,0,B|240:252,3,119.999980926514,0|2|0|2
127,252,143286,5,0
76,144,144125,2,0,B|76:75,2,59.999990463257,2|0|0
196,144,145803,2,0,B|241:200|197:268,3,119.999980926514,2|0|2|0
324,255,149160,2,0,B|324:188,2,59.999990463257,2|0|4
204,255,150838,5,0
84,255,151677,1,2
84,134,152517,1,0
203,134,153356,1,2
322,134,154195,2,0,B|322:204,2,59.9999952316285,0|0|2
216,192,155873,6,0,B|157:150|85:204,2,119.999990463257,0|2|0
300,276,158391,1,2
372,180,159230,1,0
420,68,160069,5,4
300,68,160908,1,2
180,68,161747,2,0,B|115:68,2,59.999990463257,0|0|2
256,192,163216,12,4,166782
108,76,168041,5,2
168,76,168461,2,0,B|292:76|292:76|292:76,1,119.999980926514,0|2
408,76,170139,6,0,B|408:204,1,119.999980926514,4|0
322,280,171817,1,2
237,195,172656,1,0
116,195,173496,2,0,B|116:75,2,119.999980926514,2|0|2
235,195,176013,5,0
319,110,176852,1,2
234,25,177691,1,0
112,24,178531,2,0,B|72:85|104:142,3,119.999980926514,2|0|2|0
220,168,181887,5,2
304,83,182726,1,0
388,167,183566,1,4
303,251,184405,6,0,B|243:277|179:253,2,119.999980926514,0|2|0
387,166,186922,2,0,B|416:226|387:298|388:298,1,119.999990463257,0|0
272,283,188601,2,0,B|272:211,2,59.999990463257
160,328,190279,6,0,B|96:360|40:320,2,119.999980926514,0|2|4
120,172,193216,6,0,B|174:127|236:176,1,119.999980926514,0|2
272,213,194475,1,0
272,213,194894,2,0,B|256:272,1,59.999990463257,0|2
159,208,196153,6,0,B|112:160|43:200,2,119.999980926514,0|0|2
243,123,198670,2,0,B|306:147|367:123,2,119.999980926514,0|0|4
182,123,200768,1,0
256,192,201188,12,2,207062
256,192,207901,6,0,B|384:192,2,119.999980926514
256,192,210419,12,0,213775
