osu file format v10

[General]
AudioFilename: 08 - Love Call.mp3
AudioLeadIn: 0
PreviewTime: 80768
Countdown: 0
SampleSet: Soft
StackLeniency: 0.6
Mode: 0
LetterboxInBreaks: 0

[Editor]
DistanceSpacing: 0.6
BeatDivisor: 4
GridSize: 16

[Metadata]
Title:Love Call
TitleUnicode:
Artist:Toyama Nao
ArtistUnicode:
Creator:Yuki-kun
Version:Friend
Source:Kami Nomi zo Shiru Sekai
Tags:Nagakawa Kanon
BeatmapID:106065
BeatmapSetID:32042

[Difficulty]
HPDrainRate:4
CircleSize:4
OverallDifficulty:4
ApproachRate:5
SliderMultiplier:1.19999990463257
SliderTickRate:1

[Events]
//Background and Video events
0,0,"bg2.jpg"
//Break Periods
2,130059,134894
//Storyboard Layer 0 (Background)
//Storyboard Layer 1 (Fail)
//Storyboard Layer 2 (Pass)
//Storyboard Layer 3 (Foreground)
//Storyboard Sound Samples
//Background Colour Transformations
3,100,163,162,255

[TimingPoints]
629,419.58041958042,4,2,1,100,1,0
15733,-100,4,2,1,70,0,0
29160,-100,4,2,1,35,0,0
29580,-100,4,2,1,65,0,0
79510,-100,4,2,2,75,0,0
80768,-100,4,2,1,65,0,0
82866,-100,4,2,2,60,0,1
83496,-100,4,2,1,60,0,1
103426,-100,4,2,1,70,0,1
104684,-100,4,2,1,70,0,0
106363,-100,4,2,2,50,0,0
106782,-100,4,2,1,50,0,0
129859,-100,4,2,2,65,0,0
136573,-100,4,2,1,65,0,0
170139,-100,4,2,1,70,0,1
191957,-100,4,2,1,70,0,0
193635,-100,4,1,0,45,0,0
194475,-100,4,2,1,70,0,0
200349,-100,4,2,1,70,0,1
209580,-100,4,2,1,35,0,1
213670,-100,4,2,1,35,0,0
213775,-100,4,2,1,10,0,1
213880,-100,4,2,1,30,0,0

[Colours]
Combo1 : 172,172,172
Combo2 : 128,0,255
Combo3 : 5,5,240
Combo4 : 255,0,255
Combo5 : 128,0,128
SliderBorder : 255,255,255

[HitObjects]
64,72,15733,1,0,0:0:0
136,72,16153,2,0,B|256:72,1,119.999990463257,0|2,0:0|0:0,0:0:0
423,72,17412,1,0,0:0:0
423,72,17831,2,0,B|423:207,1,119.999990463257,0|2,0:0|0:0,0:0:0
476,325,19090,6,0,B|451:348|420:360|383:347|365:320,2,119.999990463257,0|0|2,0:0|0:0|0:0,0:0:0
377,228,20768,1,0,0:0:0
304,228,21188,2,0,B|240:202|179:228,1,119.999990463257,0|2,0:0|0:0,0:0:0
50,181,22447,6,0,B|24:216|88:260|52:292,2,119.999990463257,0|0|2,0:0|0:0|0:0,0:0:0
50,181,23705,1,0,0:0:0
50,181,24124,2,0,B|75:145|11:101|52:69,1,119.999990463257,0|0,0:0|0:0,0:0:0
124,69,24964,1,2,0:0:0
265,68,25803,6,0,B|324:40|384:68,1,119.999990463257
384,140,26642,2,0,B|325:112|265:140,1,119.999990463257,2|0,0:0|0:0,0:0:0
268,212,27482,2,0,B|327:184|387:214,1,119.999990463257
383,284,28321,2,0,B|324:256|264:286,1,119.999990463257,2|0,0:0|0:0,0:0:0
212,328,29160,1,4,0:0:0
156,284,29580,6,0,B|99:231|43:291,2,119.999990463257,0|2|0,0:0|0:0|0:0,0:0:0
185,263,30629,1,0,0:0:0
284,220,31258,2,0,B|339:160|267:104,2,119.999990463257,0|2|0,0:0|0:0|0:0,0:0:0
220,253,32517,1,0,0:0:0
204,184,32936,5,0,0:0:0
137,153,33356,1,2,0:0:0
137,81,33775,2,0,B|65:81,1,59.9999952316285
221,81,34824,5,0,0:0:0
293,81,35244,1,0,0:0:0
359,107,35663,2,0,B|405:112|389:160,1,59.9999952316285,0|2,0:0|0:0,0:0:0
392,218,36293,2,0,B|323:218,2,59.9999952316285
392,290,37132,2,0,B|311:290,1,59.9999952316285
228,320,37971,5,0,0:0:0
200,252,38391,1,2,0:0:0
245,196,38810,2,0,B|212:160|276:128|228:76,1,119.999990463257
164,64,39649,1,0,0:0:0
104,108,40069,1,2,0:0:0
80,176,40489,1,0,0:0:0
108,244,40908,1,0,0:0:0
172,268,41328,1,0,0:0:0
172,339,41747,5,2,0:0:0
244,339,42167,2,0,B|304:355|374:335,2,119.999990463257,0|4|0,0:0|0:0|0:0,0:0:0
244,339,43216,1,2,0:0:0
244,267,43635,1,0,0:0:0
280,267,43845,2,0,B|280:193,1,59.9999952316285
416,164,44894,5,0,0:0:0
379,104,45314,2,0,B|293:61|201:105,1,179.999985694886,0|2,0:0|0:0,0:0:0
128,179,46573,1,0,0:0:0
128,250,46992,2,0,B|254:250,1,119.999990463257
284,250,47622,1,2,0:0:0
441,73,49300,5,4,0:0:0
441,144,49719,2,0,B|517:144,2,59.9999952316285,0|0|8,0:0|0:0|0:0,0:0:0
368,144,50559,2,0,B|368:64,2,59.9999952316285
317,194,51398,2,0,B|247:194,2,59.9999952316285,0|0|8,0:0|0:0|0:0,0:0:0
144,156,52447,5,0,0:0:0
144,156,52656,1,0,0:0:0
174,90,53076,2,0,B|236:59|310:96,3,119.999990463257,0|8|0|0,0:0|0:0|0:0|0:0,0:0:0
290,159,54754,1,0,0:0:0
290,159,54964,2,0,B|304:240,1,59.9999952316285,0|8,0:0|0:0,0:0:0
205,243,55803,6,0,B|205:165,1,59.9999952316285
138,173,56433,2,0,B|138:91,2,59.9999952316285,0|0|8,0:0|0:0|0:0,0:0:0
208,164,57272,2,0,B|267:143|331:167,3,119.999990463257,0|0|0|8,0:0|0:0|0:0|0:0,0:0:0
427,63,59370,6,0,B|487:127|487:127|447:223,1,179.999985694886
426,237,60209,1,8,0:0:0
375,186,60629,2,0,B|375:122,2,59.9999952316285
304,188,61468,6,0,B|244:228|172:188,3,119.999990463257,0|8|0|4,0:0|0:0|0:0|0:0,0:0:0
148,126,63146,2,0,B|148:253,1,119.999990463257,0|8,0:0|0:0,0:0:0
148,316,63985,2,0,B|72:316,2,59.9999952316285
220,316,64824,5,0,0:0:0
292,316,65244,1,8,0:0:0
342,265,65663,2,0,B|422:265,2,59.9999952316285,0|0|0,0:0|0:0|0:0,0:0:0
328,192,66503,2,0,B|368:136|320:76,1,119.999990463257,0|8,0:0|0:0,0:0:0
216,81,67552,6,0,B|147:81,1,59.9999952316285
83,81,68181,2,0,B|28:136|88:200,1,119.999990463257,0|8,0:0|0:0,0:0:0
148,188,69020,2,0,B|204:136|264:200,1,119.999990463257
254,262,69859,2,0,B|330:262,2,59.9999952316285,0|0|8,0:0|0:0|0:0,0:0:0
330,185,70908,6,0,B|396:186,1,59.9999952316285
389,113,71538,1,0,0:0:0
317,113,71957,1,8,0:0:0
266,163,72377,1,0,0:0:0
316,213,72796,1,4,0:0:0
316,285,73216,2,0,B|182:285,3,119.999990463257,0|8|0|0,0:0|0:0|0:0|0:0,0:0:0
119,208,75104,6,0,B|195:208,1,59.9999952316285,0|8,0:0|0:0,0:0:0
229,157,75733,2,0,B|229:94,1,59.9999952316285
256,192,76153,12,4,79510,0:0:0
76,148,80768,6,0,B|161:63,1,119.999990463257,0|2,0:0|0:0,0:0:0
233,63,81608,2,0,B|318:148,1,119.999990463257,0|2,0:0|0:0,0:0:0
389,147,82447,2,8,B|477:59,1,119.999990463257,0|4,0:0|0:0,0:0:0
364,62,83496,2,2,B|300:62,1,59.9999952316285,0|10,0:0|0:0,0:0:0
160,62,84545,5,0,0:0:0
224,32,84964,2,0,B|272:90|225:158,1,119.999990463257,0|10,0:0|0:0,0:0:0
212,172,85594,2,0,B|162:221|82:173,1,119.999990463257,0|0,0:0|0:0,0:0:0
158,121,86223,1,0,0:0:0
86,253,86642,6,0,B|10:253,2,59.9999952316285,0|0|10,0:0|0:0|0:0,0:0:0
158,253,87482,2,0,B|226:253,2,59.9999952316285,0|0|4,0:0|0:0|0:0,0:0:0
116,192,88321,5,0,0:0:0
165,137,88740,1,10,0:0:0
215,86,89160,2,0,B|215:19,1,59.9999952316285
323,26,89999,5,0,0:0:0
373,76,90419,1,10,0:0:0
423,126,90838,2,0,B|423:202,1,59.9999952316285
423,222,91258,1,0,0:0:0
420,296,91677,5,0,0:0:0
360,256,92097,1,10,0:0:0
296,220,92517,2,0,B|236:220,2,59.9999952316285,0|0|12,0:0|0:0|0:0,0:0:0
276,288,93356,5,0,0:0:0
205,276,93775,1,12,0:0:0
154,225,94195,2,0,B|110:162|154:100,3,119.999990463257,0|12|0|2,0:0|0:0|0:0|0:0,0:0:0
162,45,95873,2,0,B|232:45,2,59.9999952316285,0|0|4,0:0|0:0|0:0,0:0:0
89,45,96712,5,0,0:0:0
139,95,97132,1,10,0:0:0
189,145,97552,1,0,0:0:0
239,94,97971,1,0,0:0:0
188,144,98391,5,0,0:0:0
188,215,98810,1,10,0:0:0
248,180,99230,2,0,B|374:180,1,119.999990463257,0|0,0:0|0:0,0:0:0
418,230,100069,5,0,0:0:0
367,280,100489,1,10,0:0:0
295,280,100908,2,0,B|154:280,1,119.999990463257
118,236,101747,5,0,0:0:0
118,163,102167,1,10,0:0:0
190,163,102587,2,0,B|190:95,1,59.9999952316285
266,26,103426,2,0,B|346:26,2,59.9999952316285,0|0|10,0:0|0:0|0:0,0:0:0
266,98,104265,2,0,B|192:98,2,59.9999952316285,0|0|4,0:0|0:0|0:0,0:0:0
418,250,105943,6,0,B|418:180,2,59.9999952316285,0|0|4,0:0|0:0|0:0,0:0:0
345,250,106782,1,0,0:0:0
345,177,107202,2,0,B|345:98,2,59.9999952316285,10|0|0,0:0|0:0|0:0,0:0:0
272,177,108041,1,0,0:0:0
128,156,108880,6,0,B|182:97|112:32,2,119.999990463257,10|0|0,0:0|0:0|0:0,0:0:0
128,228,110139,2,0,B|76:284|127:335,1,119.999990463257,0|10,0:0|0:0,0:0:0
236,72,112237,6,0,B|308:57|356:109,1,119.999990463257,10|0,0:0|0:0,0:0:0
412,136,113076,1,0,0:0:0
424,208,113496,1,0,0:0:0
355,228,113915,2,0,B|297:266|228:202,2,119.999990463257,10|0|4,0:0|0:0|0:0,0:0:0
138,228,116013,6,0,B|72:228,1,59.9999952316285
41,228,116433,1,2,0:0:0
142,126,117272,6,0,B|207:126,1,59.9999952316285
238,126,117691,1,2,0:0:0
339,24,118531,6,0,B|462:24,2,119.999990463257
288,76,119789,1,0,0:0:0
288,76,120209,1,2,0:0:0
288,76,120629,1,2,0:0:0
288,326,122097,5,0,0:0:0
260,304,122307,2,0,B|168:300|200:200,2,119.999990463257,0|0|4,0:0|0:0|0:0,0:0:0
256,192,123566,12,4,129859,0:0:0
80,64,136573,5,4,0:0:0
181,165,137412,1,8,0:0:0
282,63,138251,1,0,0:0:0
383,164,139090,1,8,0:0:0
281,265,139929,1,0,0:0:0
179,163,140768,1,8,0:0:0
179,307,141608,6,0,B|240:340|308:304,2,119.999990463257,0|0|8,0:0|0:0|0:0,0:0:0
179,235,142866,1,0,0:0:0
179,162,143286,2,0,B|124:135|64:163,2,119.999990463257,0|0|8,0:0|0:0|0:0,0:0:0
179,235,144545,1,0,0:0:0
240,196,144964,2,0,B|208:128|260:72,2,119.999990463257,0|0|8,0:0|0:0|0:0,0:0:0
256,228,146013,6,0,B|328:264,3,59.9999952316285
258,305,147062,2,0,B|202:349|146:301,3,119.999990463257,0|8|0|0,0:0|0:0|0:0|0:0,0:0:0
148,231,148740,1,0,0:0:0
148,231,148950,2,8,B|75:231,1,59.9999952316285,0|8,0:0|0:0,0:0:0
64,164,149580,1,0,0:0:0
88,96,149999,5,4,0:0:0
160,108,150419,1,0,0:0:0
217,65,150838,1,8,0:0:0
289,65,151258,2,0,B|368:65,2,59.9999952316285
308,136,152097,5,0,0:0:0
364,184,152517,1,8,0:0:0
323,241,152936,1,0,0:0:0
373,291,153356,1,0,0:0:0
322,341,153775,2,0,B|252:341,2,59.9999952316285,0|0|8,0:0|0:0|0:0,0:0:0
245,264,154824,5,0,0:0:0
245,263,155034,1,0,0:0:0
194,212,155454,2,0,B|119:212,2,59.9999952316285,0|0|8,0:0|0:0|0:0,0:0:0
194,139,156293,2,0,B|253:97|325:151,3,119.999990463257,0|0|0|8,0:0|0:0|0:0|0:0,0:0:0
414,138,158181,5,0,0:0:0
414,138,158391,1,0,0:0:0
365,190,158810,1,0,0:0:0
292,190,159230,1,8,0:0:0
292,261,159649,1,0,0:0:0
364,261,160069,1,4,0:0:0
364,188,160489,5,0,0:0:0
332,124,160908,1,8,0:0:0
259,124,161328,2,0,B|280:196,2,59.9999952316285,0|0|0,0:0|0:0|0:0,0:0:0
188,124,162167,1,0,0:0:0
115,124,162587,5,8,0:0:0
64,172,163006,2,0,B|-19:172,2,59.9999952316285,0|0|0,0:0|0:0|0:0,0:0:0
110,228,163845,2,0,B|110:357,1,119.999990463257,0|8,0:0|0:0,0:0:0
182,348,164684,2,0,B|307:348,1,119.999990463257,0|0,0:0|0:0,0:0:0
353,296,165524,2,0,B|394:236|373:180,3,119.999990463257,0|8|0|4,0:0|0:0|0:0|0:0,0:0:0
160,192,168041,5,0,0:0:0
210,141,168461,2,0,B|269:93|330:150,1,119.999990463257,2|0,0:0|0:0,0:0:0
370,191,169300,1,2,0:0:0
319,241,169719,2,0,B|265:280|205:240,1,119.999990463257,0|4,0:0|0:0,0:0:0
99,241,170768,5,0,0:0:0
99,241,170978,1,10,0:0:0
99,132,171608,1,0,0:0:0
99,132,171817,1,0,0:0:0
99,59,172237,2,0,B|185:59,1,59.9999952316285,0|0,0:0|0:0,0:0:0
196,120,172656,5,10,0:0:0
246,69,173076,2,0,B|305:28|365:72,1,119.999990463257
358,139,173915,2,0,B|296:192,2,59.9999952316285,0|0|10,0:0|0:0|0:0,0:0:0
430,139,174754,2,0,B|494:139,2,59.9999952316285,0|0|4,0:0|0:0|0:0,0:0:0
264,244,175594,5,0,0:0:0
324,204,176013,1,10,0:0:0
364,144,176433,1,0,0:0:0
324,84,176852,1,0,0:0:0
268,40,177272,1,0,0:0:0
196,40,177691,1,10,0:0:0
128,60,178111,2,0,B|46:60,2,59.9999952316285
77,110,178950,6,0,B|138:150|206:104,1,119.999990463257,0|10,0:0|0:0,0:0:0
262,113,179789,1,0,0:0:0
220,172,180209,1,12,0:0:0
256,236,180629,1,0,0:0:0
328,224,181048,2,2,B|370:169|328:97,2,119.999990463257,12|0|12,0:0|0:0|0:0,0:0:0
384,272,182307,5,0,0:0:0
424,212,182726,1,0,0:0:0
416,140,183146,2,0,B|482:139,2,59.9999952316285,0|0|4,0:0|0:0|0:0,0:0:0
351,171,183985,2,8,B|232:171,2,119.999990463257,0|10|0,0:0|0:0|0:0,0:0:0
351,171,185034,1,0,0:0:0
274,57,185663,6,0,B|409:57,1,119.999990463257,0|10,0:0|0:0,0:0:0
445,108,186503,2,0,B|445:240|446:240,1,119.999990463257,0|0,0:0|0:0,0:0:0
394,278,187342,2,0,B|268:278,1,119.999990463257,0|10,0:0|0:0,0:0:0
204,256,188181,1,0,0:0:0
152,205,188601,1,0,0:0:0
76,128,189230,6,0,B|76:53,1,59.9999952316285,0|10,0:0|0:0,0:0:0
148,68,189859,2,0,B|229:68,1,59.9999952316285,0|0,0:0|0:0,0:0:0
316,68,190698,2,0,B|374:39|442:71,3,119.999990463257,0|10|0|4,0:0|0:0|0:0|0:0,0:0:0
279,219,193216,6,0,B|279:295,2,59.9999952316285,0|0|4,0:0|0:0|0:0,0:0:0
279,74,194475,2,0,B|279:153,2,59.9999952316285,8|0|0,0:0|0:0|0:0,0:0:0
220,288,196153,6,0,B|148:256|108:280|104:280,2,119.999990463257,8|0|0,0:0|0:0|0:0,0:0:0
292,288,197412,2,0,B|364:256|404:280|408:280,2,119.999990463257,0|8|0,0:0|0:0|0:0,0:0:0
292,107,199300,5,0,0:0:0
291,107,199510,1,0,0:0:0
264,172,199929,1,0,0:0:0
264,244,200349,2,0,B|205:257|165:297|165:297|116:272|28:272,1,239.999980926514,4|10,0:0|0:0,0:0:0
44,200,201608,1,0,0:0:0
76,136,202027,1,0,0:0:0
256,192,202447,12,4,207062,0:0:0
160,200,207901,6,0,B|208:284|304:284|352:200,1,239.999980926514,8|0,0:0|0:0,0:0:0
256,192,209580,1,8,0:0:0
256,192,210419,12,0,213775,0:0:0
