osu file format v9

[General]
AudioFilename: love call.mp3
AudioLeadIn: 0
PreviewTime: 15543
Countdown: 0
SampleSet: Soft
StackLeniency: 0.7
Mode: 0
LetterboxInBreaks: 0
StoryFireInFront: 0

[Editor]
Bookmarks: 105467,136525,147006,150362,223655
DistanceSpacing: 1
BeatDivisor: 4
GridSize: 8

[Metadata]
Title:Love Call
Artist:Toyama Nao
Creator:Nymph_
Version:Loving Call~
Source:Kami Nomi zo Shiru Sekai
Tags:Nakagawa Kanon The World God Only Knows Starring Birth chungskale

[Difficulty]
HPDrainRate:5
CircleSize:4
OverallDifficulty:5
ApproachRate:6
SliderMultiplier:1.4
SliderTickRate:1

[Events]
//Background and Video events
0,0,"kanon.jpg"
//Break Periods
2,42730,48194
2,123290,135256
//Storyboard Layer 0 (Background)
//Storyboard Layer 1 (Fail)
//Storyboard Layer 2 (Pass)
//Storyboard Layer 3 (Foreground)
//Storyboard Sound Samples
//Background Colour Transformations
3,100,163,162,255

[TimingPoints]
2251,419.58041958042,4,2,1,100,1,0
32460,-200,4,2,1,100,0,0
33299,-100,4,2,1,100,0,0
82810,-100,4,2,1,100,0,1
104628,-100,4,2,1,100,0,0
110502,-200,4,2,1,100,0,0
111341,-100,4,2,1,100,0,0
123090,-100,4,2,1,100,0,0
170083,-100,4,2,1,100,0,1
191901,-100,4,2,1,100,0,0
200292,-100,4,2,1,100,0,0
200293,-100,4,2,1,100,0,1
200294,-100,4,2,1,100,0,0

[Colours]
Combo1 : 119,187,255
Combo2 : 255,202,251
Combo3 : 196,136,255
Combo4 : 179,255,255

[HitObjects]
112,192,15677,1,0
112,48,16097,1,0
112,48,16306,1,2
256,48,16726,1,0
328,48,16936,2,0,B|352:40|392:40|416:56,1,70
397,47,17355,1,0
448,176,17775,2,0,B|442:183|402:183|378:175,1,70,0|2
240,176,18404,2,0,B|234:168|194:168|170:176,2,70
312,176,19034,5,0
448,216,19453,2,0,B|448:296,1,70
448,288,19873,1,0
312,304,20292,1,0
200,216,20712,1,0
56,216,21132,2,0,B|56:120,1,70,0|2
176,216,21761,2,0,B|176:288,2,70
176,144,22390,5,0
312,184,22810,1,0
312,184,23020,1,0
480,56,23649,2,0,B|408:16|336:64,1,140
347,56,24488,1,0
272,56,24698,1,2
200,176,25118,5,0
200,176,25327,2,0,B|224:168|264:168|288:184,2,70,0|0|0
344,176,26167,1,0
344,176,26376,1,0
464,344,27006,2,0,B|464:256,2,70
392,344,27635,1,0
272,272,28055,1,0
272,272,28264,2,0,B|248:280|208:280|184:264,1,70
200,200,28684,2,0,B|224:192|264:192|288:208,1,70
270,200,29104,1,2
408,160,29523,6,0,B|456:88|392:16,1,140
403,30,30362,1,0
403,30,30572,1,0
192,32,31202,2,0,B|168:24|128:24|104:40,2,70
72,96,32041,1,0
128,160,32460,2,0,B|200:176|272:160,1,140
267,162,33719,1,2
267,162,34139,1,0
384,88,34558,2,0,B|392:112|392:152|376:176,1,70
384,296,35188,5,0
312,296,35397,2,0,B|304:272|304:232|320:208,1,70
312,152,35817,1,0
248,32,36237,1,0
176,32,36446,1,0
96,152,36866,2,0,B|120:144|160:144|184:160,1,70
312,152,37495,1,0
312,152,37915,2,0,B|336:160|376:160|400:144,1,70
464,264,38544,6,0,B|464:336,2,70
464,264,39174,1,0
352,192,39593,1,0
256,88,40013,1,0
160,192,40432,1,0
256,296,40852,1,0
256,192,41691,5,0
256,192,42111,1,0
256,192,42320,1,0
256,192,42530,1,4
104,64,49244,5,0
240,64,49663,2,0,B|264:56|304:56|328:72,1,70,0|2
416,152,50292,1,0
416,152,50502,2,0,B|394:159|354:159|336:152,1,70
280,152,50922,1,0
176,248,51341,2,0,B|200:256|240:256|264:240,1,70,0|2
245,248,51971,2,0,B|269:256|309:256|333:240,2,70
248,176,52600,5,0
104,176,53020,2,0,B|96:154|96:114|112:96,1,70
104,107,53439,1,2
216,24,53859,1,0
328,104,54278,1,0
328,104,54698,2,0,B|336:128|336:168|320:192,2,70,0|0|2
432,200,55537,2,0,B|440:224|440:264|424:288,1,70
433,270,55957,5,0
312,344,56376,1,0
312,344,56586,1,0
104,344,57216,2,0,B|88:352|48:352|32:344,2,70
104,224,58055,1,0
104,224,58264,1,2
240,224,58684,6,0,B|264:216|304:216|328:232,2,70
240,224,59313,1,0
120,160,59733,2,0,B|112:144|112:104|128:80,1,70
328,120,60572,2,0,B|336:104|336:64|320:40,2,70
256,120,61202,1,0
216,256,61621,1,0
216,328,61831,2,0,B|240:336|280:336|304:320,1,70,0|0
288,256,62251,2,0,B|304:248|344:248|360:256,1,70,0|0
358,255,62670,1,2
472,171,63090,6,0,B|528:116|474:46,1,140
475,45,63929,1,0
400,47,64139,1,0
192,48,64768,2,0,B|168:40|128:40|104:56,2,70
336,48,65607,1,0
264,168,66027,1,2
264,168,66446,2,0,B|248:176|208:176|184:168,1,70,0|0
128,168,66866,1,2
128,304,67495,5,0
128,304,67705,2,0,B|136:344|192:352,1,70
224,304,68125,1,0
224,304,68334,1,0
224,304,68544,2,0,B|288:360|352:304,1,140,0|0
488,304,69383,1,2
384,208,69803,2,0,B|360:200|328:200|304:216,1,70,0|2
72,64,70852,6,0,B|96:56|136:56|160:72,1,70,0|0
280,64,71481,1,0
392,144,71901,1,0
264,208,72320,1,0
376,288,72740,1,0
248,352,73160,2,0,B|232:360|192:360|168:352,1,70,0|0
112,352,73579,1,0
24,240,73999,1,0
112,128,74418,1,2
320,128,75048,6,0,B|304:120|264:120|248:128,1,70,0|0
320,248,75677,2,0,B|332:254|372:254|388:246,1,70,0|2
256,192,76097,12,4,79453
256,88,80712,5,0
160,192,81132,1,0
256,288,81551,1,0
352,192,81971,1,0
256,192,82390,1,0
192,64,82810,5,2
128,192,83230,2,0,B|104:184|72:184|48:200,1,70,0|0
59,194,83649,1,2
128,312,84069,1,0
128,312,84278,2,0,B|140:321|172:321|196:313,1,70,0|0
336,312,84908,1,0
408,312,85118,1,0
408,176,85537,1,0
264,176,85957,6,0,B|251:185|219:185|195:177,1,70,0|2
264,56,86586,2,0,B|288:48|320:48|344:64,1,70,0|2
400,176,87216,2,0,B|376:183|344:183|331:174,1,70,0|2
264,296,87845,1,0
192,296,88055,2,0,B|179:305|147:305|123:297,2,70
192,224,88684,5,0
312,296,89104,2,0,B|324:305|356:305|380:297,1,70,0|0
448,296,89523,1,2
448,152,89943,1,0
312,152,90362,1,0
240,272,90782,2,0,B|252:262|284:262|308:270,2,70,0|0|2
96,272,91621,5,0
168,152,92041,1,0
168,288,92460,2,0,B|168:358,2,70,0|0|2
168,152,93299,1,0
288,224,93719,1,2
288,80,94139,1,0
408,152,94558,1,2
408,296,94978,2,0,B|408:392,2,70,0|0|2
408,224,95607,1,0
408,152,95817,2,0,B|408:82,1,70
408,82,96237,1,2
272,80,96656,5,0
152,152,97076,2,0,B|128:159|96:159|83:150,1,70,0|0
152,152,97495,2,0,B|164:142|196:142|220:150,1,70,0|2
360,152,98334,1,0
464,240,98754,1,0
360,336,99174,1,0
360,336,99593,2,0,B|344:360|320:368|280:368|248:368|232:328,1,140,2|0
104,304,100432,1,0
104,304,100852,2,0,B|104:232,1,70
104,160,101271,1,4
224,96,101691,1,0
296,96,101901,5,0
296,168,102111,1,0
296,304,102530,2,0,B|296:384,2,70,0|0|2
296,232,103160,1,0
200,48,103789,2,0,B|200:144,1,70,2|0
64,144,104418,2,0,B|64:214,1,70,2|0
64,344,105048,1,0
200,344,105467,1,0
344,344,105887,6,0,B|424:344,2,70,0|0|0
344,200,106726,1,0
344,56,107146,2,0,B|256:56,2,70
200,56,107985,1,0
64,56,108404,2,0,B|40:72|34:106|34:146|42:170|66:186,1,140
200,184,109244,1,0
336,320,110083,1,2
336,320,110502,2,0,B|384:256|336:184,1,140,2|0
336,56,112181,5,0
200,56,112600,1,0
200,56,112810,1,0
200,56,113020,1,4
160,320,115957,6,0,B|80:320,2,70,0|0|2
160,176,116796,1,0
160,32,117216,2,0,B|248:32,2,70,0|0|2
304,32,118055,1,0
304,168,118474,2,0,B|224:168,2,70,0|0|2
448,168,119313,1,0
192,280,120153,1,2
328,280,120572,1,2
256,192,122041,5,0
256,192,122250,1,0
256,280,122670,1,0
256,280,122880,1,0
256,280,123090,1,4
400,120,136306,5,0
400,192,136516,1,0
400,336,136936,2,0,B|407:322|407:282|399:258,1,70,0|0
400,336,137355,1,2
256,336,137775,2,0,B|242:343|202:343|178:335,1,70
188,337,138195,5,0
96,232,138614,2,0,B|120:224|160:224|184:240,1,70,0|0
165,231,139034,1,2
240,232,139244,2,0,B|310:232,2,70
168,232,139873,5,0
56,152,140292,2,0,B|48:136|48:96|56:72,1,70
53,82,140712,1,2
200,80,141132,1,0
128,64,141341,1,0
128,136,141551,1,0
128,136,141971,2,0,B|136:160|136:200|120:224,1,70,0|0
128,272,142390,1,2
200,272,142600,2,0,B|200:342,2,70
272,272,143230,5,0
416,272,143649,1,0
344,272,143859,1,0
344,200,144069,1,2
344,72,144488,2,0,B|328:64|288:64|264:72,2,70,0|0|0
272,200,145327,1,0
272,200,145537,1,0
344,200,145747,1,2
416,200,145957,6,0,B|486:200,2,70
416,128,146586,1,0
272,128,147006,2,0,B|280:120|280:80|272:56,1,70
273,59,147425,1,2
128,208,147845,2,0,B|120:232|120:272|136:296,2,70,0|0|0
128,136,148474,1,0
272,136,148894,1,0
340,138,149104,6,0,B|316:145|284:145|271:136,1,70,2|0
304,72,149523,2,0,B|316:62|348:62|372:70,1,70,0|0
416,128,149943,1,0
464,272,150362,6,0,B|448:296|424:304|384:304|352:304|336:264,1,140
224,352,151202,1,0
224,352,151411,1,0
88,192,152041,2,0,B|18:192,2,70
160,72,152880,1,0
224,192,153299,1,2
224,192,153719,2,0,B|294:192,1,70
368,192,154139,1,2
368,352,154768,5,0
296,352,154978,1,0
160,352,155397,1,0
160,352,155607,1,0
160,352,155817,2,0,B|128:288|160:216,1,140,0|2
304,216,156656,1,0
184,296,157076,2,0,B|191:282|191:242|183:218,1,70,0|0
184,160,157495,1,2
368,56,158125,6,0,B|392:48|432:48|456:64,1,70,0|0
296,56,158754,1,0
152,56,159174,1,0
232,176,159593,1,0
232,320,160013,1,0
232,320,160432,1,0
304,320,160642,2,0,B|328:328|368:328|392:312,1,70,0|2
440,200,161271,1,0
296,200,161691,1,2
144,56,162320,6,0,B|120:48|80:48|56:64,1,70,0|0
144,176,162950,2,0,B|168:184|208:184|232:168,1,70,0|2
256,192,163369,12,4,166726
360,176,167985,5,0
256,88,168404,1,0
152,176,168824,1,0
192,304,169244,1,0
320,304,169663,1,4
320,304,170083,5,0
384,192,170502,2,0,B|408:200|448:200|472:184,1,70
454,192,170922,1,4
384,72,171341,1,0
384,72,171551,2,0,B|360:64|320:64|296:80,1,70
176,72,172181,1,0
104,72,172390,1,2
32,192,172810,1,0
104,312,173230,6,0,B|128:320|168:320|192:304,1,70,0|2
243,314,173859,2,0,B|219:306|179:306|155:322,1,70,0|2
175,245,174488,2,0,B|167:269|167:309|183:333,1,70,0|2
176,168,175118,1,0
176,96,175327,2,0,B|200:88|240:88|264:104,2,70
176,168,175957,5,0
176,304,176376,2,0,B|152:312|112:312|88:296,1,70
40,304,176796,1,2
40,160,177216,1,0
136,56,177635,1,0
280,56,178055,2,0,B|256:48|216:48|192:64,2,70,0|0|2
424,56,178894,5,0
352,176,179313,1,0
208,176,179733,2,0,B|184:168|144:168|120:184,2,70,0|0|2
352,176,180572,1,0
424,296,180992,1,2
288,296,181411,1,0
216,176,181831,1,4
104,96,182251,2,0,B|104:0,2,70
104,168,182880,1,0
104,240,183090,2,0,B|104:310,1,70
104,311,183509,1,4
248,304,183929,5,0
360,232,184348,2,0,B|384:224|424:224|448:240,1,70
360,232,184768,2,0,B|336:240|296:240|272:224,1,70,0|0
80,232,185607,1,0
32,104,186027,1,0
152,104,186446,1,0
152,104,186866,2,0,B|168:80|202:74|242:74|266:82|282:106,1,140,2|0
416,80,187705,1,0
416,80,188125,2,0,B|416:152,1,70
416,224,188544,1,2
248,352,189174,5,0
248,280,189383,1,0
248,136,189803,2,0,B|248:56,2,70,0|0|2
248,136,190432,1,0
56,216,191062,2,0,B|56:286,1,70,2|0
192,256,191691,2,0,B|192:326,1,70,2|0
328,296,192320,1,0
328,296,192740,1,0
328,152,193160,6,0,B|398:152,2,70,0|0|2
184,152,193999,1,0
184,288,194418,2,0,B|114:288,2,70,0|0|2
328,288,195257,1,0
328,288,195677,2,0,B|398:288,2,70,0|0|2
328,152,196516,1,0
184,152,197355,1,2
184,152,197775,1,2
256,288,199244,5,0
256,288,199453,1,0
256,152,199873,1,0
256,152,200083,1,0
256,192,200292,12,4,203649
