osu file format v14

[General]
AudioFilename: Aoharu x Kikanjuu - OP.mp3
AudioLeadIn: 0
PreviewTime: 52146
Countdown: 1
SampleSet: Soft
StackLeniency: 0.2
Mode: 0
LetterboxInBreaks: 1
WidescreenStoryboard: 0

[Editor]
Bookmarks: 58613
DistanceSpacing: 0.7
BeatDivisor: 4
GridSize: 8
TimelineZoom: 0.8

[Metadata]
Title:The Bravest Destiny
TitleUnicode:The Bravest Destiny
Artist:Toy*GunGun
ArtistUnicode:トイ★ガンガン
Creator:Hatori-kun
Version:Bravest Destiny
Source:青春×機関銃
Tags:opening maeno tomoaki matsuoka yoshitsugu komatsu mikako aoharu x machinegun kikanjyu
BeatmapID:764561
BeatmapSetID:346361

[Difficulty]
HPDrainRate:6
CircleSize:4
OverallDifficulty:8
ApproachRate:9
SliderMultiplier:1.67
SliderTickRate:2

[Events]
//Background and Video events
0,0,"1080×1920_gangan1.jpg",0,0
//Break Periods
//Storyboard Layer 0 (Background)
//Storyboard Layer 1 (Fail)
//Storyboard Layer 2 (Pass)
//Storyboard Layer 3 (Foreground)
//Storyboard Sound Samples

[TimingPoints]
589.59763477015,359.281437125748,4,2,1,50,1,0
3194,-100,4,2,1,30,0,0
3284,-100,4,2,1,20,0,0
3463,-100,4,2,1,70,0,0
14960,-149.253731343284,4,1,1,70,0,0
19990,-149.253731343284,4,2,1,70,0,0
20709,-100,4,2,1,70,0,0
26457,-149.253731343284,4,2,1,70,0,0
32206,-100,4,2,1,70,0,0
49451,-149.253731343284,4,2,1,70,0,0
51068,-100,4,2,1,70,0,0
52326,-83.3333333333333,4,2,1,70,0,0
72625,-149.253731343284,4,2,1,70,0,0
75320,-100,4,2,1,70,0,0

[HitObjects]
92,98,589,5,2,0:0:0:0:
154,166,769,2,0,L|143:261,1,83.5
279,101,1128,5,2,0:0:0:0:
360,165,1308,2,0,L|348:272,1,83.5,0|2,0:0|0:0,0:0:0:0:
282,295,1667,2,0,P|228:289|202:273,1,83.5,0|2,0:0|0:0,0:0:0:0:
449,104,2026,5,0,0:0:0:0:
359,129,2206,1,2,0:0:0:0:
298,64,2386,1,0,0:0:0:0:
388,39,2565,2,8,L|343:214,1,167,2|8,0:0|0:0,0:0:0:0:
332,222,3014,5,8,0:0:0:0:
300,224,3104,1,8,0:3:0:0:
270,212,3194,1,8,0:3:0:0:
249,187,3284,1,8,0:3:0:0:
247,154,3374,1,8,0:3:0:0:
264,127,3463,6,0,L|167:121,1,83.5,4|0,0:0|0:0,0:0:0:0:
80,189,3823,2,0,P|59:148|73:87,1,83.5,8|0,0:0|0:0,0:0:0:0:
121,39,4182,1,0,1:0:0:0:
121,39,4362,1,0,1:0:0:0:
254,108,4541,2,0,L|352:97,1,83.5,8|0,0:0|0:0,0:0:0:0:
445,165,4900,6,0,P|453:209|444:249,1,83.5,0|0,1:0|1:0,0:0:0:0:
332,298,5260,1,8,0:0:0:0:
337,123,5439,1,0,0:0:0:0:
248,165,5619,2,0,P|206:163|163:149,1,83.5,0|0,1:0|1:0,0:0:0:0:
135,41,5978,1,8,0:0:0:0:
233,53,6158,1,0,0:0:0:0:
258,266,6338,5,0,1:0:0:0:
258,266,6517,1,0,1:0:0:0:
69,296,6697,1,8,0:0:0:0:
101,208,6877,2,0,P|106:170|91:123,1,83.5,0|0,0:0|1:0,0:0:0:0:
194,151,7236,1,0,1:0:0:0:
257,40,7415,2,0,L|346:32,1,83.5,8|0,0:0|0:0,0:0:0:0:
393,101,7685,1,0,0:0:0:0:
393,101,7775,5,2,0:0:0:0:
298,126,7954,1,0,1:0:0:0:
306,15,8134,1,8,0:0:0:0:
201,143,8314,1,2,0:0:0:0:
47,100,8493,5,0,1:0:0:0:
109,173,8673,2,0,L|121:273,1,83.5,2|8,1:2|0:0,0:0:0:0:
196,309,9032,1,2,0:0:0:0:
196,309,9122,1,0,0:0:0:0:
196,309,9212,2,0,P|237:313|287:287,1,83.5,4|0,0:0|0:0,0:0:0:0:
308,152,9571,5,8,0:0:0:0:
308,152,9751,1,0,0:0:0:0:
239,80,9930,2,0,L|155:91,1,83.5,0|0,1:0|1:0,0:0:0:0:
68,48,10290,1,8,0:0:0:0:
48,191,10469,5,0,0:0:0:0:
48,191,10559,1,0,0:0:0:0:
48,191,10649,1,2,1:2:0:0:
147,205,10829,1,0,1:0:0:0:
212,55,11008,5,8,0:0:0:0:
300,104,11188,1,2,0:0:0:0:
452,48,11368,1,0,1:0:0:0:
403,135,11547,2,0,P|394:182|403:230,1,83.5,0|8,1:0|0:0,0:0:0:0:
325,309,11906,1,2,0:0:0:0:
325,309,11996,1,0,0:0:0:0:
325,309,12086,5,8,1:2:0:0:
288,128,12266,1,2,1:2:0:0:
345,348,12445,5,8,1:2:0:0:
271,101,12625,1,0,1:0:0:0:
176,258,12805,1,0,1:3:0:0:
144,269,12894,1,0,1:3:0:0:
111,266,12984,1,0,1:3:0:0:
83,249,13074,1,0,1:3:0:0:
64,222,13164,1,8,0:0:0:0:
127,15,13344,6,0,P|150:69|133:186,1,167,4|0,0:0|1:0,0:0:0:0:
50,99,13883,1,8,0:0:0:0:
50,99,14062,1,0,0:0:0:0:
249,134,14242,5,8,1:3:0:0:
269,131,14331,1,8,1:3:0:0:
290,129,14421,1,8,1:3:0:0:
311,127,14511,1,8,1:3:0:0:
332,125,14601,1,8,0:2:0:0:
399,204,14781,1,0,0:0:0:0:
349,295,14960,6,0,P|302:294|259:224,1,111.889994707352
271,146,15499,1,0,0:0:0:0:
271,146,15679,2,0,L|257:78,1,55.944997353676,0|0,0:0|2:0,0:0:0:0:
182,260,16038,2,0,L|168:324,1,55.944997353676,0|0,0:0|2:0,0:0:0:0:
147,173,16397,6,0,P|108:150|43:167,1,111.889994707352
92,240,16936,2,0,L|106:302,1,55.944997353676,0|0,0:0|2:0,0:0:0:0:
261,333,17296,2,0,L|262:272,2,55.944997353676,0|0|0,0:0|2:0|0:0,0:0:0:0:
335,229,17835,6,0,P|351:186|326:125,1,111.889994707352,2|0,0:2|0:0,0:0:0:0:
241,162,18374,1,2,0:2:0:0:
241,162,18553,2,0,L|159:154,1,55.944997353676,0|0,0:0|2:0,0:0:0:0:
108,204,18912,2,0,P|93:172|101:129,1,55.944997353676,0|0,0:2|2:0,0:0:0:0:
186,52,19272,6,0,P|202:92|181:161,1,111.889994707352,2|0,0:2|0:0,0:0:0:0:
98,47,19811,1,0,0:0:0:0:
289,140,19990,5,0,1:0:0:0:
403,39,20170,1,8,1:2:0:0:
276,268,20350,1,8,1:2:0:0:
186,52,20529,1,8,1:2:0:0:
410,225,20709,6,0,L|424:311,1,83.5,4|0,0:0|0:0,0:0:0:0:
329,188,21068,2,0,L|341:81,1,83.5,8|0,0:0|0:0,0:0:0:0:
247,238,21427,2,0,P|203:242|143:215,1,83.5,0|0,1:0|1:0,0:0:0:0:
124,134,21787,1,8,0:0:0:0:
198,28,21966,5,0,0:0:0:0:
282,86,22146,2,0,L|372:74,1,83.5,0|0,1:0|1:0,0:0:0:0:
223,159,22505,2,0,L|117:143,1,83.5,8|0,0:0|0:0,0:0:0:0:
61,200,22775,1,0,0:0:0:0:
61,200,22865,5,0,1:0:0:0:
47,64,23044,1,0,1:0:0:0:
185,58,23224,1,8,0:0:0:0:
177,238,23403,1,0,1:0:0:0:
321,268,23583,5,0,0:0:0:0:
369,175,23763,2,0,L|357:84,1,83.5,0|8,0:0|0:0,0:0:0:0:
265,48,24122,1,0,0:0:0:0:
205,190,24302,5,0,1:0:0:0:
205,190,24481,1,0,1:0:0:0:
131,89,24661,2,0,P|93:80|42:92,1,83.5,8|0,0:0|0:0,0:0:0:0:
90,164,24930,1,0,0:0:0:0:
90,164,25020,6,0,L|78:264,1,83.5,0|0,1:0|1:0,0:0:0:0:
253,329,25380,1,8,0:0:0:0:
301,53,25559,1,0,1:0:0:0:
142,341,25739,5,8,0:0:0:0:
398,65,25918,1,0,1:0:0:0:
211,136,26098,5,8,0:0:0:0:
28,60,26278,1,0,1:0:0:0:
118,34,26457,6,0,P|130:80|108:149,1,111.889994707352,0|0,1:0|1:0,0:0:0:0:
32,178,26996,1,0,0:0:0:0:
80,257,27176,2,0,L|198:250,1,111.889994707352,0|0,1:0|1:0,0:0:0:0:
282,272,27715,1,0,0:0:0:0:
335,197,27894,6,0,B|334:163|334:163|315:123|315:123|313:70,1,111.889994707352,0|0,1:0|1:0,0:0:0:0:
398,102,28433,2,0,P|425:110|463:103,1,55.944997353676,0|0,0:0|1:0,0:0:0:0:
241,180,28972,1,0,1:0:0:0:
144,123,29152,1,0,0:0:0:0:
223,40,29332,6,0,L|235:106,1,55.944997353676,2|0,1:2|0:0,0:0:0:0:
188,286,29871,1,2,0:0:0:0:
60,219,30050,2,0,L|123:214,1,55.944997353676,0|0,1:0|0:0,0:0:0:0:
171,148,30409,2,0,P|175:115|132:43,1,111.889994707352,0|0,1:0|1:0,0:0:0:0:
266,164,31128,2,0,L|341:162,1,55.944997353676,0|0,1:0|0:0,0:0:0:0:
392,220,31487,5,0,1:2:0:0:
152,307,31667,1,8,1:2:0:0:
287,47,31847,1,8,1:2:0:0:
270,346,32026,1,8,1:3:0:0:
167,59,32206,5,4,0:0:0:0:
154,164,32386,1,0,0:0:0:0:
246,215,32565,2,0,L|342:204,1,83.5,8|2,0:0|0:0,0:0:0:0:
409,236,32835,1,2,0:0:0:0:
409,236,32924,6,0,P|412:195|397:144,1,83.5,0|0,1:0|1:0,0:0:0:0:
282,96,33284,1,8,0:0:0:0:
228,314,33463,5,2,0:0:0:0:
133,272,33643,2,0,L|119:186,1,83.5,0|0,1:0|0:0,0:0:0:0:
204,48,34002,2,0,L|199:153,1,83.5,8|0,0:0|0:0,0:0:0:0:
315,227,34362,5,0,1:0:0:0:
415,202,34541,1,0,1:0:0:0:
458,107,34721,2,0,P|458:65|437:18,1,83.5,8|0,0:0|0:0,0:0:0:0:
372,217,35080,6,0,P|369:258|389:303,1,83.5,2|0,0:0|0:0,0:0:0:0:
444,153,35439,2,0,P|371:129|284:185,1,167,8|2,0:0|1:2,0:0:0:0:
261,268,35978,1,0,0:0:0:0:
261,268,36158,2,0,L|143:256,1,83.5,8|0,0:0|0:0,0:0:0:0:
335,220,36517,6,0,L|319:116,1,83.5,0|0,1:0|0:0,0:0:0:0:
236,92,36877,2,0,L|243:-20,1,83.5,8|0,0:0|0:0,0:0:0:0:
489,132,37236,6,0,P|436:148|381:127,1,83.5,0|0,1:0|0:0,0:0:0:0:
334,100,37505,1,0,1:0:0:0:
334,100,37595,2,0,P|293:108|223:94,1,83.5,8|0,0:0|0:0,0:0:0:0:
177,61,37865,1,0,1:0:0:0:
172,38,37954,6,4,P|165:121|90:136,1,167,4|8,0:0|0:0,0:0:0:0:
231,205,38493,1,0,1:0:0:0:
231,205,38583,1,0,1:0:0:0:
231,205,38673,5,8,1:3:0:0:
218,308,38853,1,0,1:0:0:0:
204,118,39032,1,0,1:0:0:0:
324,233,39212,6,0,P|392:233|439:136,1,167,4|0,0:0|0:0,0:0:0:0:
197,144,39751,1,8,0:0:0:0:
221,245,39930,1,0,1:0:0:0:
221,245,40020,1,0,1:0:0:0:
221,245,40110,5,8,1:3:0:0:
236,143,40290,1,0,1:0:0:0:
253,41,40469,1,8,0:0:0:0:
143,167,40649,6,0,P|60:159|23:79,1,167,2|0,0:0|1:0,0:0:0:0:
438,114,41188,1,8,0:0:0:0:
438,114,41368,6,0,P|398:183|318:190,1,167,2|0,0:0|1:0,0:0:0:0:
343,102,41907,1,8,0:0:0:0:
238,92,42086,1,2,0:0:0:0:
238,92,42445,5,0,1:0:0:0:
221,186,42625,2,0,L|235:290,1,83.5,8|0,0:0|0:0,0:0:0:0:
143,325,42984,1,0,1:0:0:0:
51,275,43164,1,2,0:0:0:0:
71,173,43344,6,0,P|76:132|53:75,1,83.5,8|8,0:0|1:3,0:0:0:0:
110,111,43613,1,0,0:0:0:0:
110,111,43703,2,0,L|246:103,1,125.25,4|0,0:0|0:0,0:0:0:0:
262,127,44062,2,0,L|278:15,1,83.5,8|0,0:0|0:0,0:0:0:0:
446,117,44421,5,0,1:0:0:0:
403,211,44601,2,0,P|353:217|306:196,1,83.5,0|8,1:0|0:0,0:0:0:0:
219,105,44960,2,0,L|240:270,1,167,2|0,0:0|1:0,0:0:0:0:
158,334,45499,6,0,P|109:334|67:323,1,83.5,8|2,0:0|0:0,0:0:0:0:
328,216,45859,2,0,P|374:211|415:224,1,83.5,0|2,1:0|0:0,0:0:0:0:
473,299,46218,1,8,0:0:0:0:
462,126,46397,1,0,1:0:0:0:
241,294,46577,5,8,0:0:0:0:
210,39,46757,1,2,0:0:0:0:
141,341,46936,5,8,0:0:0:0:
310,61,47116,1,2,0:0:0:0:
58,269,47296,5,8,0:0:0:0:
344,236,47475,1,2,0:0:0:0:
106,59,47655,5,8,0:0:0:0:
258,344,47835,1,2,0:0:0:0:
258,344,47924,1,0,0:0:0:0:
258,344,48014,5,8,0:0:0:0:
251,125,48194,1,2,0:0:0:0:
137,335,48374,5,8,0:0:0:0:
389,290,48553,1,2,0:0:0:0:
209,33,48733,5,8,0:0:0:0:
166,244,48912,1,2,0:0:0:0:
363,176,49092,5,8,0:0:0:0:
316,83,49272,5,0,0:0:0:0:
264,288,49451,6,0,B|256:264|272:232|272:232|248:184|208:184|192:200|176:240,1,167.834992061028,4|0,0:0|1:0,0:0:0:0:
77,293,50170,2,0,P|99:218|53:123,1,167.834992061028,8|4,0:0|0:0,0:0:0:0:
220,241,51068,5,8,0:0:0:0:
277,163,51248,2,0,L|366:157,1,83.5,8|8,0:0|0:3,0:0:0:0:
181,331,51607,2,0,L|191:236,1,83.5,8|2,0:0|0:0,0:0:0:0:
189,247,52326,6,0,P|140:251|83:130,1,200.399993884278,4|0,0:0|0:0,0:0:0:0:
287,89,52865,2,0,L|268:196,1,100.199996942139
283,274,53224,1,0,0:0:0:0:
359,222,53403,2,0,P|407:216|459:218,1,100.199996942139
209,327,53763,5,0,0:0:0:0:
163,245,53942,2,0,L|173:120,1,100.199996942139
78,306,54302,1,0,0:0:0:0:
263,180,54481,5,0,0:0:0:0:
82,81,54661,1,0,0:0:0:0:
295,257,54841,2,0,L|288:123,1,100.199996942139
498,207,55200,6,0,P|451:251|418:137,1,200.399993884278
512,99,55739,2,0,L|403:67,1,100.199996942139
288,154,56098,1,0,0:0:0:0:
264,258,56278,2,0,P|217:272|144:259,1,100.199996942139
127,177,56637,5,0,0:0:0:0:
127,177,56996,1,0,0:0:0:0:
224,172,57176,1,0,0:0:0:0:
46,293,57356,2,0,P|35:245|47:174,1,100.199996942139
202,124,57715,2,0,P|153:142|102:134,1,100.199996942139
274,60,58074,6,0,P|284:148|211:223,1,200.399993884278
144,48,58613,1,0,0:0:0:0:
140,293,58793,5,0,0:0:0:0:
140,293,58972,1,0,0:0:0:0:
213,341,59152,2,0,L|320:326,1,100.199996942139
377,260,59511,5,0,0:0:0:0:
394,155,59691,1,0,0:0:0:0:
476,310,59871,2,0,P|515:255|494:130,1,200.399993884278
278,245,60409,5,0,0:0:0:0:
268,145,60589,1,0,0:0:0:0:
222,324,60769,1,0,0:0:0:0:
200,67,60948,5,0,0:0:0:0:
286,108,61128,1,0,0:0:0:0:
359,45,61308,1,4,0:0:0:0:
359,45,61667,2,0,P|406:37|483:45,1,100.199996942139
276,143,62026,2,0,L|259:253,1,100.199996942139,8|0,0:0|0:0,0:0:0:0:
163,312,62386,6,0,P|87:307|18:278,1,150.299995413208,2|0,0:0|0:0,0:0:0:0:
51,264,62745,2,0,P|63:211|29:143,1,100.199996942139,8|0,0:0|0:0,0:0:0:0:
116,109,63014,1,0,0:0:0:0:
116,109,63104,5,0,0:0:0:0:
77,27,63284,1,0,0:0:0:0:
206,118,63463,1,0,0:0:0:0:
297,95,63643,1,0,0:0:0:0:
304,129,63733,1,0,0:0:0:0:
315,162,63823,6,0,P|327:83|277:18,1,150.299995413208
290,26,64182,2,0,L|162:41,1,100.199996942139
129,121,64541,5,0,0:0:0:0:
232,129,64721,1,0,0:0:0:0:
72,42,64900,1,0,0:0:0:0:
100,213,65080,1,0,0:0:0:0:
100,213,65170,1,0,0:0:0:0:
100,213,65260,5,0,0:0:0:0:
185,178,65439,1,0,0:0:0:0:
258,281,65619,1,0,0:0:0:0:
273,108,65799,1,0,0:0:0:0:
348,179,65978,2,0,P|400:184|452:174,1,100.199996942139
270,248,66338,6,0,P|216:242|149:275,1,100.199996942139
133,328,66607,1,0,0:0:0:0:
133,328,66697,2,0,P|166:257|95:167,1,200.399993884278
65,259,67236,1,0,0:0:0:0:
41,85,67415,1,0,0:0:0:0:
131,117,67595,1,0,0:0:0:0:
199,48,67775,1,0,0:0:0:0:
208,34,68134,6,0,L|204:158,1,100.199996942139
275,207,68493,2,0,P|318:217|375:208,1,100.199996942139
206,280,68853,5,0,0:0:0:0:
234,113,69032,1,0,0:0:0:0:
268,348,69212,5,0,0:0:0:0:
174,46,69391,1,0,0:0:0:0:
145,321,69571,6,0,P|90:267|116:149,1,200.399993884278
276,201,70110,2,0,P|213:229|161:217,1,100.199996942139
335,112,70469,1,0,0:0:0:0:
428,164,70649,2,0,P|439:215|422:277,1,100.199996942139
322,316,71008,5,0,0:0:0:0:
257,72,71188,1,0,0:0:0:0:
226,194,71368,1,0,0:0:0:0:
110,179,71547,5,0,0:0:0:0:
114,144,71637,1,0,0:0:0:0:
119,109,71727,1,0,0:0:0:0:
174,242,71906,5,0,0:0:0:0:
202,258,71995,1,0,0:0:0:0:
235,263,72085,1,0,0:0:0:0:
267,256,72175,1,0,0:0:0:0:
295,237,72265,1,0,0:0:0:0:
313,210,72355,1,0,0:0:0:0:
320,177,72444,5,0,0:0:0:0:
352,38,72625,2,0,P|361:92|418:130,1,111.889994707352
487,37,73164,2,0,L|486:111,1,55.944997353676
394,224,73523,5,0,0:0:0:0:
380,223,73612,1,0,0:0:0:0:
366,221,73702,1,0,0:0:0:0:
352,220,73792,1,0,0:0:0:0:
338,218,73882,1,0,0:0:0:0:
268,307,74062,1,0,0:0:0:0:
206,131,74242,6,0,B|220:145|206:179|206:179|233:195|228:245|190:267|153:223,1,167.834992061028
154,57,74960,5,0,0:0:0:0:
276,332,75140,1,0,0:0:0:0:
282,45,75320,5,0,0:0:0:0:
111,163,75499,2,0,L|18:156,1,83.5
185,228,75859,2,0,L|300:217,1,83.5
316,129,76218,1,0,0:0:0:0:
316,290,76397,1,0,0:0:0:0:
142,193,76577,5,0,0:0:0:0:
142,193,76667,1,0,0:0:0:0:
142,193,76757,1,0,0:0:0:0:
230,34,76936,1,0,0:0:0:0:
258,210,77116,1,0,0:0:0:0:
236,95,77296,5,0,0:0:0:0:
236,95,77386,1,0,0:0:0:0:
236,95,77475,1,0,0:0:0:0:
260,249,77655,1,0,0:0:0:0:
167,39,77835,1,0,0:0:0:0:
167,39,78014,1,0,0:0:0:0:
124,133,78194,6,0,P|67:140|25:127,1,83.5
203,185,78553,2,0,P|252:173|301:178,1,83.5
365,240,78912,1,0,0:0:0:0:
457,192,79092,2,0,L|452:98,1,83.5
248,264,79451,1,0,0:0:0:0:
243,82,79631,5,0,0:0:0:0:
224,185,79811,2,0,P|191:194|129:184,1,83.5
28,299,80170,1,0,0:0:0:0:
28,299,80260,1,0,0:0:0:0:
28,299,80350,2,0,L|34:205,1,83.5
160,56,80709,5,0,0:0:0:0:
148,86,80798,1,0,0:0:0:0:
154,119,80888,1,0,0:0:0:0:
175,143,80978,1,0,0:0:0:0:
189,172,81068,6,0,L|180:276,1,83.5
258,325,81427,2,0,L|359:308,1,83.5
116,48,81787,6,0,L|109:135,1,83.5
290,237,82146,2,0,L|285:140,1,83.5
80,336,82505,5,0,0:0:0:0:
343,62,82685,1,0,0:0:0:0:
259,330,82865,5,0,0:0:0:0:
113,45,83044,1,0,0:0:0:0:
168,192,83224,5,0,0:0:0:0:
196,187,83313,1,0,0:0:0:0:
225,183,83403,1,0,0:0:0:0:
254,179,83493,1,0,0:0:0:0:
283,175,83583,1,0,0:0:0:0:
256,192,83763,12,0,88972,0:0:0:0:
265,109,89152,6,0,L|252:226,1,83.5,2|0,0:0|0:0,0:0:0:0:
