osu file format v5

[General]
AudioFilename: Toy Box - Superstar.mp3
AudioLeadIn: 0
PreviewTime: -1
Countdown: 1
SampleSet: Soft
StackLeniency: 0.7
Mode: 0

[Metadata]
Title:Superstar
Artist:Toy-Box
Creator:Rolled
Version:Normal
Source:
Tags:

[Difficulty]
HPDrainRate:3
CircleSize:4
OverallDifficulty:3
SliderMultiplier:1.3
SliderTickRate:1

[Events]
//Background and Video events
0,0,"9.jpg"
//Break Periods
2,68596,81526
2,109737,115811
//Storyboard Layer 0 (Background)
//Storyboard Layer 1 (Failing)
//Storyboard Layer 2 (Passing)
//Storyboard Layer 3 (Foreground)
//Storyboard Sound Samples
//Background Colour Transformations
3,100,255,128,192

[TimingPoints]
7548,428.571428571429,4,2,0,100
34119,428.571428571429,4,2,0,100
34976,428.571428571429,4,1,0,94
40118,428.571428571429,4,2,0,100
41832,428.571428571429,4,1,0,100
46974,428.571428571429,4,2,0,100
48259,428.571428571429,4,1,0,100
55116,428.571428571429,4,2,0,100
81686,428.571428571429,4,1,0,100
103114,428.571428571429,4,2,0,100
137828,428.571428571429,4,1,0,100
144685,428.571428571429,4,2,0,100
158399,428.571428571429,4,1,0,79
171256,428.571428571429,4,2,0,100

[Colours]
Combo1 : 171,92,205
Combo2 : 50,187,226
Combo3 : 61,4,164
Combo4 : 89,135,219

[HitObjects]
104,104,7547,1,6
176,192,7976,1,2
240,96,8405,2,2,B|312:40|400:128,1,130
368,208,9262,2,2,B|424:288|328:288|360:360,1,130
296,320,9905,1,2
240,320,10119,2,2,B|160:312|144:216,1,130
160,120,10976,6,2,B|216:32|318:27|384:136,1,260
372,118,12047,1,2
372,118,12262,1,2
320,224,12690,5,2
256,320,13119,1,2
192,216,13547,1,2
368,64,14405,6,2,B|448:96|440:176,2,130
256,104,15690,1,2
144,144,16119,2,2,B|48:184|64:264,2,130
184,256,17405,1,2
264,176,17833,5,2
288,48,18262,1,2
392,120,18690,1,2
408,184,18905,1,2
384,240,19119,1,2
256,192,19548,12,6,20833
64,280,21262,2,2,B|216:280,1,130
328,56,22548,1,6
392,56,22762,1,2
392,120,22976,2,2,B|376:264,1,130
136,160,24262,1,6
80,120,24476,1,2
128,80,24690,2,2,B|169:16|216:122|280:16,1,130
304,304,25976,5,6
304,240,26190,1,2
304,176,26405,2,6,B|168:96,1,130
144,152,27048,1,2
96,192,27262,2,6,B|96:328,1,130
160,320,27905,1,2
208,280,28119,2,6,B|304:176,1,130
472,32,29405,5,2
424,72,29619,1,2
360,80,29833,2,4,B|300:12|208:104,1,130
72,272,31119,1,2
120,312,31333,1,2
168,264,31548,2,4,B|224:192|160:128,1,130
408,40,32833,1,2
408,104,33048,1,2
352,72,33262,2,6,B|272:32|200:120,1,130
176,208,34119,6,2,B|208:312|208:312|264:240|264:240|304:320,1,260
288,160,35404,1,0
248,32,35833,2,0,B|320:32,3,65
264,152,36904,5,2
112,288,37547,5,0
112,224,37761,1,0
112,160,37975,1,0
216,80,38404,6,2,B|288:40|376:104,3,130
256,184,40118,5,0
256,184,41189,1,0
256,184,41403,1,0
384,120,41832,6,0,B|360:40|252:16|131:46|128:128,1,325
112,184,43117,1,0
120,248,43331,1,0
256,176,43760,5,2
408,56,44403,5,0
408,120,44617,1,0
408,184,44831,1,4
312,272,45260,5,0
184,288,45689,1,0
104,184,46117,2,0,B|136:80|248:72,2,130
232,192,47402,1,0
232,192,47616,1,0
360,192,48045,1,0
360,192,48259,5,0
360,64,48687,1,0
128,64,49116,5,2
128,192,49544,1,2
320,320,49973,5,0
408,224,50401,1,0
152,40,50830,5,2
232,136,51258,1,2
72,312,51687,5,0
72,184,52116,1,0
256,312,52544,5,2
384,312,52973,1,2
256,192,53401,12,2,55116
176,144,55544,1,2
176,144,55973,1,2
160,272,56401,2,2,B|248:344|320:288,1,130
336,192,57258,1,2
432,104,57687,1,2
312,48,58115,2,2,B|208:0|152:80,1,130
136,160,58973,5,2
136,160,59401,1,2
224,256,59830,2,2,B|304:288|344:208,1,130
240,128,60687,1,2
120,72,61115,1,2
48,176,61544,1,2
280,288,62401,6,2,B|340:330|424:288,2,130
368,40,64115,2,2,B|272:136,1,130
208,128,64758,1,2
136,136,64973,2,2,B|208:272,1,130
88,320,65830,5,2
72,192,66258,1,2
200,192,66687,1,2
200,192,66901,1,2
200,192,67115,1,2
328,192,67544,2,2,B|408:192|408:192|440:264|400:304|400:304|312:304,1,260
112,168,82971,5,2
360,168,83828,1,0
408,216,84043,1,0
456,168,84257,1,0
408,120,84471,1,0
288,64,84900,5,2
112,160,85543,1,0
112,224,85757,1,0
112,288,85971,1,4
232,240,86400,5,2
472,136,87257,2,0,B|424:40|320:40,1,130
264,104,88114,1,0
64,104,88757,1,0
168,184,89185,1,0
168,248,89400,1,4
288,256,89828,6,2,B|376:248|392:184,1,130
296,96,90685,1,0
168,64,91114,1,0
128,120,91328,1,0
208,224,91757,5,2
400,208,92400,1,0
400,144,92614,1,0
400,80,92828,1,4
272,96,93257,5,2
144,136,93685,2,0,B|88:208|136:272,2,130
264,176,94971,1,0
392,176,95400,1,0
392,176,95614,1,0
328,64,96043,1,0
328,64,96257,5,2
200,64,96685,1,2
200,272,97114,5,0
328,272,97543,1,0
128,168,97971,5,2
48,64,98400,1,2
272,88,98828,5,0
272,216,99257,1,0
480,184,99685,5,2
416,296,100114,1,2
160,272,100543,5,0
80,168,100971,1,0
256,192,101400,12,0,103542
216,144,103971,1,6
336,104,104399,2,2,B|424:152|432:232,1,130
304,248,105256,1,2
304,248,105471,2,2,B|248:336|240:328,1,65
168,216,106113,1,2
168,216,106328,2,2,B|216:144,1,65
256,32,106971,5,4
256,32,107399,1,4
352,120,107828,2,2,B|408:176,2,65
232,168,108685,2,2,B|232:272|136:272,1,130
96,160,109542,1,2
448,104,117256,6,2,B|296:104,1,130
184,328,118542,1,6
120,328,118756,1,2
120,264,118971,2,2,B|136:120,1,130
376,224,120256,5,6
432,260,120471,1,2
384,304,120685,2,2,B|343:368|296:262|232:368,1,130
199,69,121971,1,6
199,139,122185,1,2
200,208,122399,2,6,B|336:288,1,130
368,232,123042,1,2
424,184,123256,2,6,B|424:48,1,130
352,64,123899,1,2
296,104,124113,2,6,B|200:208,1,130
40,352,125399,5,2
88,312,125613,1,2
152,304,125828,2,4,B|212:372|304:280,1,130
440,112,127113,1,2
387,69,127328,1,2
344,120,127542,2,4,B|288:192|352:256,1,130
104,344,128828,1,2
104,280,129042,1,2
160,312,129256,2,6,B|240:352|312:264,1,130
256,56,130971,5,2
336,152,131399,1,2
208,152,131828,1,2
208,152,132042,1,2
208,152,132256,1,2
200,280,132685,6,2,B|248:360|304:272,2,130
184,216,133756,1,2
120,224,133971,1,6
152,96,134399,5,2
272,48,134828,1,2
352,152,135256,1,2
392,272,135685,1,2
272,312,136114,1,2
72,144,136971,1,6
320,64,137828,5,0
400,160,138256,1,0
272,176,138685,1,0
272,176,138899,1,0
272,176,139113,1,4
152,216,139542,2,0,B|136:272|208:280,3,65
240,272,140399,1,0
288,312,140613,1,0
352,296,140828,1,0
368,168,141256,6,0,B|352:64|248:40,1,130
168,64,142113,2,0,B|64:80|64:152,1,130
256,352,142970,5,0
256,240,143399,1,0
256,120,143828,1,0
256,8,144256,1,4
344,96,144685,5,6
392,216,145113,1,2
272,288,145542,2,2,B|200:344|112:256,1,130
144,176,146399,2,2,B|88:96|184:96|152:24,1,130
216,64,147042,1,2
272,64,147256,2,2,B|352:72|368:168,1,130
352,264,148113,6,2,B|296:352|194:357|128:248,1,260
140,266,149185,1,2
140,266,149399,1,2
192,160,149827,5,2
264,48,150256,1,2
328,160,150685,1,2
144,320,151542,6,2,B|64:288|72:208,2,130
256,280,152827,1,2
368,240,153256,2,2,B|464:200|448:120,2,130
328,128,154542,1,2
248,208,154970,5,2
224,336,155399,1,2
120,264,155827,1,2
104,200,156042,1,2
128,144,156256,1,2
256,192,156685,12,6,157970
296,144,158399,1,6
176,104,158827,2,2,B|88:152|80:232,1,130
208,248,159684,1,2
208,248,159899,2,2,B|264:336|272:328,1,65
344,216,160541,1,2
344,216,160756,2,2,B|296:144,1,65
256,32,161399,5,4
256,32,161827,1,4
160,120,162256,2,2,B|104:176,2,65
280,168,163113,2,2,B|280:272|376:272,1,130
424,168,163970,2,2,B|480:104|440:32,1,130
192,72,165256,5,6
240,192,165684,2,6,B|248:304|440:344,1,260
440,272,166756,1,6
440,208,166970,2,6,B|416:104|240:56,1,260
216,112,168041,1,6
160,136,168256,1,6
256,192,168684,12,4,171256
