osu file format v14

[General]
AudioFilename: Souzou Diary.mp3
AudioLeadIn: 0
PreviewTime: 50765
Countdown: 0
SampleSet: Normal
StackLeniency: 0.7
Mode: 1
LetterboxInBreaks: 0
WidescreenStoryboard: 0

[Editor]
DistanceSpacing: 0.5
BeatDivisor: 4
GridSize: 32
TimelineZoom: 1.2

[Metadata]
Title:Souzou Diary (TV size ver)
TitleUnicode:想像ダイアリー (TV size ver)
Artist:Touyama Nao, Hanazawa Kana, Komatsu Mikako, Asumi Kana
ArtistUnicode:東山奈央, 花澤香菜, 小松未可子, 阿澄佳奈
Creator:Genocide
Version:Muzukashii
Source:ニセコイ
Tags:nisekoi shaft fake love ending kosaki onodera marika tachibana
BeatmapID:571060
BeatmapSetID:239059

[Difficulty]
HPDrainRate:4
CircleSize:3
OverallDifficulty:4
ApproachRate:9
SliderMultiplier:1.4
SliderTickRate:1

[Events]
//Background and Video events
0,0,"hai^).jpg",0,120
//Break Periods
//Storyboard Layer 0 (Background)
//Storyboard Layer 1 (Fail)
//Storyboard Layer 2 (Pass)
//Storyboard Layer 3 (Foreground)
//Storyboard Sound Samples

[TimingPoints]
1040,331.491712707182,4,1,0,95,1,0
51426,-100,4,1,0,95,0,1
77946,-100,4,1,0,95,0,0

[HitObjects]
256,192,1040,5,4,0:0:0:0:
256,192,1702,1,0,0:0:0:0:
256,192,2365,1,12,0:0:0:0:
256,192,3029,1,8,0:0:0:0:
256,192,3194,1,0,0:0:0:0:
256,192,3526,1,8,0:0:0:0:
256,192,3691,1,4,0:0:0:0:
256,192,4354,1,0,0:0:0:0:
256,192,4520,1,0,0:0:0:0:
256,192,4686,1,8,0:0:0:0:
256,192,5017,1,0,0:0:0:0:
256,192,5349,1,8,0:0:0:0:
256,192,5515,1,8,0:0:0:0:
256,192,5680,1,0,0:0:0:0:
256,192,5846,1,0,0:0:0:0:
256,192,6012,1,8,0:0:0:0:
256,192,6343,1,0,0:0:0:0:
256,192,7006,1,0,0:0:0:0:
256,192,7172,1,0,0:0:0:0:
256,192,7338,1,8,0:0:0:0:
256,192,7669,1,0,0:0:0:0:
256,192,8001,1,8,0:0:0:0:
256,192,8167,1,0,0:0:0:0:
256,192,8498,1,8,0:0:0:0:
256,192,8664,1,8,0:0:0:0:
256,192,8995,1,4,0:0:0:0:
256,192,9327,1,8,0:0:0:0:
256,192,9493,1,0,0:0:0:0:
256,192,9824,1,8,0:0:0:0:
256,192,10156,1,4,0:0:0:0:
256,192,10487,1,0,0:0:0:0:
256,192,10984,1,0,0:0:0:0:
256,192,11316,1,8,0:0:0:0:
256,192,11647,1,4,0:0:0:0:
256,192,12310,1,0,0:0:0:0:
256,192,12642,1,0,0:0:0:0:
256,192,12807,1,8,0:0:0:0:
256,192,13139,1,8,0:0:0:0:
256,192,13470,1,8,0:0:0:0:
256,192,13802,1,8,0:0:0:0:
256,192,13968,1,8,0:0:0:0:
256,192,14299,1,0,0:0:0:0:
256,192,14962,1,8,0:0:0:0:
256,192,15128,1,0,0:0:0:0:
256,192,15294,1,0,0:0:0:0:
256,192,15625,1,4,0:0:0:0:
256,192,16288,1,12,0:0:0:0:
256,192,16951,1,0,0:0:0:0:
256,192,17283,1,0,0:0:0:0:
256,192,17614,1,8,0:0:0:0:
256,192,18277,1,8,0:0:0:0:
256,192,18609,1,0,0:0:0:0:
256,192,18940,1,0,0:0:0:0:
256,192,19272,1,0,0:0:0:0:
256,192,19603,1,8,0:0:0:0:
256,192,19935,1,0,0:0:0:0:
256,192,20100,1,8,0:0:0:0:
256,192,20266,1,0,0:0:0:0:
256,192,20598,1,0,0:0:0:0:
256,192,20929,1,8,0:0:0:0:
256,192,21260,1,0,0:0:0:0:
256,192,21592,1,8,0:0:0:0:
256,192,21758,1,8,0:0:0:0:
256,192,21923,1,0,0:0:0:0:
256,192,22255,1,8,0:0:0:0:
256,192,22918,1,0,0:0:0:0:
256,192,23249,1,0,0:0:0:0:
256,192,23581,1,8,0:0:0:0:
256,192,24244,1,0,0:0:0:0:
256,192,24575,1,8,0:0:0:0:
256,192,24741,1,8,0:0:0:0:
256,192,24907,1,0,0:0:0:0:
256,192,25238,1,0,0:0:0:0:
256,192,25404,1,8,0:0:0:0:
256,192,25570,1,0,0:0:0:0:
256,192,25901,1,8,0:0:0:0:
256,192,26233,1,12,0:0:0:0:
256,192,26399,1,0,0:0:0:0:
256,192,26730,1,0,0:0:0:0:
256,192,27062,1,8,0:0:0:0:
256,192,27393,1,8,0:0:0:0:
256,192,27559,1,4,0:0:0:0:
256,192,27890,1,8,0:0:0:0:
256,192,28222,1,0,0:0:0:0:
256,192,28388,1,8,0:0:0:0:
256,192,28719,1,8,0:0:0:0:
256,192,29051,1,0,0:0:0:0:
256,192,29216,1,8,0:0:0:0:
256,192,29879,1,0,0:0:0:0:
256,192,30045,1,0,0:0:0:0:
256,192,30211,1,8,0:0:0:0:
256,192,30542,1,8,0:0:0:0:
256,192,30708,1,8,0:0:0:0:
256,192,30874,1,0,0:0:0:0:
256,192,31205,1,8,0:0:0:0:
256,192,31537,1,0,0:0:0:0:
256,192,31868,1,8,0:0:0:0:
256,192,32200,1,0,0:0:0:0:
256,192,32365,1,8,0:0:0:0:
256,192,32531,1,8,0:0:0:0:
256,192,32863,1,0,0:0:0:0:
256,192,33194,1,8,0:0:0:0:
256,192,33526,1,0,0:0:0:0:
256,192,33691,1,0,0:0:0:0:
256,192,33857,1,8,0:0:0:0:
256,192,34189,1,0,0:0:0:0:
256,192,34520,1,8,0:0:0:0:
256,192,35183,1,8,0:0:0:0:
256,192,35515,1,4,0:0:0:0:
256,192,36178,1,0,0:0:0:0:
256,192,36343,1,8,0:0:0:0:
256,192,36509,1,8,0:0:0:0:
256,192,36675,1,0,0:0:0:0:
256,192,37006,1,8,0:0:0:0:
256,192,37172,1,0,0:0:0:0:
256,192,37338,1,8,0:0:0:0:
256,192,37504,1,8,0:0:0:0:
256,192,37835,1,8,0:0:0:0:
256,192,38167,1,4,0:0:0:0:
256,192,38830,1,8,0:0:0:0:
256,192,39493,1,0,0:0:0:0:
256,192,39658,1,8,0:0:0:0:
256,192,39990,1,8,0:0:0:0:
256,192,40321,1,0,0:0:0:0:
256,192,40819,1,0,0:0:0:0:
256,192,41481,1,8,0:0:0:0:
256,192,42144,1,0,0:0:0:0:
256,192,42310,1,8,0:0:0:0:
256,192,42642,1,8,0:0:0:0:
256,192,42973,1,8,0:0:0:0:
256,192,43470,1,4,0:0:0:0:
256,192,43802,1,8,0:0:0:0:
256,192,43968,1,0,0:0:0:0:
256,192,44299,1,8,0:0:0:0:
256,192,44631,1,0,0:0:0:0:
256,192,44796,1,8,0:0:0:0:
256,192,45128,1,12,0:0:0:0:
256,192,45459,1,0,0:0:0:0:
256,192,45791,1,12,0:0:0:0:
256,192,46122,1,0,0:0:0:0:
256,192,46454,1,8,0:0:0:0:
256,192,46620,1,0,0:0:0:0:
256,192,46786,1,8,0:0:0:0:
256,192,47117,1,8,0:0:0:0:
256,192,47448,1,12,0:0:0:0:
256,192,47946,1,8,0:0:0:0:
256,192,48277,1,0,0:0:0:0:
256,192,48443,1,8,0:0:0:0:
256,192,48774,1,4,0:0:0:0:
256,192,49437,1,4,0:0:0:0:
256,192,49769,1,8,0:0:0:0:
256,192,49935,1,0,0:0:0:0:
256,192,50017,1,0,0:0:0:0:
256,192,50100,1,0,0:0:0:0:
256,192,50432,1,12,0:0:0:0:
256,192,50763,1,8,0:0:0:0:
256,192,51095,1,0,0:0:0:0:
256,192,51260,1,8,0:0:0:0:
256,192,51426,1,4,0:0:0:0:
256,192,51758,1,8,0:0:0:0:
256,192,51923,1,0,0:0:0:0:
256,192,52089,1,0,0:0:0:0:
256,192,52421,1,8,0:0:0:0:
256,192,52752,1,0,0:0:0:0:
256,192,52918,1,8,0:0:0:0:
256,192,53249,1,8,0:0:0:0:
256,192,53415,1,0,0:0:0:0:
256,192,53747,1,8,0:0:0:0:
256,192,54078,1,8,0:0:0:0:
256,192,54410,1,0,0:0:0:0:
256,192,54575,1,0,0:0:0:0:
256,192,54658,1,0,0:0:0:0:
256,192,54741,1,8,0:0:0:0:
256,192,55073,1,0,0:0:0:0:
256,192,55404,1,4,0:0:0:0:
256,192,55736,1,4,0:0:0:0:
256,192,56067,1,4,0:0:0:0:
256,192,56399,1,8,0:0:0:0:
256,192,56730,1,4,0:0:0:0:
256,192,57062,1,8,0:0:0:0:
256,192,57227,1,4,0:0:0:0:
256,192,57559,1,8,0:0:0:0:
256,192,57725,1,0,0:0:0:0:
256,192,57890,1,8,0:0:0:0:
256,192,58222,1,0,0:0:0:0:
256,192,58553,1,0,0:0:0:0:
256,192,58719,1,8,0:0:0:0:
256,192,59051,1,0,0:0:0:0:
256,192,59382,1,8,0:0:0:0:
256,192,59714,1,8,0:0:0:0:
256,192,60045,1,8,0:0:0:0:
256,192,60211,1,0,0:0:0:0:
256,192,60376,1,8,0:0:0:0:
256,192,60542,1,4,0:0:0:0:
256,192,60874,1,12,0:0:0:0:
256,192,61205,1,4,0:0:0:0:
256,192,61371,1,8,0:0:0:0:
256,192,61702,1,0,0:0:0:0:
256,192,61785,1,0,0:0:0:0:
256,192,61868,1,0,0:0:0:0:
256,192,62034,1,12,0:0:0:0:
256,192,62365,1,8,0:0:0:0:
256,192,62531,1,0,0:0:0:0:
256,192,62697,1,8,0:0:0:0:
256,192,63028,1,0,0:0:0:0:
256,192,63360,1,8,0:0:0:0:
256,192,63526,1,8,0:0:0:0:
256,192,63857,1,0,0:0:0:0:
256,192,64023,1,8,0:0:0:0:
256,192,64354,1,12,0:0:0:0:
256,192,64686,1,0,0:0:0:0:
256,192,64769,1,0,0:0:0:0:
256,192,64852,1,0,0:0:0:0:
256,192,65183,1,8,0:0:0:0:
256,192,65349,1,8,0:0:0:0:
256,192,65680,1,0,0:0:0:0:
256,192,65846,1,0,0:0:0:0:
256,192,66012,1,8,0:0:0:0:
256,192,66343,1,8,0:0:0:0:
256,192,66675,1,0,0:0:0:0:
256,192,66841,1,8,0:0:0:0:
256,192,67006,1,0,0:0:0:0:
256,192,67338,1,8,0:0:0:0:
256,192,67669,1,0,0:0:0:0:
256,192,67835,1,8,0:0:0:0:
256,192,68167,1,0,0:0:0:0:
256,192,68498,1,8,0:0:0:0:
256,192,68830,1,0,0:0:0:0:
256,192,68995,1,8,0:0:0:0:
256,192,69161,1,0,0:0:0:0:
256,192,69327,1,8,0:0:0:0:
256,192,69658,1,8,0:0:0:0:
256,192,69990,1,0,0:0:0:0:
256,192,70156,1,0,0:0:0:0:
256,192,70321,1,8,0:0:0:0:
256,192,70653,1,0,0:0:0:0:
256,192,70984,1,8,0:0:0:0:
256,192,71316,1,0,0:0:0:0:
256,192,71647,1,12,0:0:0:0:
256,192,71979,1,0,0:0:0:0:
256,192,72144,1,0,0:0:0:0:
256,192,72310,1,8,0:0:0:0:
256,192,72642,1,0,0:0:0:0:
256,192,72807,1,8,0:0:0:0:
256,192,73139,1,8,0:0:0:0:
256,192,73470,1,0,0:0:0:0:
256,192,73802,1,4,0:0:0:0:
256,192,74299,1,0,0:0:0:0:
256,192,74631,1,8,0:0:0:0:
256,192,74962,1,0,0:0:0:0:
256,192,75294,1,4,0:0:0:0:
256,192,75957,1,8,0:0:0:0:
256,192,76620,1,8,0:0:0:0:
256,192,77283,1,0,0:0:0:0:
256,192,77448,1,0,0:0:0:0:
256,192,77946,1,4,0:0:0:0:
256,192,78609,1,0,0:0:0:0:
256,192,78940,1,8,0:0:0:0:
256,192,79272,1,0,0:0:0:0:
256,192,79603,1,0,0:0:0:0:
256,192,79769,1,8,0:0:0:0:
256,192,80100,1,8,0:0:0:0:
256,192,80432,1,0,0:0:0:0:
256,192,80598,1,8,0:0:0:0:
256,192,80929,1,0,0:0:0:0:
256,192,81095,1,0,0:0:0:0:
256,192,81260,1,8,0:0:0:0:
256,192,81592,1,0,0:0:0:0:
256,192,81923,1,12,0:0:0:0:
256,192,82255,1,0,0:0:0:0:
256,192,82421,1,8,0:0:0:0:
256,192,82752,1,0,0:0:0:0:
256,192,83249,1,4,0:0:0:0:
256,192,83581,1,0,0:0:0:0:
256,192,83747,1,8,0:0:0:0:
256,192,84078,1,0,0:0:0:0:
256,192,84244,1,0,0:0:0:0:
256,192,84410,1,8,0:0:0:0:
256,192,84741,1,0,0:0:0:0:
256,192,84907,1,8,0:0:0:0:
256,192,85073,1,8,0:0:0:0:
256,192,85404,1,4,0:0:0:0:
256,192,85736,1,12,0:0:0:0:
256,192,85901,12,0,87061,0:0:0:0:
