osu file format v14

[General]
AudioFilename: Souzou Diary.mp3
AudioLeadIn: 0
PreviewTime: 50765
Countdown: 0
SampleSet: Normal
StackLeniency: 0.7
Mode: 1
LetterboxInBreaks: 0
WidescreenStoryboard: 0

[Editor]
DistanceSpacing: 0.5
BeatDivisor: 4
GridSize: 32
TimelineZoom: 1.5

[Metadata]
Title:Souzou Diary (TV size ver)
TitleUnicode:想像ダイアリー (TV size ver)
Artist:Touyama Nao, Hanazawa Kana, Komatsu Mikako, Asumi Kana
ArtistUnicode:東山奈央, 花澤香菜, 小松未可子, 阿澄佳奈
Creator:Genocide
Version:Kantan
Source:ニセコイ
Tags:nisekoi shaft fake love ending kosaki onodera marika tachibana
BeatmapID:552760
BeatmapSetID:239059

[Difficulty]
HPDrainRate:3
CircleSize:3
OverallDifficulty:2
ApproachRate:9
SliderMultiplier:1.2
SliderTickRate:1

[Events]
//Background and Video events
0,0,"hai^).jpg",0,120
//Break Periods
//Storyboard Layer 0 (Background)
//Storyboard Layer 1 (Fail)
//Storyboard Layer 2 (Pass)
//Storyboard Layer 3 (Foreground)
//Storyboard Sound Samples

[TimingPoints]
1040,331.491712707182,4,1,0,95,1,0
51426,-100,4,1,0,95,0,1
77946,-100,4,1,0,95,0,0

[HitObjects]
256,192,1040,5,4,0:0:0:0:
256,192,2365,1,4,0:0:0:0:
256,192,3691,1,12,0:0:0:0:
256,192,4354,1,0,0:0:0:0:
256,192,5017,1,0,0:0:0:0:
256,192,6343,1,8,0:0:0:0:
256,192,7006,1,0,0:0:0:0:
256,192,7669,1,0,0:0:0:0:
256,192,8995,1,4,0:0:0:0:
256,192,10156,1,8,0:0:0:0:
256,192,10984,1,0,0:0:0:0:
256,192,11647,1,8,0:0:0:0:
256,192,12642,1,0,0:0:0:0:
256,192,13470,1,0,0:0:0:0:
256,192,14299,1,8,0:0:0:0:
256,192,15625,1,0,0:0:0:0:
256,192,16288,1,0,0:0:0:0:
256,192,16951,1,0,0:0:0:0:
256,192,18277,1,0,0:0:0:0:
256,192,19603,1,8,0:0:0:0:
256,192,20929,1,0,0:0:0:0:
256,192,21592,1,0,0:0:0:0:
256,192,22254,1,8,0:0:0:0:
256,192,23581,1,0,0:0:0:0:
256,192,24907,1,0,0:0:0:0:
256,192,26233,1,12,0:0:0:0:
256,192,27062,1,8,0:0:0:0:
256,192,27559,1,4,0:0:0:0:
256,192,28885,1,0,0:0:0:0:
256,192,29879,1,0,0:0:0:0:
256,192,30211,1,8,0:0:0:0:
256,192,31537,1,0,0:0:0:0:
256,192,32200,1,8,0:0:0:0:
256,192,32863,1,4,0:0:0:0:
256,192,34189,1,8,0:0:0:0:
256,192,35183,1,8,0:0:0:0:
256,192,35515,1,4,0:0:0:0:
256,192,36675,1,0,0:0:0:0:
256,192,37504,1,8,0:0:0:0:
256,192,38167,1,4,0:0:0:0:
256,192,39493,1,0,0:0:0:0:
256,192,40156,1,8,0:0:0:0:
256,192,40819,1,0,0:0:0:0:
256,192,42144,1,0,0:0:0:0:
256,192,42807,1,8,0:0:0:0:
256,192,43470,1,4,0:0:0:0:
256,192,44796,1,0,0:0:0:0:
256,192,45128,1,12,0:0:0:0:
256,192,45791,1,12,0:0:0:0:
256,192,46122,1,0,0:0:0:0:
256,192,47448,1,8,0:0:0:0:
256,192,48443,1,8,0:0:0:0:
256,192,48774,1,4,0:0:0:0:
256,192,50100,1,0,0:0:0:0:
256,192,50763,1,8,0:0:0:0:
256,192,51426,1,4,0:0:0:0:
256,192,52752,1,8,0:0:0:0:
256,192,53415,1,8,0:0:0:0:
256,192,54078,1,12,0:0:0:0:
256,192,55404,1,8,0:0:0:0:
256,192,56067,1,0,0:0:0:0:
256,192,56730,1,4,0:0:0:0:
256,192,57890,1,8,0:0:0:0:
256,192,58719,1,0,0:0:0:0:
256,192,59382,1,8,0:0:0:0:
256,192,59714,1,8,0:0:0:0:
256,192,60542,1,8,0:0:0:0:
256,192,61371,1,0,0:0:0:0:
256,192,62034,1,4,0:0:0:0:
256,192,63360,1,8,0:0:0:0:
256,192,64686,1,12,0:0:0:0:
256,192,66012,1,12,0:0:0:0:
256,192,66675,1,8,0:0:0:0:
256,192,67338,1,4,0:0:0:0:
256,192,68498,1,12,0:0:0:0:
256,192,69327,1,0,0:0:0:0:
256,192,69990,1,8,0:0:0:0:
256,192,70653,1,8,0:0:0:0:
256,192,71647,1,12,0:0:0:0:
256,192,72642,1,0,0:0:0:0:
256,192,73802,1,0,0:0:0:0:
256,192,75294,1,4,0:0:0:0:
256,192,76620,1,8,0:0:0:0:
256,192,77283,1,0,0:0:0:0:
256,192,77946,1,4,0:0:0:0:
256,192,79272,1,8,0:0:0:0:
256,192,80598,1,8,0:0:0:0:
256,192,81260,1,2,0:0:0:0:
256,192,81923,1,4,0:0:0:0:
256,192,83249,1,0,0:0:0:0:
256,192,84410,1,0,0:0:0:0:
256,192,85073,1,8,0:0:0:0:
448,288,85736,1,0,0:0:0:0:
256,192,85901,12,0,87061,0:0:0:0:
